osu file format v13

[General]
AudioFilename: asymmetry.mp3
AudioLeadIn: 0
PreviewTime: 129211
Countdown: 0
SampleSet: Normal
StackLeniency: 0.5
Mode: 0
LetterboxInBreaks: 0
WidescreenStoryboard: 1

[Editor]
Bookmarks: 10435,20870,31304,41739,52174,62609,78261,83478,88124,88696,99130,109565,120000,130435,140870,155217,166956,177391,187826,198261,208696,224348,234783,245217
DistanceSpacing: 1.2
BeatDivisor: 4
GridSize: 4
TimelineZoom: 1.8

[Metadata]
Title:Asymmetry
TitleUnicode:Asymmetry
Artist:Reol
ArtistUnicode:Reol
Creator:Broccoly
Version:BKJ
Source:
Tags:jieusieu kloyd
BeatmapID:523466
BeatmapSetID:224213

[Difficulty]
HPDrainRate:7
CircleSize:4
OverallDifficulty:8
ApproachRate:9
SliderMultiplier:1.76
SliderTickRate:1

[Events]
//Background and Video events
0,0,"BGJK.png",0,0
//Break Periods
2,78379,82959
//Storyboard Layer 0 (Background)
//Storyboard Layer 1 (Fail)
//Storyboard Layer 2 (Pass)
//Storyboard Layer 3 (Foreground)
//Storyboard Sound Samples
//Background Colour Transformations
3,100,163,162,255

[TimingPoints]
5298,326.086956521739,4,1,0,100,1,0
5298,-117.647058823529,4,1,0,35,0,0
10516,-254.582278481013,4,1,0,25,0,0
20951,-111.111111111111,4,1,0,55,0,0
31385,-200,4,2,0,50,0,0
41494,-100,4,1,0,50,0,0
41820,-126.582278481013,4,1,0,50,0,0
47037,-169.491525423729,4,1,0,50,0,0
48342,-126.582278481013,4,1,0,50,0,0
51277,-169.491525423729,4,1,0,50,0,0
52255,-90.9090909090909,4,1,0,75,0,1
62364,-90.9090909090909,4,1,0,75,0,0
62690,-90.9090909090909,4,1,0,75,0,1
72961,-133.333333333333,4,1,0,75,0,1
74429,-90.9090909090909,4,1,0,75,0,1
76874,-200,4,1,0,75,0,0
78016,-100,4,1,0,75,0,0
83559,-169.491525423729,4,1,0,75,0,0
84211,-84.0336134453781,4,1,0,75,0,0
84537,-101.010101010101,4,1,0,60,0,0
86168,-169.491525423729,4,1,0,75,0,0
86820,-84.0336134453781,4,1,0,75,0,0
87146,-169.491525423729,4,1,0,75,0,0
87472,-126.582278481013,4,1,0,55,0,0
88450,-169.491525423729,4,1,0,75,0,0
88777,-100,4,1,0,50,0,0
93342,-111.111111111111,4,1,0,50,0,0
109646,-169.491525423729,4,1,0,50,0,0
114863,-126.582278481013,4,1,0,50,0,0
117145,-101.010101010101,4,1,0,50,0,0
117471,-126.582278481013,4,1,0,50,0,0
118776,-101.010101010101,4,1,0,50,0,0
119265,-126.582278481013,4,1,0,50,0,0
119754,-169.491525423729,4,1,0,50,0,0

[Colours]
Combo1 : 237,162,129
Combo2 : 253,238,55
Combo3 : 40,238,193

[HitObjects]
56,156,5298,6,0,L|176:132,1,112.200002140045,0|0,0:0|2:0,0:0:0:0:
166,133,5624,1,0,0:0:0:0:
276,184,5787,1,0,0:0:0:0:
276,184,6113,5,0,0:0:0:0:
324,196,6276,1,0,0:0:0:0:
372,208,6439,1,0,0:0:0:0:
512,148,6602,1,0,0:0:0:0:
398,60,6765,1,0,0:0:0:0:
397,56,6846,1,0,0:0:0:0:
396,52,6928,2,0,L|408:140,1,74.8000014266968
396,52,7417,5,0,0:0:0:0:
412,164,7580,1,0,0:0:0:0:
428,280,7743,1,0,0:0:0:0:
298,345,7906,2,0,L|224:330,1,74.8000014266968
356,262,8232,2,0,L|428:280,1,74.8000014266968
428,280,8721,5,0,0:0:0:0:
256,192,8884,1,0,0:0:0:0:
256,192,9047,1,0,0:0:0:0:
160,252,9211,6,0,P|108:248|76:264,1,74.8000014266968
92,327,9455,1,0,0:0:0:0:
92,327,9537,2,0,P|80:279|92:251,1,74.8000014266968
56,96,9863,2,0,P|44:144|56:172,1,74.8000014266968
152,40,10189,1,0,0:0:0:0:
376,172,10515,5,0,0:0:0:0:
392,88,11493,1,0,0:0:0:0:
296,108,11656,1,0,0:0:0:0:
200,128,11819,1,0,0:0:0:0:
184,132,12308,5,0,0:0:0:0:
168,136,12471,1,0,0:0:0:0:
164,228,12634,1,0,0:0:0:0:
148,232,12797,1,0,0:0:0:0:
144,324,12960,1,0,0:0:0:0:
128,328,13123,1,0,0:0:0:0:
48,348,14101,5,0,0:0:0:0:
68,252,14264,1,0,0:0:0:0:
88,156,14428,2,0,L|140:140,1,46.0885712303812
260,104,15080,2,0,L|312:88,1,46.0885712303812
384,72,15732,5,0,0:0:0:0:
460,116,16710,1,0,0:0:0:0:
440,212,16873,1,0,0:0:0:0:
420,308,17036,1,0,0:0:0:0:
416,292,17525,5,0,0:0:0:0:
412,276,17688,1,0,0:0:0:0:
320,272,17851,1,0,0:0:0:0:
316,256,18014,1,0,0:0:0:0:
224,252,18178,1,0,0:0:0:0:
220,236,18341,1,0,0:0:0:0:
208,152,19319,5,0,0:0:0:0:
112,132,19482,1,0,0:0:0:0:
16,112,19645,2,0,L|24:164,1,46.0885712303812,0|0,0:0|0:0,0:0:0:0:
124,216,20297,2,0,L|132:268,1,46.0885712303812,0|0,0:0|0:0,0:0:0:0:
88,332,20623,5,0,0:0:0:0:
302,51,20951,6,0,B|333:187,1,118.799996374512,0|0,0:0|2:0,0:0:0:0:
325,242,21277,1,0,0:0:0:0:
403,153,21440,2,0,L|443:158,1,39.5999987915039
260,196,21603,1,0,0:0:0:0:
240,194,21684,1,0,0:0:0:0:
220,192,21766,1,0,0:0:0:0:
120,132,21929,1,0,0:0:0:0:
188,44,22092,1,0,0:0:0:0:
40,92,22255,6,0,P|29:137|68:204,1,118.799996374512,0|0,0:0|2:0,0:0:0:0:
60,198,22581,1,0,0:0:0:0:
210,159,22744,1,0,0:0:0:0:
116,304,22907,1,0,0:0:0:0:
205,171,23070,1,0,0:0:0:0:
225,331,23233,1,0,0:0:0:0:
199,184,23396,5,0,0:0:0:0:
247,173,23478,1,0,0:0:0:0:
296,160,23559,2,0,L|389:178,1,79.1999975830079
481,75,23885,2,0,L|388:57,1,79.1999975830079
357,51,24130,1,0,0:0:0:0:
317,77,24211,1,0,0:0:0:0:
307,75,24293,1,0,0:0:0:0:
297,73,24374,1,0,0:0:0:0:
104,60,24537,2,0,L|197:78,1,79.1999975830079
104,60,24864,5,0,0:0:0:0:
72,264,25027,1,0,0:0:0:0:
72,264,25190,1,0,0:0:0:0:
104,60,25353,1,0,0:0:0:0:
152,216,25516,1,0,0:0:0:0:
112,240,25597,1,0,0:0:0:0:
72,264,25679,1,0,0:0:0:0:
224,312,25842,2,0,L|328:332,1,79.1999975830079
392,304,26086,1,0,0:0:0:0:
392,304,26168,6,0,P|380:256|412:184,1,118.799996374512,0|0,0:0|2:0,0:0:0:0:
403,192,26494,1,0,0:0:0:0:
260,136,26657,2,0,L|298:127,1,39.5999987915039
390,73,26820,1,0,0:0:0:0:
384,80,26902,1,0,0:0:0:0:
380,88,26983,1,0,0:0:0:0:
234,54,27146,1,0,0:0:0:0:
288,220,27309,1,0,0:0:0:0:
100,168,27472,6,0,L|216:145,1,118.799996374512,0|0,0:0|2:0,0:0:0:0:
260,136,27798,1,0,0:0:0:0:
84,172,27961,1,0,0:0:0:0:
108,76,28124,1,0,0:0:0:0:
112,280,28287,1,0,0:0:0:0:
16,244,28450,1,0,0:0:0:0:
208,316,28614,1,0,0:0:0:0:
208,316,28695,1,0,0:0:0:0:
208,316,28777,6,0,L|300:300,1,79.1999975830079
471,310,29103,2,0,L|379:326,1,79.1999975830079
328,180,29429,2,0,L|406:166,1,79.1999975830079
224,125,29755,2,0,L|146:139,1,79.1999975830079
94,337,30081,6,0,P|56:300|94:220,1,118.799996374512,0|0,0:0|2:0,0:0:0:0:
157,228,30407,2,0,L|283:251,1,118.799996374512,0|0,0:0|2:0,0:0:0:0:
317,256,30733,1,0,0:0:0:0:
341,100,30896,1,0,0:0:0:0:
475,172,31059,1,0,0:0:0:0:
375,185,31222,1,0,0:0:0:0:
375,185,31304,1,0,0:0:0:0:
375,185,31385,6,0,L|320:179,1,44
248,209,31711,1,0,0:0:0:0:
175,159,31874,1,0,0:0:0:0:
111,56,32037,2,0,L|118:118,1,44
36,167,32364,2,0,P|51:188|84:205,1,44
230,230,32690,6,0,L|143:238,1,88
290,167,33179,1,0,0:0:0:0:
400,270,33342,1,0,0:0:0:0:
315,250,33505,1,0,0:0:0:0:
255,314,33668,1,0,0:0:0:0:
375,185,33831,1,0,0:0:0:0:
218,240,33994,6,0,L|130:247,1,88
42,253,34483,1,0,0:0:0:0:
260,157,34646,1,0,0:0:0:0:
191,101,34809,1,0,0:0:0:0:
103,102,34972,1,0,0:0:0:0:
41,165,35135,1,0,0:0:0:0:
118,261,35298,6,0,L|206:254,1,88
247,273,35787,6,0,L|215:257,1,22
260,157,35950,6,0,P|313:158|357:228,1,132
360,228,36521,1,0,0:0:0:0:
362,238,36603,6,0,L|351:288,1,44
427,171,36929,1,0,0:0:0:0:
496,224,37092,1,0,0:0:0:0:
483,102,37255,2,0,L|494:52,1,44
355,114,37581,2,0,L|339:65,1,44
427,171,37907,6,0,B|443:272|443:272|418:252,1,132
331,253,38559,2,0,P|307:258|282:276,1,44
302,363,38885,2,0,P|325:370|355:367,1,44
234,321,39211,6,0,L|130:332,1,88,0|0,0:0|0:0,0:0:0:0:
269,236,39700,2,0,L|165:247,1,88,0|0,0:0|0:0,0:0:0:0:
79,164,40190,2,0,L|105:200,1,44,0|0,0:0|0:0,0:0:0:0:
72,361,40516,6,0,L|107:280,1,88,0|0,0:0|0:0,0:0:0:0:
20,287,41005,1,0,0:0:0:0:
159,347,41168,1,0,0:0:0:0:
72,361,41331,1,0,0:0:0:0:
79,164,41494,6,0,L|92:224,1,44,0|0,0:0|2:0,0:0:0:0:
88,207,41820,6,0,P|149:203|233:199,1,139.040003394531
311,196,42309,2,0,P|307:232|303:276,1,69.5200016972657
291,352,42635,1,0,0:0:0:0:
295,256,42798,1,0,0:0:0:0:
299,364,42961,1,0,0:0:0:0:
396,232,43124,6,0,B|401:172|401:172|396:152|396:152|404:72,1,139.040003394531
408,16,43614,2,0,P|384:20|321:28,1,69.5200016972657
260,36,43940,1,0,0:0:0:0:
252,148,44103,1,0,0:0:0:0:
268,24,44266,1,0,0:0:0:0:
156,72,44429,6,0,P|85:64|9:56,1,139.040003394531
28,140,44918,2,0,P|32:180|36:224,1,69.5200016972657
104,252,45244,1,0,0:0:0:0:
48,368,45407,1,0,0:0:0:0:
44,200,45570,1,0,0:0:0:0:
176,296,45733,6,0,B|171:236|171:236|176:216|176:216|168:136,1,139.040003394531
164,80,46223,2,0,P|188:84|251:92,1,69.5200016972657
296,40,46548,1,0,0:0:0:0:
248,192,46711,1,0,0:0:0:0:
212,8,46874,1,0,0:0:0:0:
384,68,47037,6,0,P|380:40|376:8,1,51.9199981778565
341,156,47364,2,0,P|344:182|348:208,1,51.9199981778565,0|0,0:0|0:0,0:0:0:0:
249,144,47690,2,0,P|245:116|241:84,1,51.9199981778565
206,232,48017,2,0,P|209:258|213:284,1,51.9199981778565,0|0,0:0|0:0,0:0:0:0:
93,120,48342,6,0,P|125:124|181:132,1,69.5200016972657
281,292,48668,2,0,P|246:287|212:282,1,69.5200016972657,0|0,0:0|0:0,0:0:0:0:
125,320,48994,2,0,P|121:288|113:232,1,69.5200016972657
241,72,49320,2,0,P|245:106|250:140,1,69.5200016972657,0|0,0:0|0:0,0:0:0:0:
281,292,49646,5,0,0:0:0:0:
117,252,49809,1,0,0:0:0:0:
138,332,49972,1,0,0:0:0:0:
42,156,50135,5,0,0:0:0:0:
206,116,50298,1,0,0:0:0:0:
185,196,50461,1,0,0:0:0:0:
336,48,50624,5,0,0:0:0:0:
336,48,51277,6,0,B|329:64|329:64|336:100|336:100|332:116|332:116|340:148|340:148|332:164|332:164|328:196|328:196|316:212|316:212|344:260|344:260|320:308,1,259.599990889283
192,272,52255,6,0,L|84:252,1,96.8000029541017
172,124,52581,1,0,0:0:0:0:
24,116,52744,1,0,0:0:0:0:
24,116,52825,1,0,0:0:0:0:
24,116,52907,2,0,P|12:152|32:212,1,96.8000029541017
88,160,53152,2,0,L|140:168,1,48.4000014770508,0|0,2:0|0:0,0:0:0:0:
272,128,53396,1,0,0:0:0:0:
304,300,53559,5,0,0:0:0:0:
280,148,53722,1,0,0:0:0:0:
424,208,53885,1,0,0:0:0:0:
272,320,54048,5,0,0:0:0:0:
252,312,54130,1,0,0:0:0:0:
232,304,54211,1,0,0:0:0:0:
184,311,54293,1,0,0:0:0:0:
136,323,54374,1,0,0:0:0:0:
158,179,54537,2,0,L|134:335,1,145.200004431152,0|0,0:0|2:0,0:0:0:0:
42,345,54864,6,0,L|144:321,1,96.8000029541017
268,220,55190,1,0,0:0:0:0:
384,316,55353,1,0,0:0:0:0:
376,316,55434,1,0,0:0:0:0:
368,316,55516,1,0,0:0:0:0:
224,232,55679,1,0,0:0:0:0:
384,188,55842,2,0,L|400:84,1,96.8000029541017
398,92,56086,1,0,0:0:0:0:
398,92,56168,5,0,0:0:0:0:
200,120,56331,1,0,0:0:0:0:
288,48,56494,1,0,0:0:0:0:
224,232,56657,1,0,0:0:0:0:
68,144,56820,6,0,L|120:144,1,48.4000014770508,0|0,0:0|2:0,0:0:0:0:
152,120,56983,2,0,L|204:120,1,48.4000014770508,0|0,0:0|2:0,0:0:0:0:
288,48,57146,1,0,0:0:0:0:
304,208,57309,1,0,0:0:0:0:
304,208,57391,1,0,0:0:0:0:
304,208,57472,6,0,P|344:260|452:236,1,145.200004431152,0|0,0:0|2:0,0:0:0:0:
452,240,57798,2,0,P|428:208|456:136,1,96.8000029541017
488,40,58124,1,0,0:0:0:0:
352,92,58287,2,0,L|244:80,1,96.8000029541017
72,176,58614,6,0,L|224:196,1,145.200004431152,0|0,0:0|2:0,0:0:0:0:
248,200,58940,1,0,0:0:0:0:
96,56,59103,2,0,L|107:152,1,96.8000029541017
96,332,59429,1,0,0:0:0:0:
248,200,59592,1,0,0:0:0:0:
302,310,59755,1,0,0:0:0:0:
236,176,59918,1,0,0:0:0:0:
424,208,60081,5,0,0:0:0:0:
424,208,60244,2,0,L|436:268,1,48.4000014770508
340,160,60407,2,0,L|352:52,1,96.8000029541017
228,232,60733,1,0,0:0:0:0:
188,220,60896,1,0,0:0:0:0:
340,160,61059,1,0,0:0:0:0:
137,149,61222,6,0,P|102:204|143:291,1,145.200004431152,0|0,0:0|2:0,0:0:0:0:
124,276,61548,1,0,0:0:0:0:
279,358,61711,2,0,B|336:352|336:352|363:336|363:336|420:331,1,145.200004431152,0|0,0:0|2:0,0:0:0:0:
441,329,62037,1,0,0:0:0:0:
360,218,62200,1,0,0:0:0:0:
506,124,62364,1,0,0:0:0:0:
502,143,62445,1,0,0:0:0:0:
499,162,62527,1,0,0:0:0:0:
496,181,62608,1,0,0:0:0:0:
492,200,62690,5,0,0:0:0:0:
403,72,62853,1,0,0:0:0:0:
403,72,62934,1,0,0:0:0:0:
403,72,63016,1,0,0:0:0:0:
422,245,63179,2,0,P|354:244|276:148,1,193.600005908203
119,81,63668,2,0,L|227:90,1,96.8000029541017
234,91,63912,1,0,0:0:0:0:
234,91,63994,6,0,P|234:119|220:149,1,48.4000014770508,0|0,0:0|2:0,0:0:0:0:
122,224,64157,2,0,P|108:199|105:166,1,48.4000014770508,0|0,0:0|2:0,0:0:0:0:
119,81,64320,1,0,0:0:0:0:
32,205,64483,1,0,0:0:0:0:
200,271,64646,6,0,L|188:171,1,96.8000029541017
305,331,64972,1,0,0:0:0:0:
341,343,65054,1,0,0:0:0:0:
379,343,65135,1,0,0:0:0:0:
414,327,65217,1,0,0:0:0:0:
441,300,65298,6,0,B|454:156|454:156|473:203,1,193.600005908203
341,343,65787,2,0,B|259:348|218:303|218:303|290:305,1,193.600005908203
344,234,66277,1,0,0:0:0:0:
306,144,66440,2,0,L|318:90,1,48.4000014770508
323,73,66603,5,0,0:0:0:0:
227,188,66766,1,0,0:0:0:0:
86,108,66929,1,0,0:0:0:0:
149,244,67092,2,0,L|138:291,1,48.4000014770508
133,315,67255,1,0,0:0:0:0:
47,192,67418,1,0,0:0:0:0:
154,30,67581,2,0,P|186:71|187:124,1,96.8000029541017
181,137,67825,1,0,0:0:0:0:
181,137,67907,6,0,L|290:118,1,96.8000029541017,0|0,0:0|0:0,0:0:0:0:
149,243,68233,2,0,L|258:224,1,96.8000029541017,0|0,0:0|0:0,0:0:0:0:
244,226,68478,1,0,0:0:0:0:
326,275,68559,2,0,P|336:335|310:384,1,96.8000029541017
242,314,68885,1,0,0:0:0:0:
329,179,69048,6,0,P|404:205|511:170,1,193.600005908203
400,11,69537,2,0,L|415:123,1,96.8000029541017
412,106,69782,1,0,0:0:0:0:
412,106,69864,1,0,0:0:0:0:
329,179,70027,1,0,0:0:0:0:
223,169,70190,1,0,0:0:0:0:
489,8,70353,2,0,L|481:64,1,48.4000014770508
470,154,70516,5,0,0:0:0:0:
294,102,70679,1,0,0:0:0:0:
402,56,70842,1,0,0:0:0:0:
389,248,71005,5,0,0:0:0:0:
389,248,71086,1,0,0:0:0:0:
389,248,71168,1,0,0:0:0:0:
248,206,71331,1,0,0:0:0:0:
334,169,71494,1,0,0:0:0:0:
367,336,71657,1,0,0:0:0:0:
128,304,71820,6,0,P|172:285|219:289,1,96.8000029541017
454,369,72146,2,0,P|406:363|367:335,1,96.8000029541017
326,192,72472,2,0,L|337:133,1,48.4000014770508,0|0,0:0|2:0,0:0:0:0:
257,117,72635,2,0,L|268:58,1,48.4000014770508,0|0,0:0|2:0,0:0:0:0:
221,3,72798,1,0,0:0:0:0:
76,202,72961,6,0,P|140:214|207:163,1,132.000005035401
2,84,73450,2,0,L|14:160,1,66.0000025177003,0|0,0:0|2:0,0:0:0:0:
3,293,73777,2,0,P|35:299|68:273,1,66.0000025177003,0|0,0:0|0:0,0:0:0:0:
280,92,74103,2,0,P|248:86|214:111,1,66.0000025177003,0|0,0:0|0:0,0:0:0:0:
281,301,74429,6,0,B|269:231|269:231|295:248,1,96.8000029541017,0|0,0:0|2:0,0:0:0:0:
460,96,74755,2,0,B|472:166|472:166|446:149,1,96.8000029541017,0|0,0:0|2:0,0:0:0:0:
280,92,75081,2,0,P|231:92|198:129,1,96.8000029541017,0|0,0:0|0:0,0:0:0:0:
199,124,75325,1,0,0:0:0:0:
199,124,75407,1,0,0:0:0:0:
354,358,75570,6,0,P|448:358|511:286,1,193.600005908203,0|0,0:0|0:0,0:0:0:0:
475,190,75978,1,0,0:0:0:0:
473,200,76059,1,0,0:0:0:0:
472,210,76141,1,0,0:0:0:0:
471,220,76222,1,0,0:0:0:0:
292,294,76385,6,0,B|265:293|265:293|232:279,1,48.4000014770508,0|0,0:0|2:0,0:0:0:0:
271,159,76548,2,0,B|298:160|298:160|331:174,1,48.4000014770508,0|0,0:0|2:0,0:0:0:0:
363,242,76711,1,0,0:0:0:0:
174,362,76874,6,0,L|162:268,1,88,0|0,0:0|0:0,0:0:0:0:
85,304,77364,2,0,B|65:312|65:312|41:315,1,44,0|0,0:0|2:0,0:0:0:0:
36,303,77608,1,0,0:0:0:0:
29,291,77690,1,0,0:0:0:0:
22,279,77771,1,0,0:0:0:0:
15,267,77853,1,0,0:0:0:0:
53,188,78016,6,0,L|151:199,1,88
104,68,83559,6,0,B|92:132|92:132|96:148|96:148|80:220|80:220|92:208|112:200,1,181.719993622498,0|0,0:0|2:0,0:0:0:0:
40,292,84211,6,0,B|104:316|144:268|144:268|136:288|144:336,1,157.079996884094,0|0,0:0|2:0,0:0:0:0:
212,384,84537,6,0,B|224:316|224:316|208:280,1,87.1199997341309
388,248,84864,1,0,0:0:0:0:
140,336,85027,1,0,0:0:0:0:
312,200,85190,2,0,B|300:268|300:268|316:304,1,87.1199997341309,0|0,0:0|0:0,0:0:0:0:
68,292,85516,5,0,0:0:0:0:
36,264,85597,1,0,0:0:0:0:
28,220,85679,1,0,0:0:0:0:
52,184,85760,1,0,0:0:0:0:
92,168,85842,1,0,0:0:0:0:
128,140,85923,1,0,0:0:0:0:
140,96,86005,1,0,0:0:0:0:
128,56,86086,1,0,0:0:0:0:
96,32,86168,6,0,B|144:84|208:60|208:60|240:80|284:68,1,181.719993622498,0|0,0:0|2:0,0:0:0:0:
316,12,86820,6,0,B|380:36|420:-12|420:-12|408:20|420:52,1,157.079996884094,0|0,0:0|2:0,0:0:0:0:
464,164,87146,6,0,P|479:127|475:88,1,77.8799972667848,0|0,0:0|2:0,0:0:0:0:
400,112,87472,6,0,P|365:115|330:119,1,69.5200016972657
216,252,87798,2,0,P|252:256|292:260,1,69.5200016972657
464,164,88124,5,0,0:0:0:0:
456,184,88206,1,0,0:0:0:0:
464,212,88287,1,0,0:0:0:0:
448,240,88369,1,0,0:0:0:0:
472,276,88450,2,0,L|468:312,1,25.9599990889283
420,368,88614,1,0,0:0:0:0:
292,192,88777,5,0,0:0:0:0:
291,196,88940,1,0,0:0:0:0:
290,199,89103,1,0,0:0:0:0:
289,201,89266,1,0,0:0:0:0:
288,204,89429,5,0,0:0:0:0:
205,263,89592,1,0,0:0:0:0:
121,193,89755,1,0,0:0:0:0:
148,88,89918,1,0,0:0:0:0:
220,286,90081,5,0,0:0:0:0:
108,238,90244,1,0,0:0:0:0:
319,242,90407,1,0,0:0:0:0:
96,283,90570,1,0,0:0:0:0:
234,313,90733,5,0,0:0:0:0:
313,281,90896,1,0,0:0:0:0:
394,309,91059,1,0,0:0:0:0:
431,384,91222,1,0,0:0:0:0:
458,197,91385,5,0,0:0:0:0:
457,201,91548,1,0,0:0:0:0:
456,204,91711,1,0,0:0:0:0:
455,206,91874,1,0,0:0:0:0:
454,209,92037,5,0,0:0:0:0:
350,191,92200,1,0,0:0:0:0:
365,86,92364,1,0,0:0:0:0:
317,219,92527,1,0,0:0:0:0:
470,104,92690,5,0,0:0:0:0:
213,201,92853,1,0,0:0:0:0:
339,270,93016,1,0,0:0:0:0:
255,93,93179,1,0,0:0:0:0:
255,93,93260,1,0,0:0:0:0:
255,93,93342,6,0,P|257:72|254:53,1,39.5999987915039
213,201,93505,1,0,0:0:0:0:
154,74,93668,2,0,B|60:53|60:53|73:74,1,118.799996374512,0|0,0:0|2:0,0:0:0:0:
65,148,93994,6,0,L|75:251,1,79.1999975830079
30,316,94320,1,0,0:0:0:0:
200,353,94483,1,0,0:0:0:0:
194,364,94809,1,0,0:0:0:0:
339,289,94972,2,0,L|441:309,1,79.1999975830079
472,242,95217,1,0,0:0:0:0:
472,242,95298,6,0,P|481:209|463:164,1,79.1999975830079
330,65,95624,2,0,P|321:98|339:143,1,79.1999975830079
183,150,95950,2,0,L|105:134,1,79.1999975830079
330,65,96277,2,0,L|407:80,1,79.1999975830079
269,221,96603,5,0,0:0:0:0:
222,313,96766,2,0,L|229:364,2,39.5999987915039,0|0|0,0:0|0:0|0:0,0:0:0:0:
92,297,97092,2,0,L|219:314,1,118.799996374512,0|0,0:0|2:0,0:0:0:0:
297,319,97418,6,0,L|350:327,1,39.5999987915039,0|0,0:0|2:0,0:0:0:0:
418,314,97581,2,0,L|378:308,1,39.5999987915039,0|0,0:0|2:0,0:0:0:0:
302,161,97744,2,0,L|321:237,1,79.1999975830079
404,188,98070,5,0,0:0:0:0:
410,156,98152,1,0,0:0:0:0:
428,130,98233,1,0,0:0:0:0:
450,106,98315,1,0,0:0:0:0:
457,75,98396,1,0,0:0:0:0:
442,40,98478,1,0,0:0:0:0:
414,17,98559,5,0,0:0:0:0:
370,23,98641,1,0,0:0:0:0:
336,50,98722,1,0,0:0:0:0:
288,56,98804,1,0,0:0:0:0:
248,81,98885,5,0,0:0:0:0:
209,71,98967,1,0,0:0:0:0:
174,80,99048,1,0,0:0:0:0:
149,100,99130,1,0,0:0:0:0:
137,129,99211,6,0,L|147:171,1,39.5999987915039,0|0,0:0|2:0,0:0:0:0:
61,121,99374,2,0,L|71:163,1,39.5999987915039,0|0,0:0|2:0,0:0:0:0:
230,179,99537,1,0,0:0:0:0:
37,361,99700,2,0,P|1:307|29:214,1,158.399995166016
230,179,100190,2,0,L|218:274,1,79.1999975830079
248,331,100434,1,0,0:0:0:0:
248,331,100516,5,0,0:0:0:0:
400,288,100679,2,0,L|344:280,1,39.5999987915039,0|0,0:0|2:0,0:0:0:0:
480,356,100842,2,0,L|424:348,1,39.5999987915039,0|0,0:0|2:0,0:0:0:0:
448,220,101005,1,0,0:0:0:0:
448,220,101086,1,0,0:0:0:0:
448,220,101168,1,0,0:0:0:0:
349,355,101331,1,0,0:0:0:0:
296,275,101494,1,0,0:0:0:0:
501,299,101657,1,0,0:0:0:0:
448,219,101820,5,0,0:0:0:0:
349,355,101983,2,0,L|357:299,1,39.5999987915039,0|0,0:0|2:0,0:0:0:0:
254,202,102146,2,0,L|262:146,1,39.5999987915039,0|0,0:0|2:0,0:0:0:0:
52,269,102309,2,0,P|124:305|201:281,1,158.399995166016
254,202,102798,2,0,L|242:119,1,79.1999975830079,0|0,0:0|2:0,0:0:0:0:
225,22,103124,5,0,0:0:0:0:
402,20,103287,1,0,0:0:0:0:
389,29,103369,1,0,0:0:0:0:
376,38,103450,1,0,0:0:0:0:
242,123,103614,1,0,0:0:0:0:
91,74,103777,2,0,L|45:48,1,39.5999987915039,0|0,0:0|2:0,0:0:0:0:
46,174,103940,2,0,P|134:196|189:138,1,158.399995166016
225,22,104429,6,0,L|220:80,1,39.5999987915039,0|0,0:0|2:0,0:0:0:0:
308,11,104592,2,0,L|303:69,1,39.5999987915039,0|0,0:0|2:0,0:0:0:0:
145,32,104755,1,0,0:0:0:0:
243,123,104918,2,0,B|362:150|362:150|330:116,1,158.399995166016
160,119,105407,2,0,L|70:141,1,79.1999975830079
83,137,105652,1,0,0:0:0:0:
83,137,105733,5,0,0:0:0:0:
32,198,105896,1,0,0:0:0:0:
27,277,106059,1,0,0:0:0:0:
158,347,106222,1,0,0:0:0:0:
158,347,106304,1,0,0:0:0:0:
158,347,106385,2,0,L|130:260,1,79.1999975830079
267,364,106711,2,0,L|334:302,1,79.1999975830079
365,158,107037,5,0,0:0:0:0:
364,237,107200,6,0,L|359:295,1,39.5999987915039,0|0,0:0|2:0,0:0:0:0:
301,118,107364,6,0,L|253:84,1,39.5999987915039,0|0,0:0|2:0,0:0:0:0:
438,129,107527,6,0,B|475:110|475:110|459:234,1,158.399995166016,0|0,0:0|2:0,0:0:0:0:
492,340,108016,2,0,P|455:344|400:321,1,79.1999975830079
287,228,108342,6,0,P|324:224|379:247,1,79.1999975830079
423,293,108586,2,0,L|416:340,1,39.5999987915039
223,141,108831,2,0,L|216:188,1,39.5999987915039
197,309,108994,5,0,0:0:0:0:
197,309,109157,1,0,0:0:0:0:
142,130,109320,1,0,0:0:0:0:
60,288,109483,1,0,0:0:0:0:
47,278,109565,1,0,0:0:0:0:
32,268,109646,6,0,L|24:192,1,51.9199981778565
56,92,109971,2,0,L|64:168,1,51.9199981778565,0|0,0:0|0:0,0:0:0:0:
76,296,110297,1,0,0:0:0:0:
144,344,110624,1,0,0:0:0:0:
164,180,110787,1,0,0:0:0:0:
216,296,110950,6,0,L|222:244,1,51.9199981778565
169,128,111275,2,0,L|164:180,1,51.9199981778565,0|0,0:0|0:0,0:0:0:0:
144,344,111601,1,0,0:0:0:0:
216,296,111928,1,0,0:0:0:0:
408,340,112091,1,0,0:0:0:0:
300,284,112254,6,0,L|368:276,1,51.9199981778565
440,196,112580,2,0,L|372:204,1,51.9199981778565,0|0,0:0|0:0,0:0:0:0:
216,296,112906,1,0,0:0:0:0:
244,216,113232,1,0,0:0:0:0:
440,196,113395,1,0,0:0:0:0:
316,140,113558,6,0,L|392:148,1,51.9199981778565
492,116,113883,2,0,L|416:108,1,51.9199981778565,0|0,0:0|0:0,0:0:0:0:
288,96,114209,1,0,0:0:0:0:
240,28,114537,1,0,0:0:0:0:
128,152,114700,1,0,0:0:0:0:
116,140,114782,1,0,0:0:0:0:
104,128,114863,6,0,L|188:140,1,69.5200016972657
220,204,115189,1,0,0:0:0:0:
288,96,115352,2,0,L|356:105,1,69.5200016972657
424,56,115678,1,0,0:0:0:0:
240,28,115841,1,0,0:0:0:0:
220,204,116004,1,0,0:0:0:0:
232,216,116086,1,0,0:0:0:0:
244,228,116167,6,0,L|256:312,1,69.5200016972657,0|0,0:0|0:0,0:0:0:0:
200,360,116493,1,0,0:0:0:0:
96,248,116656,2,0,L|84:164,1,69.5200016972657,0|0,0:0|0:0,0:0:0:0:
16,132,116982,1,0,0:0:0:0:
40,316,117145,1,0,0:0:0:0:
112,156,117308,1,0,0:0:0:0:
100,168,117390,1,0,0:0:0:0:
88,180,117471,6,0,L|100:96,1,69.5200016972657
40,48,117797,1,0,0:0:0:0:
244,72,117961,2,0,L|232:156,1,69.5200016972657
172,196,118287,1,0,0:0:0:0:
188,8,118450,1,0,0:0:0:0:
244,72,118613,1,0,0:0:0:0:
256,84,118695,1,0,0:0:0:0:
268,96,118776,6,0,B|260:168|260:168|248:192|248:192|236:280,1,174.239999468262
296,332,119265,6,0,B|308:353|308:353|324:236,1,139.040003394531
408,156,119754,6,0,L|400:224,1,51.9199981778565
