osu file format v14

[General]
AudioFilename: 8--BWW SCREAM-.mp3
AudioLeadIn: 0
PreviewTime: 11919
Countdown: 0
SampleSet: None
StackLeniency: 0.7
Mode: 0
LetterboxInBreaks: 1
WidescreenStoryboard: 1

[Editor]
Bookmarks: 43227
DistanceSpacing: 0.8
BeatDivisor: 4
GridSize: 4
TimelineZoom: 4.199998

[Metadata]
Title:-BWW SCREAM-
TitleUnicode:-BWW SCREAM-
Artist:Reol
ArtistUnicode:れをる
Creator:[Nitta Emi]
Version:Amori's Extra
Source:
Tags:No title-
BeatmapID:639587
BeatmapSetID:282363

[Difficulty]
HPDrainRate:6
CircleSize:4
OverallDifficulty:6
ApproachRate:9
SliderMultiplier:1.39999990463257
SliderTickRate:1

[Events]
//Background and Video events
0,0,"13.jpg",0,0
//Break Periods
//Storyboard Layer 0 (Background)
//Storyboard Layer 1 (Fail)
//Storyboard Layer 2 (Pass)
//Storyboard Layer 3 (Foreground)
//Storyboard Sound Samples

[TimingPoints]
562,333.333333333333,4,3,0,100,1,0
5895,-66.6666666666667,4,2,0,100,0,0
8228,-66.6666666666667,4,2,0,100,0,1
9895,-66.6666666666667,4,2,0,100,0,1
11228,-66.6666666666667,4,2,0,100,0,0
11561,-100,4,2,0,100,0,0
23228,-58.8235294117647,4,2,0,100,0,1
26061,166.666666666667,4,2,0,100,1,1
26394,333.333333333333,4,2,0,100,1,1
26394,-58.8235294117647,4,3,0,100,0,1
31060,-100,4,2,0,100,0,1
33227,-100,4,2,0,100,0,0
33393,-100,4,2,0,50,0,0
42560,166.666666666667,4,2,0,100,1,1
43226,333.333333333333,4,2,0,100,1,1
43892,-100,4,2,0,100,0,0
46559,-100,4,2,0,100,0,1
57225,166.666666666667,4,2,0,100,1,1
57558,333.333333333333,4,2,0,100,1,1
61058,-100,4,2,0,100,0,1
63224,166.666666666667,4,2,0,100,1,1
63557,333.333333333333,4,2,0,100,1,1
65057,-100,4,2,0,100,0,0
66223,-100,4,2,0,100,0,1
70057,-66.6666666666667,4,2,0,100,0,0
70723,-100,4,2,0,100,0,0
73390,-100,4,2,0,100,0,1
77223,-100,4,2,0,100,0,0

[HitObjects]
339,122,562,5,0,0:0:0:0:
295,232,728,1,0,0:0:0:0:
196,114,895,1,0,0:0:0:0:
31,220,1062,1,0,0:0:0:0:
157,306,1395,6,0,L|234:279,1,69.9999952316284
434,263,1728,2,0,L|385:211,1,69.9999952316284
101,62,2062,1,0,0:0:0:0:
343,142,2562,6,0,L|258:197,1,69.9999952316284
71,231,2895,2,0,L|119:167,1,69.9999952316284
425,113,3228,2,0,L|474:170,1,69.9999952316284
287,53,3562,1,0,0:0:0:0:
190,213,3728,1,0,0:0:0:0:
305,306,4062,6,0,L|377:283,1,69.9999952316284
79,98,4395,2,0,L|163:98,1,69.9999952316284
323,178,4728,1,0,0:0:0:0:
442,275,5061,2,0,L|410:191,1,69.9999952316284
88,260,5395,2,0,L|163:243,1,69.9999952316284
143,140,5728,1,0,0:0:0:0:
184,264,5895,6,0,L|289:324,1,104.999996852875
381,110,6228,2,0,L|276:50,1,104.999996852875
268,235,6561,2,0,L|373:295,1,104.999996852875
404,208,6895,2,0,L|278:140,1,104.999996852875
374,334,7228,2,0,B|412:293|431:324|315:283,1,104.999996852875
146,193,7561,1,0,0:0:0:0:
261,66,7728,1,0,0:0:0:0:
406,208,7895,2,0,B|440:169|449:158|454:280,1,104.999996852875
141,342,8228,5,0,0:0:0:0:
146,193,8395,1,0,0:0:0:0:
306,176,8561,1,0,0:0:0:0:
82,294,8728,1,0,0:0:0:0:
87,145,8895,1,0,0:0:0:0:
247,128,9061,1,0,0:0:0:0:
31,243,9228,1,0,0:0:0:0:
36,94,9395,1,0,0:0:0:0:
196,77,9561,1,0,0:0:0:0:
146,193,9728,1,0,0:0:0:0:
209,276,9895,5,0,0:0:0:0:
231,262,9978,1,0,0:0:0:0:
250,245,10061,1,0,0:0:0:0:
260,220,10145,1,0,0:0:0:0:
262,194,10228,1,0,0:0:0:0:
286,184,10311,1,0,0:0:0:0:
312,186,10395,1,0,0:0:0:0:
337,192,10478,1,0,0:0:0:0:
362,199,10561,1,0,0:0:0:0:
388,196,10645,1,0,0:0:0:0:
396,171,10728,1,0,0:0:0:0:
410,149,10811,1,0,0:0:0:0:
417,123,10895,1,0,0:0:0:0:
419,97,10978,1,0,0:0:0:0:
406,73,11061,1,0,0:0:0:0:
400,47,11145,1,0,0:0:0:0:
382,27,11228,1,0,0:0:0:0:
42,122,11561,6,0,L|97:109,3,34.9999976158142
70,160,11895,2,0,B|76:243|62:241|132:187,1,104.999992847443
213,180,12228,2,0,L|262:200,1,34.9999976158142
294,212,12395,1,0,0:0:0:0:
294,212,12728,1,0,0:0:0:0:
179,53,12895,1,0,0:0:0:0:
88,304,13061,2,0,L|179:308,1,69.9999952316284
433,118,13395,2,0,L|374:184,1,69.9999952316285
138,78,13728,5,0,0:0:0:0:
314,168,13895,1,0,0:0:0:0:
123,177,14061,1,0,0:0:0:0:
389,177,14228,1,0,0:0:0:0:
198,168,14395,1,0,0:0:0:0:
200,319,14561,2,0,B|232:278|231:257|256:304,1,69.9999952316285
194,95,14895,1,0,0:0:0:0:
377,80,15061,1,0,0:0:0:0:
196,239,15395,6,0,B|225:187|211:151|189:195,1,69.9999952316285
361,188,15728,1,0,0:0:0:0:
38,25,15895,2,0,L|121:53,1,69.9999952316285
85,306,16228,2,0,L|108:229,1,69.9999952316285
339,99,16561,1,0,0:0:0:0:
306,111,16645,1,0,0:0:0:0:
273,123,16728,1,0,0:0:0:0:
437,69,16895,1,0,0:0:0:0:
167,198,17061,2,0,L|196:231,1,34.9999976158143
255,215,17228,2,0,B|257:249|253:257|322:238,1,69.9999952316285
399,157,17561,1,0,0:0:0:0:
78,70,17728,5,0,0:0:0:0:
112,65,17811,1,0,0:0:0:0:
147,60,17895,1,0,0:0:0:0:
293,80,18061,1,0,0:0:0:0:
401,287,18228,2,0,L|324:254,1,69.9999952316285
163,183,18561,2,0,L|76:144,1,69.9999952316285
322,49,18895,1,0,0:0:0:0:
163,183,19061,2,0,L|76:144,1,69.9999952316285
256,275,19395,5,0,0:0:0:0:
343,164,19561,2,0,L|405:215,1,69.9999952316285
121,310,19895,2,0,L|31:331,1,69.9999952316285
227,69,20228,1,0,0:0:0:0:
366,291,20395,2,0,L|290:262,1,69.9999952316285
92,191,20728,5,0,0:0:0:0:
227,69,20895,1,0,0:0:0:0:
283,177,21061,1,0,0:0:0:0:
96,314,21228,2,0,L|197:310,1,69.9999952316285
283,177,21561,1,0,0:0:0:0:
111,167,21728,1,0,0:0:0:0:
248,304,21895,1,0,0:0:0:0:
282,299,21978,1,0,0:0:0:0:
316,293,22061,1,0,0:0:0:0:
224,55,22228,5,0,0:0:0:0:
404,116,22395,1,0,0:0:0:0:
204,218,22561,1,0,0:0:0:0:
400,257,22728,2,0,L|319:219,1,69.9999952316285
204,218,23061,1,0,0:0:0:0:
74,133,23228,6,0,L|116:132,4,34.9999976158143
332,97,23728,1,0,0:0:0:0:
329,322,23895,2,0,B|267:288|246:266|306:226,1,118.999994163513
160,254,24228,1,0,0:0:0:0:
113,88,24395,2,0,B|180:106|185:117|229:41,2,118.999994163513
327,184,24895,2,0,L|196:177,1,118.999994163513
54,230,25228,2,0,L|20:350,1,118.999994163513
156,56,25561,1,0,0:0:0:0:
326,184,25728,2,0,L|461:188,1,118.999994163513
140,240,26061,6,0,L|176:260,4,34.9999976158143
176,64,26394,1,0,0:0:0:0:
264,336,26560,2,0,L|380:280,1,118.999994163513
388,112,26894,1,0,0:0:0:0:
56,172,27060,1,0,0:0:0:0:
236,240,27227,1,0,0:0:0:0:
248,212,27310,1,0,0:0:0:0:
256,184,27394,1,0,0:0:0:0:
265,54,27560,1,0,0:0:0:0:
108,285,27727,1,0,0:0:0:0:
401,289,27894,6,0,L|255:246,1,118.999994163513
72,147,28227,2,0,L|208:151,2,118.999994163513
372,159,28727,1,0,0:0:0:0:
204,328,28893,2,0,B|245:277|274:280|324:314,1,118.999994163513
258,63,29227,1,0,0:0:0:0:
103,267,29393,1,0,0:0:0:0:
80,115,29560,1,0,0:0:0:0:
289,244,29727,1,0,0:0:0:0:
195,50,29893,2,0,L|344:26,1,118.999994163513
221,184,30227,2,0,L|121:291,1,118.999994163513
328,153,30560,6,0,L|400:166,4,59.4999970817566
94,98,31060,2,0,L|79:156,1,34.9999976158143
175,175,31227,2,0,L|188:117,1,34.9999976158143
94,98,31393,2,0,L|79:156,1,34.9999976158143
175,175,31560,2,0,L|188:117,1,34.9999976158143
257,100,31727,2,0,L|300:147,1,34.9999976158143
291,139,31893,1,0,0:0:0:0:
303,151,31977,1,0,0:0:0:0:
316,161,32060,2,0,L|357:203,1,34.9999976158143
352,198,32227,1,0,0:0:0:0:
323,264,32393,6,0,L|258:275,2,34.9999976158143
207,162,32727,1,0,0:0:0:0:
180,175,32810,1,0,0:0:0:0:
153,189,32893,1,0,0:0:0:0:
125,201,32977,1,0,0:0:0:0:
99,215,33060,1,0,0:0:0:0:
75,233,33143,1,0,0:0:0:0:
51,252,33227,1,0,0:0:0:0:
375,64,33393,5,0,0:0:0:0:
447,189,33560,1,0,0:0:0:0:
376,293,33727,1,0,0:0:0:0:
232,62,33893,2,0,L|230:161,1,69.9999952316285
223,324,34227,1,0,0:0:0:0:
194,315,34310,1,0,0:0:0:0:
165,306,34393,1,0,0:0:0:0:
116,136,34560,6,0,L|192:134,1,69.9999952316285
328,49,34893,1,0,0:0:0:0:
475,234,35060,1,0,0:0:0:0:
402,51,35227,1,0,0:0:0:0:
237,235,35393,1,0,0:0:0:0:
105,144,35560,1,0,0:0:0:0:
245,33,35727,1,0,0:0:0:0:
90,298,35893,5,0,0:0:0:0:
112,281,35977,1,0,0:0:0:0:
134,264,36060,1,0,0:0:0:0:
156,247,36143,1,0,0:0:0:0:
179,230,36227,1,0,0:0:0:0:
324,265,36393,1,0,0:0:0:0:
324,265,36477,1,0,0:0:0:0:
324,265,36560,1,0,0:0:0:0:
232,105,36727,5,0,0:0:0:0:
88,191,36893,1,0,0:0:0:0:
88,191,36977,1,0,0:0:0:0:
88,191,37060,1,0,0:0:0:0:
88,191,37143,1,0,0:0:0:0:
88,191,37227,1,0,0:0:0:0:
417,136,37393,1,0,0:0:0:0:
228,290,37560,2,0,L|265:273,2,34.9999976158143
155,70,37893,5,0,0:0:0:0:
365,171,38060,1,0,0:0:0:0:
220,36,38227,1,0,0:0:0:0:
315,235,38393,1,0,0:0:0:0:
92,269,38560,2,0,B|92:218|90:204|128:207,1,69.9999952316285
136,196,38810,1,0,0:0:0:0:
161,185,38893,1,0,0:0:0:0:
397,95,39060,5,0,0:0:0:0:
198,55,39227,1,0,0:0:0:0:
386,262,39393,1,0,0:0:0:0:
187,222,39560,1,0,0:0:0:0:
214,215,39643,1,0,0:0:0:0:
241,209,39727,1,0,0:0:0:0:
401,180,39893,1,0,0:0:0:0:
374,186,39977,1,0,0:0:0:0:
347,193,40060,1,0,0:0:0:0:
201,55,40227,5,0,0:0:0:0:
78,223,40393,1,0,0:0:0:0:
78,223,40477,1,0,0:0:0:0:
78,223,40560,1,0,0:0:0:0:
303,331,40727,1,0,0:0:0:0:
303,331,40810,1,0,0:0:0:0:
303,331,40893,1,0,0:0:0:0:
145,64,41060,6,0,L|194:72,1,34.9999976158143
207,73,41227,1,0,0:0:0:0:
234,78,41310,1,0,0:0:0:0:
260,86,41393,1,0,0:0:0:0:
286,96,41477,1,0,0:0:0:0:
304,116,41560,1,0,0:0:0:0:
80,173,41727,1,0,0:0:0:0:
87,199,41810,1,0,0:0:0:0:
92,226,41893,1,0,0:0:0:0:
208,200,42060,1,0,0:0:0:0:
215,226,42143,1,0,0:0:0:0:
220,253,42226,1,0,0:0:0:0:
360,103,42393,1,0,0:0:0:0:
403,264,42560,6,0,L|357:265,14,34.9999976158143
103,83,43226,5,0,0:0:0:0:
124,101,43310,1,0,0:0:0:0:
150,110,43393,1,0,0:0:0:0:
176,118,43476,1,0,0:0:0:0:
204,121,43560,1,0,0:0:0:0:
231,124,43643,1,0,0:0:0:0:
258,128,43726,1,0,0:0:0:0:
282,140,43809,1,0,0:0:0:0:
288,167,43892,1,0,0:0:0:0:
137,276,44059,6,0,L|41:262,1,69.9999952316285
381,282,44392,1,0,0:0:0:0:
176,149,44559,1,0,0:0:0:0:
316,77,44726,1,0,0:0:0:0:
381,282,44892,2,0,L|328:265,4,34.9999976158143
86,190,45392,2,0,L|136:189,2,34.9999976158143
346,122,45726,1,0,0:0:0:0:
179,64,45892,1,0,0:0:0:0:
111,302,46059,6,0,L|196:286,1,69.9999952316285
219,180,46392,1,0,0:0:0:0:
349,275,46559,2,0,L|378:206,1,69.9999952316285
92,89,46892,1,0,0:0:0:0:
105,288,47059,1,0,0:0:0:0:
274,128,47225,1,0,0:0:0:0:
253,147,47309,1,0,0:0:0:0:
235,168,47392,1,0,0:0:0:0:
215,188,47475,1,0,0:0:0:0:
194,207,47559,1,0,0:0:0:0:
174,227,47642,1,0,0:0:0:0:
154,247,47725,1,0,0:0:0:0:
421,206,47892,5,0,0:0:0:0:
300,288,48059,2,0,L|305:228,2,34.9999976158143
327,81,48392,1,0,0:0:0:0:
421,206,48559,1,0,0:0:0:0:
398,221,48642,1,0,0:0:0:0:
377,240,48725,1,0,0:0:0:0:
165,120,48892,5,0,0:0:0:0:
137,309,49059,1,0,0:0:0:0:
88,138,49225,2,0,B|82:103|88:93|112:49,1,69.9999952316285
128,68,49475,1,0,0:0:0:0:
155,62,49559,1,0,0:0:0:0:
368,176,49725,5,0,0:0:0:0:
340,179,49809,1,0,0:0:0:0:
312,182,49892,1,0,0:0:0:0:
284,186,49975,1,0,0:0:0:0:
256,191,50059,1,0,0:0:0:0:
228,196,50142,1,0,0:0:0:0:
200,201,50225,1,0,0:0:0:0:
172,208,50309,1,0,0:0:0:0:
144,214,50392,1,0,0:0:0:0:
123,232,50475,1,0,0:0:0:0:
100,249,50559,1,0,0:0:0:0:
263,66,50725,5,0,0:0:0:0:
234,65,50809,1,0,0:0:0:0:
206,66,50892,1,0,0:0:0:0:
385,236,51059,1,0,0:0:0:0:
160,328,51225,2,0,L|194:309,2,34.9999976158143
117,150,51559,1,0,0:0:0:0:
308,152,51725,2,0,L|363:157,2,34.9999976158143
44,266,52059,2,0,L|81:263,2,34.9999976158143
357,335,52392,2,0,L|297:291,1,69.9999952316285
138,55,52725,5,0,0:0:0:0:
127,81,52809,1,0,0:0:0:0:
120,108,52892,1,0,0:0:0:0:
256,46,53059,1,0,0:0:0:0:
145,304,53225,1,0,0:0:0:0:
391,178,53392,1,0,0:0:0:0:
121,178,53559,1,0,0:0:0:0:
367,304,53725,1,0,0:0:0:0:
256,46,53892,1,0,0:0:0:0:
256,46,53975,1,0,0:0:0:0:
256,46,54059,1,0,0:0:0:0:
228,264,54225,5,0,0:0:0:0:
228,264,54309,1,0,0:0:0:0:
228,264,54392,1,0,0:0:0:0:
69,207,54559,2,0,L|150:186,1,69.9999952316285
310,180,54892,1,0,0:0:0:0:
426,278,55059,1,0,0:0:0:0:
106,320,55225,6,0,L|194:308,1,69.9999952316285
201,299,55475,1,0,0:0:0:0:
226,286,55559,1,0,0:0:0:0:
251,273,55642,1,0,0:0:0:0:
276,260,55725,1,0,0:0:0:0:
300,137,55892,1,0,0:0:0:0:
443,133,56059,1,0,0:0:0:0:
212,247,56225,1,0,0:0:0:0:
69,251,56392,1,0,0:0:0:0:
350,261,56559,6,0,L|412:320,1,69.9999952316285
424,323,56809,1,0,0:0:0:0:
447,337,56892,2,0,L|474:267,1,69.9999952316285
72,62,57225,2,0,L|111:69,8,34.9999976158143
299,191,57724,1,0,0:0:0:0:
99,273,57891,6,0,L|172:294,1,69.9999952316285
194,290,58141,1,0,0:0:0:0:
221,287,58224,1,0,0:0:0:0:
249,283,58308,1,0,0:0:0:0:
276,279,58391,1,0,0:0:0:0:
384,75,58558,2,0,L|303:104,1,69.9999952316285
115,169,58891,1,0,0:0:0:0:
253,73,59058,1,0,0:0:0:0:
414,252,59224,1,0,0:0:0:0:
388,264,59308,1,0,0:0:0:0:
363,250,59391,1,0,0:0:0:0:
381,105,59558,5,0,0:0:0:0:
207,207,59724,1,0,0:0:0:0:
186,75,59891,2,0,L|241:44,2,34.9999976158143
79,122,60224,1,0,0:0:0:0:
115,320,60391,2,0,L|153:324,2,34.9999976158143
394,195,60724,1,0,0:0:0:0:
367,204,60808,1,0,0:0:0:0:
340,212,60891,1,0,0:0:0:0:
135,134,61058,5,0,0:0:0:0:
212,250,61224,1,0,0:0:0:0:
65,245,61391,1,0,0:0:0:0:
198,182,61558,1,0,0:0:0:0:
313,69,61724,1,0,0:0:0:0:
192,111,61891,2,0,L|197:195,1,69.9999952316285
124,313,62224,2,0,L|203:315,1,69.9999952316285
381,251,62558,2,0,B|350:229|337:236|301:204,2,69.9999952316285
33,187,63058,1,0,0:0:0:0:
161,238,63224,6,0,L|201:240,8,34.9999976158143
393,255,63724,1,0,0:0:0:0:
179,70,63890,2,0,L|246:109,1,69.9999952316285
235,300,64223,1,0,0:0:0:0:
346,184,64390,1,0,0:0:0:0:
235,300,64557,1,0,0:0:0:0:
235,300,64640,1,0,0:0:0:0:
235,300,64723,1,0,0:0:0:0:
175,143,64890,1,0,0:0:0:0:
346,184,65057,1,0,0:0:0:0:
256,192,65223,12,0,66057,0:0:0:0:
148,127,66223,5,0,0:0:0:0:
174,135,66307,1,0,0:0:0:0:
200,143,66390,1,0,0:0:0:0:
226,151,66473,1,0,0:0:0:0:
252,159,66557,1,0,0:0:0:0:
279,165,66640,1,0,0:0:0:0:
305,173,66723,1,0,0:0:0:0:
331,182,66807,1,0,0:0:0:0:
356,193,66890,2,0,L|428:224,1,69.9999952316285
38,218,67223,2,0,L|77:220,4,34.9999976158143
230,298,67723,5,0,0:0:0:0:
256,289,67807,1,0,0:0:0:0:
282,280,67890,1,0,0:0:0:0:
132,65,68057,1,0,0:0:0:0:
318,62,68223,1,0,0:0:0:0:
132,186,68390,1,0,0:0:0:0:
323,180,68557,2,0,L|402:183,1,69.9999952316285
330,321,68889,1,0,0:0:0:0:
217,104,69057,1,0,0:0:0:0:
86,285,69223,6,0,L|124:264,6,34.9999976158143
189,154,69890,1,0,0:0:0:0:
141,219,70057,2,0,L|199:229,1,52.4999984264374
267,251,70223,2,0,L|328:292,1,52.4999984264374
383,296,70390,2,0,L|440:298,1,52.4999984264374
420,218,70557,1,0,0:0:0:0:
94,78,70723,6,0,L|81:166,1,69.9999952316285
353,113,71056,1,0,0:0:0:0:
168,250,71223,1,0,0:0:0:0:
192,272,71306,1,0,0:0:0:0:
224,252,71390,1,0,0:0:0:0:
356,240,71556,1,0,0:0:0:0:
168,250,71723,1,0,0:0:0:0:
52,199,71890,6,0,L|87:197,1,34.9999976158143
178,144,72056,2,0,L|129:157,1,34.9999976158143
68,88,72223,2,0,L|103:86,2,34.9999976158143
195,280,72556,5,0,0:0:0:0:
219,266,72640,1,0,0:0:0:0:
242,251,72723,1,0,0:0:0:0:
265,235,72806,1,0,0:0:0:0:
288,219,72890,1,0,0:0:0:0:
311,204,72973,1,0,0:0:0:0:
334,189,73056,1,0,0:0:0:0:
351,166,73140,1,0,0:0:0:0:
368,143,73223,1,0,0:0:0:0:
63,58,73390,6,0,L|62:139,1,69.9999952316285
183,268,73723,1,0,0:0:0:0:
189,240,73806,1,0,0:0:0:0:
195,212,73890,1,0,0:0:0:0:
390,260,74056,2,0,L|354:242,1,34.9999976158143
358,244,74223,1,0,0:0:0:0:
390,260,74390,6,0,L|354:242,1,34.9999976158143
334,229,74556,1,0,0:0:0:0:
308,217,74640,2,0,L|258:183,1,34.9999976158143
216,105,74806,2,0,L|254:132,1,34.9999976158143
177,217,74973,2,0,L|214:195,2,34.9999976158143
59,140,75556,6,0,L|135:83,1,69.9999952316285
245,107,75890,1,0,0:0:0:0:
157,214,76056,1,0,0:0:0:0:
177,303,76223,2,0,L|256:293,1,69.9999952316285
265,273,76473,1,0,0:0:0:0:
287,256,76556,1,0,0:0:0:0:
310,239,76640,1,0,0:0:0:0:
332,222,76723,1,0,0:0:0:0:
354,206,76806,1,0,0:0:0:0:
377,190,76890,1,0,0:0:0:0:
68,94,77056,6,0,L|114:93,2,34.9999976158143
256,192,77390,12,0,80556,0:0:0:0:
