osu file format v13

[General]
AudioFilename: Reol - Plus Danshi.mp3
AudioLeadIn: 0
PreviewTime: -1
Countdown: 1
SampleSet: Normal
StackLeniency: 0.7
Mode: 0
LetterboxInBreaks: 1
WidescreenStoryboard: 0

[Editor]
DistanceSpacing: 1.2
BeatDivisor: 4
GridSize: 8
TimelineZoom: 1

[Metadata]
Title:-+ Danshi
TitleUnicode:-+ Danshi
Artist:Reol
ArtistUnicode:Reol
Creator:palostar
Version:Insane
Source:
Tags:-+ Danshi Reol Japanese
BeatmapID:453148
BeatmapSetID:190279

[Difficulty]
HPDrainRate:7
CircleSize:4
OverallDifficulty:7
ApproachRate:9
SliderMultiplier:1.8
SliderTickRate:1

[Events]
//Background and Video events
0,0,"reolplusdanshi.jpg",0,0
//Break Periods
2,48373,55573
2,103039,111573
//Storyboard Layer 0 (Background)
//Storyboard Layer 1 (Fail)
//Storyboard Layer 2 (Pass)
//Storyboard Layer 3 (Foreground)
//Storyboard Sound Samples
//Background Colour Transformations
3,100,163,162,255

[TimingPoints]
13507,333.333333333333,4,1,0,100,1,0
14507,-133.333333333333,4,1,0,100,0,0
14840,-100,4,1,0,100,0,0
56173,-66.6666666666667,4,1,0,100,0,0
68173,-76.9230769230769,4,1,0,100,0,0
68173,-76.9230769230769,4,1,0,100,0,0
69173,-76.9230769230769,4,1,0,100,0,0
70506,-66.6666666666667,4,1,0,100,0,0
70840,-76.9230769230769,4,1,0,100,0,0
71840,-66.6666666666667,4,1,0,100,0,0
81006,-100,4,1,0,100,0,0
103173,-133.333333333333,4,1,0,100,0,0
103173,-133.333333333333,4,1,0,100,0,0
113006,-66.6666666666667,4,1,0,100,0,0
124173,-76.9230769230769,4,1,0,100,0,0
127840,-66.6666666666667,4,1,0,100,0,0

[HitObjects]
72,72,13507,5,0,0:0:0:0:
168,128,13673,2,0,L|224:160,2,45,0|0|0,0:0|0:0|0:0,0:0:0:0:
168,240,14007,2,0,L|224:272,2,45,0|0|0,0:0|0:0|0:0,0:0:0:0:
264,184,14340,1,0,0:0:0:0:
320,112,14507,2,0,P|360:96|392:96,1,67.5000025749208
440,192,14840,6,0,P|416:264|392:288,1,90
304,248,15173,2,0,P|256:304|216:320,1,90
136,288,15507,1,0,0:0:0:0:
88,192,15673,1,0,0:0:0:0:
136,96,15840,1,0,0:0:0:0:
216,168,16007,6,0,P|264:192|312:208,1,90
320,96,16340,1,0,0:0:0:0:
320,96,16423,1,0,0:0:0:0:
320,96,16507,2,0,P|368:152|392:192,1,90
328,264,16840,1,0,0:0:0:0:
256,184,17007,1,0,0:0:0:0:
208,280,17173,2,0,P|136:304|104:272,1,90
56,224,17507,2,0,P|72:168|112:128,1,90
160,64,17840,1,0,0:0:0:0:
160,64,17923,1,0,0:0:0:0:
160,64,18007,1,0,0:0:0:0:
160,64,18090,1,0,0:0:0:0:
160,64,18173,6,0,P|224:64|264:72,1,90,0|0,0:0|0:0,0:0:0:0:
352,112,18507,1,0,0:0:0:0:
392,208,18673,2,0,L|344:264,2,45,0|0|0,0:0|0:0|0:0,0:0:0:0:
288,192,19007,1,0,0:0:0:0:
232,192,19090,1,0,0:0:0:0:
176,192,19173,2,0,P|120:240|104:272,1,90
64,160,19507,6,0,L|32:120,4,45,0|0|0|0|0,0:0|0:0|0:0|0:0|0:0,0:0:0:0:
152,96,20007,1,0,0:0:0:0:
256,64,20173,2,0,B|272:64|288:56|304:48|304:32|344:40,1,90
416,120,20507,1,0,0:0:0:0:
392,224,20673,1,0,0:0:0:0:
392,224,20757,1,0,0:0:0:0:
392,224,20840,2,0,P|336:280|312:288,1,90
224,248,21173,5,0,0:0:0:0:
280,152,21340,2,0,P|224:96|176:80,1,90
120,136,21673,2,0,L|88:176,2,45,0|0|0,0:0|0:0|0:0,0:0:0:0:
120,248,22007,2,0,P|120:328|152:344,1,90
224,248,22340,2,0,P|224:304|192:336,1,90
312,336,22673,2,0,L|424:336,1,90
392,224,23007,2,0,L|424:184,2,45,0|0|0,0:0|0:0|0:0,0:0:0:0:
328,136,23340,1,0,0:0:0:0:
328,136,23423,1,0,0:0:0:0:
328,136,23507,2,0,B|288:136|288:136|280:128|280:128|272:128|272:128|272:136|272:136|248:136|248:136,1,90
152,96,23840,5,0,0:0:0:0:
112,136,23923,1,0,0:0:0:0:
112,192,24007,1,0,0:0:0:0:
136,240,24090,1,0,0:0:0:0:
176,272,24173,1,0,0:0:0:0:
280,312,24340,5,0,0:0:0:0:
376,264,24507,2,0,L|376:216,1,45
424,240,24673,2,0,L|424:192,1,45
472,216,24840,2,0,L|472:120,1,90
384,56,25173,1,0,0:0:0:0:
288,104,25340,1,0,0:0:0:0:
184,80,25507,5,0,0:0:0:0:
184,80,25590,1,0,0:0:0:0:
184,80,25673,1,0,0:0:0:0:
144,184,25840,2,0,P|112:248|120:288,1,90
216,288,26173,2,0,P|272:264|288:232,1,90
384,200,26507,1,0,0:0:0:0:
384,200,26673,1,0,0:0:0:0:
336,104,26840,1,0,0:0:0:0:
336,104,27007,1,0,0:0:0:0:
232,80,27173,1,0,0:0:0:0:
232,80,27340,1,0,0:0:0:0:
168,168,27506,2,0,P|136:224|112:240,1,90
208,304,27840,1,0,0:0:0:0:
312,312,28006,6,0,P|384:288|416:272,1,90
344,184,28340,2,0,L|256:128,1,90
176,72,28673,2,0,L|80:160,1,90
160,232,29006,2,0,L|248:304,2,90,0|0|0,0:0|0:0|0:0,0:0:0:0:
256,176,29506,1,0,0:0:0:0:
336,104,29673,1,0,0:0:0:0:
416,176,29840,2,0,P|416:248|400:288,1,90
320,328,30173,1,0,0:0:0:0:
208,328,30340,2,0,P|120:304|112:288,1,90
160,208,30673,6,0,L|176:160,2,45,0|0|0,0:0|0:0|0:0,0:0:0:0:
256,176,31006,2,0,L|232:120,2,45,0|0|0,0:0|0:0|0:0,0:0:0:0:
352,128,31340,2,0,P|408:88|408:64,2,90,0|0|0,0:0|0:0|0:0,0:0:0:0:
328,232,31840,2,0,L|328:280,1,45
272,272,32006,2,0,L|272:328,1,45
216,312,32173,2,0,L|216:208,1,90
128,168,32506,2,0,P|88:112|96:64,1,90
192,56,32840,1,0,0:0:0:0:
272,128,33006,5,0,0:0:0:0:
360,64,33173,1,0,0:0:0:0:
376,168,33340,1,0,0:0:0:0:
368,272,33506,2,0,P|336:320|280:336,1,90
216,272,33840,2,0,P|256:224|288:216,1,90
336,120,34173,1,0,0:0:0:0:
240,64,34340,2,0,P|176:88|160:120,2,90,0|0|0,0:0|0:0|0:0,0:0:0:0:
216,168,34840,5,0,0:0:0:0:
168,192,34923,1,0,0:0:0:0:
120,216,35006,1,0,0:0:0:0:
120,328,35173,2,0,P|184:328|200:304,1,90
304,312,35506,1,0,0:0:0:0:
304,312,35590,1,0,0:0:0:0:
304,312,35673,2,0,P|376:280|384:240,1,90
408,232,35923,1,0,0:0:0:0:
408,176,36006,2,0,L|408:80,1,90
304,72,36340,5,0,0:0:0:0:
232,152,36506,1,0,0:0:0:0:
136,208,36673,1,0,0:0:0:0:
136,320,36840,2,0,P|184:336|224:344,1,90
272,248,37173,2,0,P|328:240|376:216,1,90
408,128,37506,1,0,0:0:0:0:
408,128,37673,1,0,0:0:0:0:
304,104,37840,1,0,0:0:0:0:
304,104,38006,1,0,0:0:0:0:
224,32,38173,2,0,P|152:56|136:96,1,90
144,176,38506,1,0,0:0:0:0:
200,264,38673,6,0,L|288:312,2,90,0|0|0,0:0|0:0|0:0,0:0:0:0:
96,240,39173,2,0,L|40:160,1,90
128,104,39506,2,0,L|216:40,1,90
296,104,39840,1,0,0:0:0:0:
384,168,40006,1,0,0:0:0:0:
296,224,40173,1,0,0:0:0:0:
384,280,40340,1,0,0:0:0:0:
288,328,40506,6,0,P|192:328|176:320,1,90
199,330,40756,1,0,0:0:0:0:
199,330,40840,1,0,0:0:0:0:
96,296,41006,1,0,0:0:0:0:
96,296,41090,1,0,0:0:0:0:
96,296,41173,2,0,P|64:224|72:184,1,90
136,136,41506,5,0,0:0:0:0:
216,208,41673,2,0,P|256:152|248:112,1,90
184,48,42006,1,0,0:0:0:0:
88,96,42173,2,0,P|56:160|64:176,1,90
152,224,42506,2,0,P|144:280|104:304,1,90
224,328,42840,6,0,P|296:320|304:296,1,90
299,313,43090,1,0,0:0:0:0:
299,313,43173,1,0,0:0:0:0:
360,224,43340,1,0,0:0:0:0:
360,224,43423,1,0,0:0:0:0:
360,224,43506,2,0,L|264:168,1,90
352,96,43840,1,0,0:0:0:0:
264,152,44006,1,0,0:0:0:0:
264,152,44090,1,0,0:0:0:0:
264,152,44173,1,0,0:0:0:0:
168,104,44340,2,0,L|168:56,2,45,0|0|0,0:0|0:0|0:0,0:0:0:0:
88,176,44673,6,0,P|48:248|48:272,1,90
136,312,45006,1,0,0:0:0:0:
192,312,45090,1,0,0:0:0:0:
248,312,45173,1,0,0:0:0:0:
304,312,45256,1,0,0:0:0:0:
360,312,45340,1,0,0:0:0:0:
384,208,45506,2,0,L|328:208,1,45
360,160,45673,2,0,L|304:160,1,45
312,104,45840,2,0,L|272:72,2,45,0|0|0,0:0|0:0|0:0,0:0:0:0:
208,80,46173,1,0,0:0:0:0:
160,104,46256,1,0,0:0:0:0:
112,128,46340,1,0,0:0:0:0:
64,152,46423,1,0,0:0:0:0:
24,184,46506,2,0,P|72:232|136:224,1,135
256,192,46840,12,0,48173,0:0:0:0:
80,88,56173,5,0,0:0:0:0:
424,320,57006,5,0,0:0:0:0:
288,224,57173,1,0,0:0:0:0:
440,168,57340,1,0,0:0:0:0:
304,88,57506,2,0,P|232:56|176:64,1,135.000005149842
104,208,57840,6,0,P|56:264|40:328,1,135.000005149842
192,256,58173,2,0,P|224:336|280:344,1,135.000005149842
360,216,58506,1,0,0:0:0:0:
456,88,58673,1,0,0:0:0:0:
296,120,58840,2,0,P|248:56|184:64,1,135.000005149842
56,136,59173,1,0,0:0:0:0:
208,200,59340,1,0,0:0:0:0:
80,296,59506,1,0,0:0:0:0:
240,328,59673,1,0,0:0:0:0:
376,232,59840,2,0,P|424:144|416:104,1,135.000005149842
272,56,60173,6,0,L|136:64,1,135.000005149842
144,224,60506,1,0,0:0:0:0:
304,256,60673,1,0,0:0:0:0:
304,256,60756,1,0,0:0:0:0:
304,256,60840,1,0,0:0:0:0:
160,328,61006,1,0,0:0:0:0:
200,168,61173,1,0,0:0:0:0:
360,176,61340,2,0,B|384:176|392:136|416:96|472:104,1,135.000005149842
312,48,61673,2,0,B|224:88|224:88|168:88,1,135.000005149842
184,248,62006,2,0,B|232:248|232:248|328:296,1,135.000005149842
416,168,62340,1,0,0:0:0:0:
272,96,62506,1,0,0:0:0:0:
272,256,62673,1,0,0:0:0:0:
136,176,62840,6,0,L|40:80,1,135.000005149842
136,208,63173,2,0,L|40:304,1,135.000005149842
176,208,63506,2,0,L|272:304,1,135.000005149842
176,176,63840,2,0,L|272:80,1,135.000005149842
320,240,64173,1,0,0:0:0:0:
440,128,64340,2,0,P|368:96|320:48,1,135.000005149842
72,128,64673,2,0,P|144:96|192:48,1,135.000005149842
184,224,65006,1,0,0:0:0:0:
328,304,65173,2,0,L|328:160,1,135.000005149842
200,64,65506,5,0,0:0:0:0:
112,200,65673,1,0,0:0:0:0:
264,248,65840,1,0,0:0:0:0:
336,104,66006,1,0,0:0:0:0:
176,112,66173,1,0,0:0:0:0:
96,256,66340,1,0,0:0:0:0:
256,296,66506,1,0,0:0:0:0:
328,152,66673,1,0,0:0:0:0:
168,160,66840,1,0,0:0:0:0:
104,304,67006,1,0,0:0:0:0:
264,336,67173,1,0,0:0:0:0:
352,200,67340,1,0,0:0:0:0:
288,48,67506,2,0,L|152:48,1,135.000005149842
72,192,67840,6,0,P|96:256|160:288,1,135.000005149842
256,264,68173,2,0,P|312:208|400:72,1,233.999989288331
280,64,68673,2,0,P|240:120|112:240,1,233.999989288331
272,320,69173,1,0,0:0:0:0:
424,264,69340,1,0,0:0:0:0:
336,152,69506,2,0,P|248:112|128:32,1,233.999989288331
128,144,70006,2,0,P|72:232|64:360,1,233.999989288331
224,304,70506,1,0,0:0:0:0:
344,200,70673,1,0,0:0:0:0:
240,216,70840,2,0,P|192:160|288:64,1,233.999989288331
320,200,71340,2,0,P|368:144|456:240,1,233.999989288331
312,56,71840,5,0,0:0:0:0:
168,128,72006,2,0,P|144:192|88:240,1,135.000005149842
240,312,72340,1,0,0:0:0:0:
392,248,72506,1,0,0:0:0:0:
240,192,72673,1,0,0:0:0:0:
392,136,72840,1,0,0:0:0:0:
240,72,73006,1,0,0:0:0:0:
88,128,73173,2,0,P|32:208|32:248,1,135.000005149842
160,336,73506,2,0,P|256:264|272:216,1,135.000005149842
312,96,73840,6,0,P|400:48|432:80,1,135.000005149842
416,224,74173,1,0,0:0:0:0:
256,248,74340,1,0,0:0:0:0:
256,248,74423,1,0,0:0:0:0:
256,248,74506,1,0,0:0:0:0:
96,208,74673,2,0,P|96:128|120:80,1,135.000005149842
272,144,75006,2,0,L|312:64,2,67.5000025749208,0|0|0,0:0|0:0|0:0,0:0:0:0:
144,40,75340,1,0,0:0:0:0:
56,176,75506,2,0,L|104:304,1,135.000005149842
264,272,75840,2,0,P|360:256|400:208,1,135.000005149842
336,80,76173,5,0,0:0:0:0:
176,80,76340,1,0,0:0:0:0:
336,80,76506,1,0,0:0:0:0:
176,80,76673,1,0,0:0:0:0:
272,208,76840,1,0,0:0:0:0:
120,256,77006,2,0,P|152:328|216:352,1,135.000005149842
328,248,77340,2,0,P|392:168|400:120,2,135.000005149842,0|0|0,0:0|0:0|0:0,0:0:0:0:
232,112,77840,2,0,L|80:112,1,135.000005149842
104,272,78173,2,0,L|240:272,1,135.000005149842
376,184,78506,1,0,0:0:0:0:
280,56,78673,1,0,0:0:0:0:
144,144,78840,1,0,0:0:0:0:
424,312,79173,5,0,0:0:0:0:
200,80,79506,2,0,P|240:152|296:192,1,135.000005149842
128,248,79840,1,0,0:0:0:0:
272,328,80006,1,0,0:0:0:0:
368,192,80173,1,0,0:0:0:0:
264,64,80340,1,0,0:0:0:0:
264,64,80423,1,0,0:0:0:0:
264,64,80506,1,0,0:0:0:0:
112,120,80673,1,0,0:0:0:0:
240,224,80840,1,0,0:0:0:0:
136,208,81006,5,0,0:0:0:0:
192,112,81173,1,0,0:0:0:0:
288,56,81340,1,0,0:0:0:0:
392,64,81506,1,0,0:0:0:0:
336,152,81673,1,0,0:0:0:0:
352,208,81756,1,0,0:0:0:0:
400,224,81840,1,0,0:0:0:0:
344,320,82006,1,0,0:0:0:0:
232,312,82173,6,0,L|160:280,1,45
216,248,82340,2,0,L|168:224,1,45
192,176,82506,2,0,P|128:128|112:88,1,90
216,56,82840,1,0,0:0:0:0:
320,72,83006,1,0,0:0:0:0:
320,72,83090,1,0,0:0:0:0:
320,72,83173,2,0,L|392:128,1,90
440,224,83506,2,0,P|408:280|368:304,1,90
312,216,83840,2,0,P|248:176|232:136,1,90
136,200,84173,5,0,0:0:0:0:
128,312,84340,1,0,0:0:0:0:
176,296,84423,1,0,0:0:0:0:
224,312,84506,1,0,0:0:0:0:
256,208,84673,2,0,L|280:160,2,45,0|0|0,0:0|0:0|0:0,0:0:0:0:
312,224,84923,1,0,0:0:0:0:
360,200,85006,1,0,0:0:0:0:
384,152,85090,1,0,0:0:0:0:
384,96,85173,2,0,P|320:64|280:72,1,90
200,72,85506,2,0,L|144:96,3,45,0|0|0|0,0:0|0:0|0:0|0:0,0:0:0:0:
128,136,85840,2,0,L|104:176,3,45,0|0|0|0,0:0|0:0|0:0|0:0,0:0:0:0:
72,216,86173,1,0,0:0:0:0:
152,288,86340,1,0,0:0:0:0:
248,232,86506,2,0,P|280:304|320:320,1,90
392,280,86840,6,0,L|392:168,1,90
304,120,87173,1,0,0:0:0:0:
304,120,87256,1,0,0:0:0:0:
304,120,87340,1,0,0:0:0:0:
200,96,87506,2,0,P|128:128|112:160,1,90
32,200,87840,1,0,0:0:0:0:
80,296,88006,1,0,0:0:0:0:
168,232,88173,2,0,P|208:280|232:288,1,90
328,240,88506,1,0,0:0:0:0:
424,296,88673,1,0,0:0:0:0:
424,296,88756,1,0,0:0:0:0:
424,296,88840,2,0,P|464:232|448:208,1,90
424,128,89173,2,0,L|384:96,2,45,0|0|0,0:0|0:0|0:0,0:0:0:0:
320,120,89506,5,0,0:0:0:0:
272,88,89590,1,0,0:0:0:0:
216,88,89673,1,0,0:0:0:0:
168,104,89756,1,0,0:0:0:0:
128,144,89840,2,0,P|104:192|72:224,1,90
168,280,90173,2,0,P|216:344|232:352,1,90
320,296,90506,1,0,0:0:0:0:
360,264,90590,2,0,L|416:264,2,45,0|0|0,0:0|0:0|0:0,0:0:0:0:
344,216,90840,2,0,L|248:168,1,90
224,72,91173,5,0,0:0:0:0:
128,120,91340,1,0,0:0:0:0:
224,168,91506,2,0,L|328:120,1,90
400,80,91840,1,0,0:0:0:0:
400,80,91923,1,0,0:0:0:0:
400,80,92006,1,0,0:0:0:0:
432,184,92173,1,0,0:0:0:0:
392,224,92256,1,0,0:0:0:0:
344,256,92340,1,0,0:0:0:0:
288,272,92423,1,0,0:0:0:0:
232,264,92506,2,0,L|168:240,2,45,0|0|0,0:0|0:0|0:0,0:0:0:0:
208,160,92840,2,0,P|256:120|272:80,2,90,0|0|0,0:0|0:0|0:0,0:0:0:0:
144,72,93340,1,0,0:0:0:0:
80,160,93506,6,0,L|80:208,4,45,0|0|0|0|0,0:0|0:0|0:0|0:0|0:0,0:0:0:0:
80,272,94006,1,0,0:0:0:0:
184,264,94173,2,0,L|288:200,1,90
368,224,94506,2,0,L|312:128,1,90
256,64,94840,6,0,P|208:120|176:128,1,90
88,120,95173,1,0,0:0:0:0:
56,224,95340,1,0,0:0:0:0:
160,200,95506,1,0,0:0:0:0:
216,288,95673,2,0,P|288:336|320:320,2,90,0|0|0,0:0|0:0|0:0,0:0:0:0:
304,224,96173,1,0,0:0:0:0:
240,136,96340,1,0,0:0:0:0:
344,128,96506,2,0,L|456:128,1,90
448,232,96840,1,0,0:0:0:0:
448,232,96923,1,0,0:0:0:0:
448,232,97006,1,0,0:0:0:0:
376,312,97173,2,0,L|264:312,1,90
184,272,97506,5,0,0:0:0:0:
256,192,97673,1,0,0:0:0:0:
152,168,97840,1,0,0:0:0:0:
112,72,98006,1,0,0:0:0:0:
112,72,98090,1,0,0:0:0:0:
112,72,98173,2,0,L|208:72,1,90
312,88,98506,2,0,L|368:176,1,90
320,264,98840,5,0,0:0:0:0:
216,240,99006,1,0,0:0:0:0:
216,240,99090,1,0,0:0:0:0:
216,240,99173,2,0,L|128:192,1,90
176,96,99506,1,0,0:0:0:0:
272,152,99673,1,0,0:0:0:0:
344,72,99840,2,0,L|416:168,1,90
368,248,100173,6,0,L|336:280,2,45,0|0|0,0:0|0:0|0:0,0:0:0:0:
440,328,100506,2,0,P|480:264|464:216,1,90
424,160,100840,2,0,P|368:112|312:104,1,90
353,107,101090,1,0,0:0:0:0:
353,107,101173,2,0,P|264:88|232:96,1,90
176,136,101506,5,0,0:0:0:0:
176,136,101590,1,0,0:0:0:0:
176,136,101673,1,0,0:0:0:0:
72,176,101840,2,0,L|72:280,1,90
176,280,102173,2,0,P|272:312|352:264,2,180,0|0|0,0:0|0:0|0:0,0:0:0:0:
88,88,112173,5,0,0:0:0:0:
288,344,112840,1,0,0:0:0:0:
88,320,113006,5,0,0:0:0:0:
224,224,113173,1,0,0:0:0:0:
72,168,113340,1,0,0:0:0:0:
208,88,113506,2,0,P|280:56|336:64,1,135.000005149842
408,208,113840,6,0,P|456:264|472:328,1,135.000005149842
320,256,114173,2,0,P|288:336|232:344,1,135.000005149842
152,216,114506,1,0,0:0:0:0:
56,88,114673,1,0,0:0:0:0:
216,120,114840,2,0,P|264:56|328:64,1,135.000005149842
456,136,115173,1,0,0:0:0:0:
304,200,115340,1,0,0:0:0:0:
432,296,115506,1,0,0:0:0:0:
272,328,115673,1,0,0:0:0:0:
136,232,115840,2,0,P|88:144|96:104,1,135.000005149842
240,56,116173,6,0,L|376:64,1,135.000005149842
368,224,116506,1,0,0:0:0:0:
208,256,116673,1,0,0:0:0:0:
208,256,116756,1,0,0:0:0:0:
208,256,116840,1,0,0:0:0:0:
352,328,117006,1,0,0:0:0:0:
312,168,117173,1,0,0:0:0:0:
152,176,117340,2,0,B|128:176|120:136|96:96|40:104,1,135.000005149842
200,48,117673,2,0,B|288:88|288:88|344:88,1,135.000005149842
328,248,118006,2,0,B|280:248|280:248|184:296,1,135.000005149842
96,168,118340,1,0,0:0:0:0:
240,96,118506,1,0,0:0:0:0:
240,256,118673,1,0,0:0:0:0:
376,176,118840,6,0,L|472:80,1,135.000005149842
376,208,119173,2,0,L|472:304,1,135.000005149842
336,208,119506,2,0,L|240:304,1,135.000005149842
336,176,119840,2,0,L|240:80,1,135.000005149842
192,240,120173,1,0,0:0:0:0:
72,128,120340,2,0,P|144:96|192:48,1,135.000005149842
440,128,120673,2,0,P|368:96|320:48,1,135.000005149842
328,224,121006,1,0,0:0:0:0:
184,304,121173,2,0,L|184:160,1,135.000005149842
312,64,121506,5,0,0:0:0:0:
400,200,121673,1,0,0:0:0:0:
312,64,121840,1,0,0:0:0:0:
232,200,122006,1,0,0:0:0:0:
312,64,122173,1,0,0:0:0:0:
400,200,122340,1,0,0:0:0:0:
312,64,122506,1,0,0:0:0:0:
232,200,122673,1,0,0:0:0:0:
312,64,122840,1,0,0:0:0:0:
400,200,123006,1,0,0:0:0:0:
312,64,123173,1,0,0:0:0:0:
232,200,123340,1,0,0:0:0:0:
224,48,123506,2,0,L|360:48,1,135.000005149842
440,192,123840,6,0,P|416:256|352:288,1,135.000005149842
256,264,124173,2,0,P|200:208|112:72,1,233.999989288331
232,64,124673,2,0,P|272:120|400:240,1,233.999989288331
240,320,125173,1,0,0:0:0:0:
88,264,125340,1,0,0:0:0:0:
176,152,125506,2,0,P|264:112|384:32,1,233.999989288331
384,144,126006,2,0,P|440:232|448:360,1,233.999989288331
288,304,126506,1,0,0:0:0:0:
168,200,126673,1,0,0:0:0:0:
272,216,126840,2,0,P|320:160|224:64,1,233.999989288331
192,200,127340,2,0,P|144:144|56:240,1,233.999989288331
200,56,127840,5,0,0:0:0:0:
344,128,128006,2,0,P|368:192|424:240,1,135.000005149842
272,312,128340,1,0,0:0:0:0:
120,248,128506,1,0,0:0:0:0:
272,192,128673,1,0,0:0:0:0:
120,136,128840,1,0,0:0:0:0:
272,72,129006,1,0,0:0:0:0:
424,128,129173,2,0,P|480:208|480:248,1,135.000005149842
352,336,129506,2,0,P|256:264|240:216,1,135.000005149842
200,96,129840,6,0,P|112:48|80:80,1,135.000005149842
96,224,130173,1,0,0:0:0:0:
256,248,130340,1,0,0:0:0:0:
256,248,130423,1,0,0:0:0:0:
256,248,130506,1,0,0:0:0:0:
416,208,130673,2,0,P|416:128|392:80,1,135.000005149842
240,144,131006,2,0,L|200:64,2,67.5000025749208,0|0|0,0:0|0:0|0:0,0:0:0:0:
368,40,131340,1,0,0:0:0:0:
456,176,131506,2,0,L|408:304,1,135.000005149842
248,272,131840,2,0,P|152:256|112:208,1,135.000005149842
176,80,132173,5,0,0:0:0:0:
336,80,132340,1,0,0:0:0:0:
176,80,132506,1,0,0:0:0:0:
336,80,132673,1,0,0:0:0:0:
240,208,132840,1,0,0:0:0:0:
392,256,133006,2,0,P|360:328|296:352,1,135.000005149842
184,248,133340,2,0,P|120:168|112:120,2,135.000005149842,0|0|0,0:0|0:0|0:0,0:0:0:0:
280,112,133840,2,0,L|432:112,1,135.000005149842
408,272,134173,2,0,L|272:272,1,135.000005149842
136,184,134506,1,0,0:0:0:0:
232,56,134673,1,0,0:0:0:0:
368,144,134840,1,0,0:0:0:0:
