osu file format v13

[General]
AudioFilename: Reol.mp3
AudioLeadIn: 0
PreviewTime: 56000
Countdown: 0
SampleSet: None
StackLeniency: 0.7
Mode: 3
LetterboxInBreaks: 0
SpecialStyle: 0
WidescreenStoryboard: 1

[Editor]
DistanceSpacing: 1
BeatDivisor: 4
GridSize: 4
TimelineZoom: 1.5

[Metadata]
Title:+Danshi
TitleUnicode:+Danshi
Artist:Reol
ArtistUnicode:れをる
Creator:lZenxl
Version:oko's 7K EZ
Source:
Tags:GigaP neonat Tagre Plus Boy Hinsvar Fort Papcio [I]MMoRTal[S] mike91lau Player_X Soldsaga_KunG Okoratu
BeatmapID:448627
BeatmapSetID:165991

[Difficulty]
HPDrainRate:7
CircleSize:7
OverallDifficulty:7
ApproachRate:5
SliderMultiplier:1.8
SliderTickRate:1

[Events]
//Background and Video events
0,0,"BG.png",0,0
Video,0,"new.avi"
//Break Periods
2,48257,54857
2,102924,110857
//Storyboard Layer 0 (Background)
//Storyboard Layer 1 (Fail)
//Storyboard Layer 2 (Pass)
//Storyboard Layer 3 (Foreground)
//Storyboard Sound Samples
//Background Colour Transformations
3,100,163,162,255

[TimingPoints]
12058,333.333333333333,4,1,1,50,1,0
14724,-100,4,2,1,80,0,0
56891,-100,4,2,1,30,0,0
57057,-100,4,2,1,50,0,0
57224,-100,4,2,1,70,0,0
57391,-100,4,2,1,80,0,1
67391,-100,4,2,1,80,0,0
68057,-100,4,2,1,80,0,1
78724,-100,4,2,1,80,0,0
112891,-100,4,2,1,30,0,0
113057,-100,4,2,1,50,0,0
113224,-100,4,2,1,70,0,0
113391,-100,4,2,1,80,0,1
123391,-100,4,2,1,80,0,0
124057,-100,4,2,1,80,0,1
134724,-100,4,2,1,80,0,0
145391,-100,4,2,1,80,0,1
145412,-100,4,2,1,80,0,0
166724,-100,4,2,1,30,0,0
168557,-100,4,2,1,40,0,0
168724,-100,4,2,1,50,0,0
168891,-100,4,2,1,60,0,0
169057,-100,4,2,1,70,0,0
169224,-100,4,2,1,80,0,0
169391,-100,4,2,1,80,0,1
179391,-100,4,2,1,80,0,0
180057,-100,4,2,1,80,0,1
190724,-100,4,2,1,80,0,0

[HitObjects]
256,192,13391,5,0,0:0:0:0:
256,192,13724,1,0,0:0:0:0:
256,192,14058,1,0,0:0:0:0:
256,192,14224,1,0,0:0:0:0:
402,192,14391,1,0,0:0:0:0:
109,192,14391,1,0,0:0:0:0:
329,192,14724,1,0,0:0:0:0:
182,192,15058,1,0,0:0:0:0:
329,192,15224,1,0,0:0:0:0:
475,192,15391,1,0,0:0:0:0:
256,192,15558,1,0,0:0:0:0:
182,192,15891,1,0,0:0:0:0:
329,192,16058,1,0,0:0:0:0:
182,192,16224,1,0,0:0:0:0:
36,192,16391,1,0,0:0:0:0:
256,192,16558,1,0,0:0:0:0:
329,192,16724,1,0,0:0:0:0:
182,192,16891,1,0,0:0:0:0:
402,192,17058,1,0,0:0:0:0:
109,192,17224,1,0,0:0:0:0:
329,192,17391,1,0,0:0:0:0:
182,192,17391,1,0,0:0:0:0:
329,192,17724,1,0,0:0:0:0:
182,192,17724,1,0,0:0:0:0:
402,192,17891,1,0,0:0:0:0:
475,192,18058,1,0,0:0:0:0:
182,192,18224,1,0,0:0:0:0:
109,192,18391,1,0,0:0:0:0:
182,192,18558,1,0,0:0:0:0:
256,192,18641,1,0,0:0:0:0:
329,192,18724,1,0,0:0:0:0:
182,192,19058,1,0,0:0:0:0:
329,192,19058,1,0,0:0:0:0:
256,192,19224,1,0,0:0:0:0:
256,192,19391,128,0,19724:0:0:0:0:
36,192,19891,1,0,0:0:0:0:
182,192,19974,1,0,0:0:0:0:
329,192,20058,1,0,0:0:0:0:
475,192,20058,1,0,0:0:0:0:
109,192,20391,1,0,0:0:0:0:
402,192,20724,1,0,0:0:0:0:
256,192,20891,1,0,0:0:0:0:
109,192,21058,1,0,0:0:0:0:
402,192,21224,1,0,0:0:0:0:
256,192,21391,1,0,0:0:0:0:
182,192,21558,1,0,0:0:0:0:
109,192,21724,1,0,0:0:0:0:
329,192,21891,1,0,0:0:0:0:
402,192,22058,1,0,0:0:0:0:
182,192,22224,1,0,0:0:0:0:
109,192,22391,1,0,0:0:0:0:
256,192,22558,1,0,0:0:0:0:
182,192,22724,1,0,0:0:0:0:
402,192,22724,1,0,0:0:0:0:
329,192,23057,128,0,23224:0:0:0:0:
182,192,23224,1,0,0:0:0:0:
256,192,23391,128,0,23724:0:0:0:0:
182,192,23557,128,0,23724:0:0:0:0:
402,192,23724,128,0,24057:0:0:0:0:
329,192,24224,1,0,0:0:0:0:
182,192,24391,1,0,0:0:0:0:
329,192,24557,1,0,0:0:0:0:
256,192,24724,1,0,0:0:0:0:
182,192,24891,1,0,0:0:0:0:
182,192,25057,1,0,0:0:0:0:
182,192,25224,1,0,0:0:0:0:
182,192,25391,1,0,0:0:0:0:
329,192,25724,1,0,0:0:0:0:
182,192,26057,1,0,0:0:0:0:
109,192,26224,1,0,0:0:0:0:
329,192,26391,1,0,0:0:0:0:
402,192,26557,1,0,0:0:0:0:
36,192,26724,1,0,0:0:0:0:
182,192,26891,1,0,0:0:0:0:
329,192,27057,1,0,0:0:0:0:
475,192,27224,1,0,0:0:0:0:
329,192,27391,1,0,0:0:0:0:
402,192,27557,1,0,0:0:0:0:
256,192,27724,1,0,0:0:0:0:
109,192,27891,1,0,0:0:0:0:
182,192,28057,1,0,0:0:0:0:
329,192,28224,1,0,0:0:0:0:
256,192,28391,1,0,0:0:0:0:
402,192,28557,1,0,0:0:0:0:
329,192,28724,1,0,0:0:0:0:
182,192,28891,1,0,0:0:0:0:
109,192,29057,1,0,0:0:0:0:
36,192,29224,1,0,0:0:0:0:
329,192,29391,1,0,0:0:0:0:
402,192,29474,128,0,29724:0:0:0:0:
182,192,29724,128,0,30057:0:0:0:0:
475,192,30057,128,0,30391:0:0:0:0:
109,192,30391,128,0,30724:0:0:0:0:
256,192,30724,128,0,31224:0:0:0:0:
329,192,31391,1,0,0:0:0:0:
182,192,31557,1,0,0:0:0:0:
402,192,31724,1,0,0:0:0:0:
182,192,31891,1,0,0:0:0:0:
109,192,32057,1,0,0:0:0:0:
256,192,32224,128,0,32391:0:0:0:0:
329,192,32391,128,0,32557:0:0:0:0:
182,192,32557,128,0,32724:0:0:0:0:
402,192,32891,128,0,33057:0:0:0:0:
329,192,33224,128,0,33391:0:0:0:0:
256,192,33557,128,0,33724:0:0:0:0:
182,192,33891,128,0,34057:0:0:0:0:
256,192,34224,1,0,0:0:0:0:
329,192,34391,1,0,0:0:0:0:
182,192,34557,1,0,0:0:0:0:
329,192,34724,1,0,0:0:0:0:
109,192,34724,1,0,0:0:0:0:
182,192,35057,1,0,0:0:0:0:
329,192,35391,1,0,0:0:0:0:
182,192,35557,1,0,0:0:0:0:
36,192,35724,1,0,0:0:0:0:
182,192,35891,1,0,0:0:0:0:
329,192,36057,128,0,36224:0:0:0:0:
475,192,36391,1,0,0:0:0:0:
329,192,36724,1,0,0:0:0:0:
182,192,36891,1,0,0:0:0:0:
109,192,37057,1,0,0:0:0:0:
402,192,37224,1,0,0:0:0:0:
182,192,37391,1,0,0:0:0:0:
402,192,37557,1,0,0:0:0:0:
182,192,37724,1,0,0:0:0:0:
402,192,37891,1,0,0:0:0:0:
182,192,38057,1,0,0:0:0:0:
109,192,38224,1,0,0:0:0:0:
36,192,38391,128,0,38557:0:0:0:0:
329,192,38724,1,0,0:0:0:0:
182,192,38891,1,0,0:0:0:0:
402,192,39057,1,0,0:0:0:0:
109,192,39224,1,0,0:0:0:0:
182,192,39391,1,0,0:0:0:0:
182,192,39724,1,0,0:0:0:0:
329,192,39724,1,0,0:0:0:0:
182,192,40057,1,0,0:0:0:0:
329,192,40057,1,0,0:0:0:0:
402,192,40391,1,0,0:0:0:0:
109,192,40391,1,0,0:0:0:0:
109,192,40724,1,0,0:0:0:0:
402,192,40724,128,0,41057:0:0:0:0:
182,192,40891,1,0,0:0:0:0:
256,192,41057,1,0,0:0:0:0:
329,192,41224,1,0,0:0:0:0:
402,192,41391,1,0,0:0:0:0:
475,192,41557,128,0,41891:0:0:0:0:
182,192,41891,1,0,0:0:0:0:
182,192,42057,128,0,42224:0:0:0:0:
329,192,42391,1,0,0:0:0:0:
329,192,42724,1,0,0:0:0:0:
182,192,42724,1,0,0:0:0:0:
109,192,43057,1,0,0:0:0:0:
402,192,43057,1,0,0:0:0:0:
329,192,43224,1,0,0:0:0:0:
256,192,43391,128,0,43724:0:0:0:0:
329,192,43891,1,0,0:0:0:0:
329,192,44224,1,0,0:0:0:0:
182,192,44391,1,0,0:0:0:0:
182,192,44724,1,0,0:0:0:0:
109,192,45057,1,0,0:0:0:0:
329,192,45057,1,0,0:0:0:0:
182,192,45391,1,0,0:0:0:0:
402,192,45391,1,0,0:0:0:0:
329,192,45724,1,0,0:0:0:0:
182,192,46057,1,0,0:0:0:0:
109,192,46224,1,0,0:0:0:0:
36,192,46391,1,0,0:0:0:0:
109,192,46557,1,0,0:0:0:0:
182,192,46641,1,0,0:0:0:0:
329,192,46724,128,0,48057:0:0:0:0:
256,192,56057,5,0,0:0:0:0:
182,192,56891,1,0,0:0:0:0:
329,192,57057,1,0,0:0:0:0:
109,192,57224,1,0,0:0:0:0:
256,192,57391,1,0,0:0:0:0:
402,192,57724,1,0,0:0:0:0:
329,192,57891,1,0,0:0:0:0:
256,192,58057,1,0,0:0:0:0:
109,192,58057,1,0,0:0:0:0:
329,192,58391,1,0,0:0:0:0:
329,192,58557,1,0,0:0:0:0:
182,192,58724,1,0,0:0:0:0:
36,192,58724,1,0,0:0:0:0:
109,192,59057,1,0,0:0:0:0:
182,192,59391,1,0,0:0:0:0:
109,192,59557,1,0,0:0:0:0:
402,192,59724,1,0,0:0:0:0:
475,192,59891,1,0,0:0:0:0:
182,192,60057,1,0,0:0:0:0:
182,192,60391,1,0,0:0:0:0:
329,192,60557,1,0,0:0:0:0:
256,192,60724,1,0,0:0:0:0:
475,192,60724,1,0,0:0:0:0:
182,192,61057,1,0,0:0:0:0:
329,192,61224,128,0,61557:0:0:0:0:
182,192,61391,1,0,0:0:0:0:
256,192,61724,1,0,0:0:0:0:
109,192,61891,1,0,0:0:0:0:
329,192,62057,1,0,0:0:0:0:
182,192,62224,1,0,0:0:0:0:
402,192,62391,1,0,0:0:0:0:
109,192,62557,1,0,0:0:0:0:
329,192,62724,128,0,62891:0:0:0:0:
475,192,62724,128,0,62891:0:0:0:0:
182,192,63057,128,0,63224:0:0:0:0:
36,192,63057,128,0,63224:0:0:0:0:
329,192,63391,128,0,63557:0:0:0:0:
402,192,63391,128,0,63557:0:0:0:0:
182,192,63724,128,0,63891:0:0:0:0:
109,192,63724,128,0,63891:0:0:0:0:
256,192,64057,1,0,0:0:0:0:
402,192,64224,128,0,64557:0:0:0:0:
36,192,64557,1,0,0:0:0:0:
182,192,64724,1,0,0:0:0:0:
329,192,64891,1,0,0:0:0:0:
475,192,65057,1,0,0:0:0:0:
182,192,65391,1,0,0:0:0:0:
109,192,65557,1,0,0:0:0:0:
36,192,65724,1,0,0:0:0:0:
329,192,65891,1,0,0:0:0:0:
402,192,66057,1,0,0:0:0:0:
475,192,66224,1,0,0:0:0:0:
329,192,66391,1,0,0:0:0:0:
256,192,66557,1,0,0:0:0:0:
182,192,66724,1,0,0:0:0:0:
36,192,66724,1,0,0:0:0:0:
36,192,67057,1,0,0:0:0:0:
182,192,67057,1,0,0:0:0:0:
329,192,67391,1,0,0:0:0:0:
475,192,67391,1,0,0:0:0:0:
329,192,67724,1,0,0:0:0:0:
475,192,67724,1,0,0:0:0:0:
256,192,68057,1,0,0:0:0:0:
402,192,68057,1,0,0:0:0:0:
109,192,68057,1,0,0:0:0:0:
182,192,68391,1,0,0:0:0:0:
329,192,68391,1,0,0:0:0:0:
256,192,68557,128,0,68891:0:0:0:0:
329,192,69057,1,0,0:0:0:0:
402,192,69224,1,0,0:0:0:0:
329,192,69391,1,0,0:0:0:0:
109,192,69391,1,0,0:0:0:0:
109,192,69724,1,0,0:0:0:0:
182,192,69724,1,0,0:0:0:0:
256,192,69891,128,0,70224:0:0:0:0:
329,192,70391,1,0,0:0:0:0:
182,192,70557,1,0,0:0:0:0:
402,192,70724,128,0,71057:0:0:0:0:
329,192,71057,1,0,0:0:0:0:
109,192,71224,128,0,71557:0:0:0:0:
182,192,71557,1,0,0:0:0:0:
256,192,71724,1,0,0:0:0:0:
329,192,71891,1,0,0:0:0:0:
182,192,72057,1,0,0:0:0:0:
109,192,72224,1,0,0:0:0:0:
36,192,72391,1,0,0:0:0:0:
329,192,72557,1,0,0:0:0:0:
402,192,72724,1,0,0:0:0:0:
182,192,73057,1,0,0:0:0:0:
329,192,73057,1,0,0:0:0:0:
109,192,73391,1,0,0:0:0:0:
256,192,73391,1,0,0:0:0:0:
402,192,73391,1,0,0:0:0:0:
402,192,73724,1,0,0:0:0:0:
329,192,73891,1,0,0:0:0:0:
182,192,74057,1,0,0:0:0:0:
109,192,74391,1,0,0:0:0:0:
182,192,74557,1,0,0:0:0:0:
329,192,74724,1,0,0:0:0:0:
402,192,75057,1,0,0:0:0:0:
329,192,75224,1,0,0:0:0:0:
109,192,75391,1,0,0:0:0:0:
182,192,75557,1,0,0:0:0:0:
329,192,75724,1,0,0:0:0:0:
402,192,75891,1,0,0:0:0:0:
109,192,76057,128,0,76224:0:0:0:0:
182,192,76057,128,0,76224:0:0:0:0:
329,192,76391,128,0,76557:0:0:0:0:
402,192,76391,128,0,76557:0:0:0:0:
182,192,76724,1,0,0:0:0:0:
109,192,76891,1,0,0:0:0:0:
329,192,77057,1,0,0:0:0:0:
402,192,77224,1,0,0:0:0:0:
182,192,77391,1,0,0:0:0:0:
329,192,77391,1,0,0:0:0:0:
256,192,77724,1,0,0:0:0:0:
182,192,78057,1,0,0:0:0:0:
329,192,78057,1,0,0:0:0:0:
256,192,78391,1,0,0:0:0:0:
109,192,78724,1,0,0:0:0:0:
402,192,78724,1,0,0:0:0:0:
256,192,79057,1,0,0:0:0:0:
182,192,79391,1,0,0:0:0:0:
402,192,79557,1,0,0:0:0:0:
109,192,79724,1,0,0:0:0:0:
329,192,79724,1,0,0:0:0:0:
182,192,80057,1,0,0:0:0:0:
329,192,80224,1,0,0:0:0:0:
402,192,80391,1,0,0:0:0:0:
256,192,80557,1,0,0:0:0:0:
182,192,80724,1,0,0:0:0:0:
256,192,80891,1,0,0:0:0:0:
256,192,81057,1,0,0:0:0:0:
256,192,81224,1,0,0:0:0:0:
329,192,81391,1,0,0:0:0:0:
402,192,81557,1,0,0:0:0:0:
256,192,81724,1,0,0:0:0:0:
109,192,81891,1,0,0:0:0:0:
402,192,82057,1,0,0:0:0:0:
182,192,82224,1,0,0:0:0:0:
329,192,82391,1,0,0:0:0:0:
402,192,82557,1,0,0:0:0:0:
256,192,82724,128,0,83057:0:0:0:0:
182,192,83224,1,0,0:0:0:0:
109,192,83391,128,0,83724:0:0:0:0:
402,192,83724,128,0,84057:0:0:0:0:
182,192,84224,1,0,0:0:0:0:
36,192,84391,1,0,0:0:0:0:
109,192,84557,1,0,0:0:0:0:
256,192,84724,1,0,0:0:0:0:
329,192,84891,1,0,0:0:0:0:
402,192,85057,128,0,85224:0:0:0:0:
256,192,85391,1,0,0:0:0:0:
182,192,85557,1,0,0:0:0:0:
402,192,85724,1,0,0:0:0:0:
109,192,85891,1,0,0:0:0:0:
182,192,86057,1,0,0:0:0:0:
402,192,86224,1,0,0:0:0:0:
329,192,86391,1,0,0:0:0:0:
182,192,86724,1,0,0:0:0:0:
402,192,86724,1,0,0:0:0:0:
36,192,86891,1,0,0:0:0:0:
182,192,87057,1,0,0:0:0:0:
329,192,87224,1,0,0:0:0:0:
182,192,87391,1,0,0:0:0:0:
402,192,87557,1,0,0:0:0:0:
329,192,87724,1,0,0:0:0:0:
182,192,87891,1,0,0:0:0:0:
109,192,88057,1,0,0:0:0:0:
329,192,88224,128,0,88391:0:0:0:0:
475,192,88557,1,0,0:0:0:0:
109,192,88724,1,0,0:0:0:0:
402,192,88891,1,0,0:0:0:0:
329,192,89057,1,0,0:0:0:0:
256,192,89224,1,0,0:0:0:0:
182,192,89391,1,0,0:0:0:0:
402,192,89724,1,0,0:0:0:0:
182,192,89891,1,0,0:0:0:0:
109,192,90057,1,0,0:0:0:0:
182,192,90224,1,0,0:0:0:0:
402,192,90391,1,0,0:0:0:0:
36,192,90557,1,0,0:0:0:0:
475,192,90724,128,0,91057:0:0:0:0:
402,192,90724,1,0,0:0:0:0:
329,192,91224,1,0,0:0:0:0:
182,192,91391,1,0,0:0:0:0:
402,192,91557,1,0,0:0:0:0:
109,192,91724,1,0,0:0:0:0:
182,192,92057,1,0,0:0:0:0:
329,192,92057,1,0,0:0:0:0:
109,192,92224,1,0,0:0:0:0:
402,192,92391,1,0,0:0:0:0:
256,192,92557,1,0,0:0:0:0:
182,192,92724,1,0,0:0:0:0:
109,192,92891,128,0,93057:0:0:0:0:
329,192,93057,1,0,0:0:0:0:
402,192,93224,128,0,93391:0:0:0:0:
182,192,93557,1,0,0:0:0:0:
109,192,93724,1,0,0:0:0:0:
329,192,93891,1,0,0:0:0:0:
402,192,94057,1,0,0:0:0:0:
329,192,94224,1,0,0:0:0:0:
182,192,94391,1,0,0:0:0:0:
109,192,94557,128,0,94724:0:0:0:0:
256,192,94891,1,0,0:0:0:0:
329,192,95057,1,0,0:0:0:0:
182,192,95224,1,0,0:0:0:0:
109,192,95391,1,0,0:0:0:0:
329,192,95557,1,0,0:0:0:0:
402,192,95724,1,0,0:0:0:0:
475,192,95891,1,0,0:0:0:0:
182,192,96057,1,0,0:0:0:0:
329,192,96057,1,0,0:0:0:0:
109,192,96224,1,0,0:0:0:0:
36,192,96391,128,0,96724:0:0:0:0:
329,192,96724,1,0,0:0:0:0:
402,192,96891,1,0,0:0:0:0:
475,192,97057,128,0,97391:0:0:0:0:
256,192,97557,1,0,0:0:0:0:
109,192,97724,1,0,0:0:0:0:
329,192,97891,1,0,0:0:0:0:
182,192,98057,1,0,0:0:0:0:
329,192,98224,1,0,0:0:0:0:
109,192,98391,1,0,0:0:0:0:
402,192,98557,1,0,0:0:0:0:
182,192,98724,1,0,0:0:0:0:
329,192,98724,1,0,0:0:0:0:
256,192,98891,1,0,0:0:0:0:
329,192,99057,1,0,0:0:0:0:
109,192,99224,1,0,0:0:0:0:
402,192,99391,1,0,0:0:0:0:
36,192,99557,1,0,0:0:0:0:
475,192,99724,1,0,0:0:0:0:
329,192,99724,1,0,0:0:0:0:
256,192,99891,1,0,0:0:0:0:
182,192,100057,1,0,0:0:0:0:
329,192,100224,1,0,0:0:0:0:
402,192,100391,1,0,0:0:0:0:
329,192,100557,1,0,0:0:0:0:
182,192,100724,1,0,0:0:0:0:
109,192,100891,1,0,0:0:0:0:
182,192,101057,128,0,101224:0:0:0:0:
256,192,101391,1,0,0:0:0:0:
329,192,101724,1,0,0:0:0:0:
109,192,102057,1,0,0:0:0:0:
402,192,102391,1,0,0:0:0:0:
256,192,102724,1,0,0:0:0:0:
256,192,112057,5,0,0:0:0:0:
182,192,112891,1,0,0:0:0:0:
329,192,113057,1,0,0:0:0:0:
109,192,113224,1,0,0:0:0:0:
256,192,113391,1,0,0:0:0:0:
36,192,113724,1,0,0:0:0:0:
182,192,113891,1,0,0:0:0:0:
329,192,114057,1,0,0:0:0:0:
475,192,114057,1,0,0:0:0:0:
182,192,114391,1,0,0:0:0:0:
182,192,114557,1,0,0:0:0:0:
329,192,114724,1,0,0:0:0:0:
475,192,114724,1,0,0:0:0:0:
329,192,115057,1,0,0:0:0:0:
402,192,115224,1,0,0:0:0:0:
182,192,115391,1,0,0:0:0:0:
109,192,115557,1,0,0:0:0:0:
329,192,115724,1,0,0:0:0:0:
256,192,115891,1,0,0:0:0:0:
402,192,116057,1,0,0:0:0:0:
475,192,116224,1,0,0:0:0:0:
329,192,116391,1,0,0:0:0:0:
256,192,116557,1,0,0:0:0:0:
182,192,116724,1,0,0:0:0:0:
329,192,116891,1,0,0:0:0:0:
182,192,117057,1,0,0:0:0:0:
329,192,117224,128,0,117557:0:0:0:0:
256,192,117391,1,0,0:0:0:0:
402,192,117724,1,0,0:0:0:0:
182,192,117891,1,0,0:0:0:0:
402,192,118057,1,0,0:0:0:0:
182,192,118224,1,0,0:0:0:0:
109,192,118391,1,0,0:0:0:0:
36,192,118557,1,0,0:0:0:0:
182,192,118724,128,0,118891:0:0:0:0:
329,192,118724,128,0,118891:0:0:0:0:
402,192,119057,128,0,119224:0:0:0:0:
475,192,119057,128,0,119224:0:0:0:0:
109,192,119391,128,0,119557:0:0:0:0:
36,192,119391,128,0,119557:0:0:0:0:
182,192,119724,128,0,119891:0:0:0:0:
329,192,119724,128,0,119891:0:0:0:0:
256,192,120057,1,0,0:0:0:0:
402,192,120224,128,0,120557:0:0:0:0:
109,192,120557,128,0,120891:0:0:0:0:
182,192,121057,1,0,0:0:0:0:
256,192,121224,1,0,0:0:0:0:
402,192,121391,1,0,0:0:0:0:
475,192,121557,1,0,0:0:0:0:
329,192,121724,1,0,0:0:0:0:
109,192,121891,1,0,0:0:0:0:
36,192,122057,1,0,0:0:0:0:
182,192,122224,1,0,0:0:0:0:
402,192,122391,1,0,0:0:0:0:
475,192,122557,1,0,0:0:0:0:
182,192,122724,1,0,0:0:0:0:
329,192,122724,1,0,0:0:0:0:
182,192,123057,1,0,0:0:0:0:
329,192,123057,1,0,0:0:0:0:
109,192,123391,1,0,0:0:0:0:
402,192,123391,1,0,0:0:0:0:
402,192,123724,128,0,124057:0:0:0:0:
109,192,123724,128,0,124057:0:0:0:0:
256,192,124057,1,0,0:0:0:0:
256,192,124391,1,0,0:0:0:0:
329,192,124557,1,0,0:0:0:0:
475,192,124557,1,0,0:0:0:0:
256,192,124724,1,0,0:0:0:0:
182,192,124891,1,0,0:0:0:0:
256,192,125057,1,0,0:0:0:0:
402,192,125224,1,0,0:0:0:0:
329,192,125391,1,0,0:0:0:0:
475,192,125391,1,0,0:0:0:0:
256,192,125557,1,0,0:0:0:0:
329,192,125724,1,0,0:0:0:0:
182,192,125891,1,0,0:0:0:0:
36,192,125891,1,0,0:0:0:0:
256,192,126057,1,0,0:0:0:0:
402,192,126224,1,0,0:0:0:0:
109,192,126391,1,0,0:0:0:0:
329,192,126557,1,0,0:0:0:0:
182,192,126724,1,0,0:0:0:0:
36,192,126724,1,0,0:0:0:0:
256,192,126891,1,0,0:0:0:0:
329,192,127057,1,0,0:0:0:0:
182,192,127224,1,0,0:0:0:0:
36,192,127224,1,0,0:0:0:0:
329,192,127557,1,0,0:0:0:0:
402,192,127724,1,0,0:0:0:0:
475,192,127891,1,0,0:0:0:0:
182,192,128057,1,0,0:0:0:0:
109,192,128224,1,0,0:0:0:0:
36,192,128391,1,0,0:0:0:0:
329,192,128557,1,0,0:0:0:0:
402,192,128724,128,0,129057:0:0:0:0:
109,192,129391,1,0,0:0:0:0:
256,192,129391,1,0,0:0:0:0:
402,192,129391,1,0,0:0:0:0:
329,192,129724,1,0,0:0:0:0:
402,192,129891,1,0,0:0:0:0:
109,192,130057,1,0,0:0:0:0:
329,192,130391,1,0,0:0:0:0:
402,192,130558,1,0,0:0:0:0:
109,192,130724,1,0,0:0:0:0:
256,192,131057,1,0,0:0:0:0:
109,192,131224,1,0,0:0:0:0:
329,192,131391,1,0,0:0:0:0:
475,192,131391,1,0,0:0:0:0:
256,192,131557,1,0,0:0:0:0:
182,192,131724,1,0,0:0:0:0:
109,192,131891,1,0,0:0:0:0:
329,192,132057,128,0,132224:0:0:0:0:
402,192,132057,128,0,132224:0:0:0:0:
182,192,132391,128,0,132557:0:0:0:0:
109,192,132391,128,0,132557:0:0:0:0:
329,192,132724,1,0,0:0:0:0:
475,192,132891,1,0,0:0:0:0:
402,192,133057,1,0,0:0:0:0:
329,192,133224,1,0,0:0:0:0:
36,192,133391,1,0,0:0:0:0:
256,192,133391,1,0,0:0:0:0:
256,192,133724,1,0,0:0:0:0:
256,192,134057,1,0,0:0:0:0:
475,192,134057,1,0,0:0:0:0:
256,192,134391,1,0,0:0:0:0:
109,192,134724,1,0,0:0:0:0:
402,192,134724,1,0,0:0:0:0:
329,192,135057,1,0,0:0:0:0:
182,192,135224,1,0,0:0:0:0:
329,192,135391,1,0,0:0:0:0:
475,192,135391,1,0,0:0:0:0:
402,192,135724,1,0,0:0:0:0:
329,192,135891,1,0,0:0:0:0:
182,192,136057,1,0,0:0:0:0:
182,192,136391,1,0,0:0:0:0:
329,192,136557,1,0,0:0:0:0:
182,192,136724,1,0,0:0:0:0:
36,192,136724,1,0,0:0:0:0:
329,192,136891,1,0,0:0:0:0:
109,192,137057,1,0,0:0:0:0:
475,192,137224,1,0,0:0:0:0:
182,192,137391,1,0,0:0:0:0:
329,192,137391,1,0,0:0:0:0:
475,192,137724,1,0,0:0:0:0:
329,192,137891,1,0,0:0:0:0:
182,192,138057,1,0,0:0:0:0:
36,192,138057,1,0,0:0:0:0:
402,192,138391,1,0,0:0:0:0:
256,192,138557,1,0,0:0:0:0:
329,192,138724,1,0,0:0:0:0:
475,192,138724,1,0,0:0:0:0:
182,192,138891,128,0,139224:0:0:0:0:
329,192,139391,128,0,139724:0:0:0:0:
182,192,139391,1,0,0:0:0:0:
182,192,139724,128,0,140057:0:0:0:0:
329,192,140057,1,0,0:0:0:0:
329,192,140391,1,0,0:0:0:0:
402,192,140557,1,0,0:0:0:0:
329,192,140724,1,0,0:0:0:0:
109,192,140724,1,0,0:0:0:0:
109,192,141057,1,0,0:0:0:0:
329,192,141057,1,0,0:0:0:0:
36,192,141224,1,0,0:0:0:0:
182,192,141391,1,0,0:0:0:0:
182,192,141724,1,0,0:0:0:0:
329,192,141724,1,0,0:0:0:0:
402,192,141891,1,0,0:0:0:0:
256,192,142057,1,0,0:0:0:0:
109,192,142224,1,0,0:0:0:0:
256,192,142391,1,0,0:0:0:0:
402,192,142557,1,0,0:0:0:0:
182,192,142724,1,0,0:0:0:0:
329,192,142724,1,0,0:0:0:0:
182,192,143057,1,0,0:0:0:0:
329,192,143057,1,0,0:0:0:0:
402,192,143224,1,0,0:0:0:0:
475,192,143391,1,0,0:0:0:0:
329,192,143724,1,0,0:0:0:0:
182,192,143891,1,0,0:0:0:0:
402,192,144057,1,0,0:0:0:0:
109,192,144224,1,0,0:0:0:0:
475,192,144391,1,0,0:0:0:0:
36,192,144557,1,0,0:0:0:0:
256,192,144724,128,0,145057:0:0:0:0:
182,192,145057,1,0,0:0:0:0:
329,192,145057,1,0,0:0:0:0:
182,192,145391,128,0,145724:0:0:0:0:
329,192,145391,128,0,145724:0:0:0:0:
109,192,146057,128,0,146224:0:0:0:0:
402,192,146057,128,0,146224:0:0:0:0:
256,192,146391,128,0,146557:0:0:0:0:
182,192,146724,128,0,147057:0:0:0:0:
329,192,146724,128,0,147057:0:0:0:0:
256,192,147224,1,0,0:0:0:0:
256,192,147391,1,0,0:0:0:0:
256,192,147557,128,0,147724:0:0:0:0:
329,192,147891,1,0,0:0:0:0:
182,192,147891,1,0,0:0:0:0:
329,192,148057,128,0,148391:0:0:0:0:
182,192,148057,128,0,148391:0:0:0:0:
182,192,148724,128,0,149057:0:0:0:0:
329,192,148724,128,0,149057:0:0:0:0:
402,192,149057,128,0,149391:0:0:0:0:
109,192,149057,128,0,149391:0:0:0:0:
256,192,149391,1,0,0:0:0:0:
256,192,149557,1,0,0:0:0:0:
256,192,150057,128,0,150391:0:0:0:0:
329,192,150557,1,0,0:0:0:0:
402,192,150724,1,0,0:0:0:0:
402,192,150891,128,0,151057:0:0:0:0:
36,192,151391,128,0,151724:0:0:0:0:
475,192,151724,128,0,152057:0:0:0:0:
256,192,152057,1,0,0:0:0:0:
256,192,152224,1,0,0:0:0:0:
182,192,152391,1,0,0:0:0:0:
329,192,152391,1,0,0:0:0:0:
256,192,152724,1,0,0:0:0:0:
256,192,152891,1,0,0:0:0:0:
182,192,153057,1,0,0:0:0:0:
329,192,153057,1,0,0:0:0:0:
256,192,153391,1,0,0:0:0:0:
256,192,153557,1,0,0:0:0:0:
182,192,153724,128,0,154057:0:0:0:0:
329,192,153724,128,0,154057:0:0:0:0:
256,192,154057,128,0,154391:0:0:0:0:
182,192,154391,128,0,154724:0:0:0:0:
329,192,154391,128,0,154724:0:0:0:0:
256,192,154724,1,0,0:0:0:0:
329,192,154891,1,0,0:0:0:0:
182,192,155057,1,0,0:0:0:0:
329,192,155224,1,0,0:0:0:0:
182,192,155391,128,0,155557:0:0:0:0:
329,192,155391,128,0,155557:0:0:0:0:
182,192,155724,128,0,156057:0:0:0:0:
329,192,155724,128,0,156057:0:0:0:0:
256,192,156224,128,0,156724:0:0:0:0:
329,192,156891,1,0,0:0:0:0:
182,192,157057,1,0,0:0:0:0:
402,192,157224,1,0,0:0:0:0:
109,192,157391,1,0,0:0:0:0:
475,192,157557,1,0,0:0:0:0:
182,192,157724,1,0,0:0:0:0:
402,192,157891,1,0,0:0:0:0:
329,192,158057,128,0,158224:0:0:0:0:
182,192,158391,1,0,0:0:0:0:
402,192,158724,1,0,0:0:0:0:
182,192,158724,1,0,0:0:0:0:
109,192,159057,1,0,0:0:0:0:
256,192,159391,1,0,0:0:0:0:
402,192,159557,1,0,0:0:0:0:
182,192,159724,1,0,0:0:0:0:
329,192,159724,1,0,0:0:0:0:
256,192,160057,1,0,0:0:0:0:
182,192,160224,1,0,0:0:0:0:
402,192,160391,1,0,0:0:0:0:
182,192,160557,1,0,0:0:0:0:
402,192,160724,1,0,0:0:0:0:
182,192,160891,1,0,0:0:0:0:
402,192,161057,128,0,161391:0:0:0:0:
329,192,161557,1,0,0:0:0:0:
182,192,161724,1,0,0:0:0:0:
36,192,161891,1,0,0:0:0:0:
256,192,162057,1,0,0:0:0:0:
256,192,162391,1,0,0:0:0:0:
329,192,162557,1,0,0:0:0:0:
402,192,162724,1,0,0:0:0:0:
182,192,162891,1,0,0:0:0:0:
109,192,163057,1,0,0:0:0:0:
475,192,163224,128,0,163557:0:0:0:0:
36,192,163724,128,0,164057:0:0:0:0:
256,192,164224,1,0,0:0:0:0:
475,192,164391,128,0,164724:0:0:0:0:
182,192,164724,1,0,0:0:0:0:
109,192,164891,1,0,0:0:0:0:
36,192,165057,128,0,165391:0:0:0:0:
182,192,165391,1,0,0:0:0:0:
475,192,165724,1,0,0:0:0:0:
329,192,165724,1,0,0:0:0:0:
36,192,166057,1,0,0:0:0:0:
182,192,166057,1,0,0:0:0:0:
182,192,166391,1,0,0:0:0:0:
329,192,166391,1,0,0:0:0:0:
256,192,166724,1,0,0:0:0:0:
182,192,167057,1,0,0:0:0:0:
109,192,167391,1,0,0:0:0:0:
36,192,167724,128,0,168557:0:0:0:0:
182,192,168224,1,0,0:0:0:0:
182,192,168391,1,0,0:0:0:0:
182,192,168557,1,0,0:0:0:0:
256,192,168724,1,0,0:0:0:0:
256,192,168891,1,0,0:0:0:0:
256,192,169057,1,0,0:0:0:0:
256,192,169224,1,0,0:0:0:0:
256,192,169391,128,0,169724:0:0:0:0:
475,192,169724,1,0,0:0:0:0:
329,192,169891,1,0,0:0:0:0:
182,192,170057,1,0,0:0:0:0:
36,192,170057,1,0,0:0:0:0:
329,192,170391,1,0,0:0:0:0:
182,192,170557,1,0,0:0:0:0:
329,192,170724,1,0,0:0:0:0:
475,192,170724,1,0,0:0:0:0:
256,192,171057,1,0,0:0:0:0:
182,192,171224,1,0,0:0:0:0:
109,192,171391,1,0,0:0:0:0:
329,192,171557,1,0,0:0:0:0:
402,192,171724,1,0,0:0:0:0:
475,192,171891,1,0,0:0:0:0:
182,192,172057,1,0,0:0:0:0:
329,192,172057,1,0,0:0:0:0:
109,192,172224,1,0,0:0:0:0:
36,192,172391,1,0,0:0:0:0:
329,192,172557,1,0,0:0:0:0:
109,192,172724,1,0,0:0:0:0:
329,192,172891,1,0,0:0:0:0:
182,192,173057,1,0,0:0:0:0:
256,192,173224,1,0,0:0:0:0:
256,192,173557,1,0,0:0:0:0:
36,192,173724,1,0,0:0:0:0:
182,192,173724,1,0,0:0:0:0:
256,192,173891,1,0,0:0:0:0:
329,192,174057,1,0,0:0:0:0:
182,192,174224,1,0,0:0:0:0:
109,192,174391,1,0,0:0:0:0:
36,192,174557,1,0,0:0:0:0:
329,192,174724,128,0,174891:0:0:0:0:
402,192,174724,128,0,174891:0:0:0:0:
182,192,175057,128,0,175224:0:0:0:0:
109,192,175057,128,0,175224:0:0:0:0:
402,192,175391,128,0,175557:0:0:0:0:
475,192,175391,128,0,175557:0:0:0:0:
109,192,175724,128,0,175891:0:0:0:0:
36,192,175724,128,0,175891:0:0:0:0:
256,192,176057,1,0,0:0:0:0:
329,192,176224,1,0,0:0:0:0:
329,192,176557,1,0,0:0:0:0:
182,192,176724,1,0,0:0:0:0:
329,192,176891,1,0,0:0:0:0:
402,192,177057,1,0,0:0:0:0:
182,192,177224,1,0,0:0:0:0:
109,192,177391,1,0,0:0:0:0:
36,192,177557,1,0,0:0:0:0:
109,192,177724,1,0,0:0:0:0:
402,192,177891,1,0,0:0:0:0:
475,192,178057,1,0,0:0:0:0:
402,192,178224,1,0,0:0:0:0:
182,192,178391,1,0,0:0:0:0:
109,192,178557,1,0,0:0:0:0:
182,192,178724,1,0,0:0:0:0:
329,192,178724,1,0,0:0:0:0:
182,192,179057,1,0,0:0:0:0:
402,192,179057,1,0,0:0:0:0:
329,192,179391,1,0,0:0:0:0:
182,192,179391,1,0,0:0:0:0:
109,192,179724,1,0,0:0:0:0:
329,192,179724,1,0,0:0:0:0:
256,192,180057,1,0,0:0:0:0:
109,192,180057,1,0,0:0:0:0:
402,192,180057,1,0,0:0:0:0:
182,192,180391,1,0,0:0:0:0:
329,192,180391,1,0,0:0:0:0:
256,192,180557,128,0,180891:0:0:0:0:
329,192,181057,1,0,0:0:0:0:
402,192,181224,1,0,0:0:0:0:
256,192,181391,1,0,0:0:0:0:
36,192,181391,1,0,0:0:0:0:
109,192,181724,1,0,0:0:0:0:
182,192,181724,1,0,0:0:0:0:
256,192,181891,128,0,182224:0:0:0:0:
329,192,182391,1,0,0:0:0:0:
475,192,182557,1,0,0:0:0:0:
402,192,182724,128,0,183057:0:0:0:0:
329,192,183057,1,0,0:0:0:0:
109,192,183057,128,0,183391:0:0:0:0:
182,192,183391,1,0,0:0:0:0:
329,192,183557,1,0,0:0:0:0:
36,192,183724,1,0,0:0:0:0:
475,192,183891,1,0,0:0:0:0:
256,192,184057,1,0,0:0:0:0:
182,192,184224,1,0,0:0:0:0:
109,192,184391,1,0,0:0:0:0:
329,192,184557,1,0,0:0:0:0:
402,192,184724,1,0,0:0:0:0:
182,192,185057,1,0,0:0:0:0:
329,192,185057,1,0,0:0:0:0:
256,192,185391,1,0,0:0:0:0:
402,192,185391,1,0,0:0:0:0:
109,192,185391,1,0,0:0:0:0:
329,192,185724,1,0,0:0:0:0:
36,192,185891,1,0,0:0:0:0:
475,192,186057,1,0,0:0:0:0:
182,192,186391,1,0,0:0:0:0:
475,192,186557,1,0,0:0:0:0:
36,192,186724,1,0,0:0:0:0:
329,192,187057,1,0,0:0:0:0:
109,192,187224,1,0,0:0:0:0:
402,192,187391,1,0,0:0:0:0:
36,192,187557,1,0,0:0:0:0:
475,192,187724,1,0,0:0:0:0:
109,192,187891,1,0,0:0:0:0:
329,192,188057,128,0,188224:0:0:0:0:
402,192,188057,128,0,188224:0:0:0:0:
109,192,188391,128,0,188557:0:0:0:0:
182,192,188391,128,0,188557:0:0:0:0:
256,192,188724,1,0,0:0:0:0:
402,192,188891,1,0,0:0:0:0:
109,192,189057,1,0,0:0:0:0:
256,192,189224,1,0,0:0:0:0:
182,192,189391,1,0,0:0:0:0:
329,192,189391,1,0,0:0:0:0:
402,192,189724,1,0,0:0:0:0:
109,192,189724,1,0,0:0:0:0:
109,192,190057,1,0,0:0:0:0:
402,192,190057,1,0,0:0:0:0:
182,192,190391,1,0,0:0:0:0:
329,192,190391,1,0,0:0:0:0:
36,192,190724,1,0,0:0:0:0:
475,192,190724,1,0,0:0:0:0:
329,192,191057,1,0,0:0:0:0:
182,192,191391,1,0,0:0:0:0:
329,192,191557,1,0,0:0:0:0:
256,192,191724,128,0,192057:0:0:0:0:
182,192,192057,128,0,192391:0:0:0:0:
329,192,192391,1,0,0:0:0:0:
402,192,192557,1,0,0:0:0:0:
475,192,192724,1,0,0:0:0:0:
256,192,192891,1,0,0:0:0:0:
256,192,193057,1,0,0:0:0:0:
256,192,193224,1,0,0:0:0:0:
256,192,193391,1,0,0:0:0:0:
329,192,193724,1,0,0:0:0:0:
182,192,193891,1,0,0:0:0:0:
329,192,194057,1,0,0:0:0:0:
402,192,194224,1,0,0:0:0:0:
475,192,194391,1,0,0:0:0:0:
256,192,194557,1,0,0:0:0:0:
182,192,194724,1,0,0:0:0:0:
329,192,194724,1,0,0:0:0:0:
402,192,194891,1,0,0:0:0:0:
329,192,195057,1,0,0:0:0:0:
256,192,195224,1,0,0:0:0:0:
182,192,195391,1,0,0:0:0:0:
329,192,195557,1,0,0:0:0:0:
109,192,195724,1,0,0:0:0:0:
402,192,195891,1,0,0:0:0:0:
182,192,196057,1,0,0:0:0:0:
329,192,196057,1,0,0:0:0:0:
402,192,196391,1,0,0:0:0:0:
109,192,196391,1,0,0:0:0:0:
329,192,196557,1,0,0:0:0:0:
182,192,196724,1,0,0:0:0:0:
36,192,196891,1,0,0:0:0:0:
182,192,197057,1,0,0:0:0:0:
329,192,197224,1,0,0:0:0:0:
402,192,197391,1,0,0:0:0:0:
475,192,197557,1,0,0:0:0:0:
182,192,197557,1,0,0:0:0:0:
109,192,197724,1,0,0:0:0:0:
182,192,197891,1,0,0:0:0:0:
256,192,198057,128,0,198391:0:0:0:0:
36,192,198557,1,0,0:0:0:0:
182,192,198641,1,0,0:0:0:0:
329,192,198724,1,0,0:0:0:0:
475,192,198724,1,0,0:0:0:0:
109,192,199057,1,0,0:0:0:0:
402,192,199391,1,0,0:0:0:0:
329,192,199557,1,0,0:0:0:0:
109,192,199724,1,0,0:0:0:0:
182,192,199891,1,0,0:0:0:0:
329,192,200057,1,0,0:0:0:0:
402,192,200224,1,0,0:0:0:0:
329,192,200391,1,0,0:0:0:0:
182,192,200557,1,0,0:0:0:0:
109,192,200724,1,0,0:0:0:0:
36,192,200891,1,0,0:0:0:0:
329,192,201057,1,0,0:0:0:0:
402,192,201224,1,0,0:0:0:0:
475,192,201391,1,0,0:0:0:0:
329,192,201391,1,0,0:0:0:0:
182,192,201724,1,0,0:0:0:0:
256,192,201891,1,0,0:0:0:0:
329,192,201974,1,0,0:0:0:0:
402,192,202057,1,0,0:0:0:0:
182,192,202224,1,0,0:0:0:0:
329,192,202391,1,0,0:0:0:0:
109,192,202557,1,0,0:0:0:0:
402,192,202724,128,0,203057:0:0:0:0:
329,192,202724,128,0,203057:0:0:0:0:
109,192,203057,128,0,203391:0:0:0:0:
182,192,203057,128,0,203391:0:0:0:0:
329,192,203391,128,0,203724:0:0:0:0:
402,192,203391,128,0,203724:0:0:0:0:
182,192,203724,128,0,204057:0:0:0:0:
109,192,203724,128,0,204057:0:0:0:0:
256,192,204057,1,0,0:0:0:0:
329,192,204391,1,0,0:0:0:0:
182,192,204391,1,0,0:0:0:0:
402,192,204557,1,0,0:0:0:0:
475,192,204724,1,0,0:0:0:0:
36,192,204891,1,0,0:0:0:0:
402,192,205224,1,0,0:0:0:0:
329,192,205391,1,0,0:0:0:0:
109,192,205557,1,0,0:0:0:0:
182,192,205724,1,0,0:0:0:0:
329,192,205891,1,0,0:0:0:0:
402,192,206057,1,0,0:0:0:0:
109,192,206224,1,0,0:0:0:0:
36,192,206391,1,0,0:0:0:0:
329,192,206557,1,0,0:0:0:0:
402,192,206724,1,0,0:0:0:0:
182,192,206724,1,0,0:0:0:0:
329,192,207057,128,0,207391:0:0:0:0:
109,192,207557,1,0,0:0:0:0:
329,192,207724,1,0,0:0:0:0:
182,192,207891,1,0,0:0:0:0:
109,192,208057,1,0,0:0:0:0:
36,192,208224,1,0,0:0:0:0:
329,192,208391,1,0,0:0:0:0:
182,192,208557,1,0,0:0:0:0:
256,192,208724,128,0,209057:0:0:0:0:
475,192,209224,1,0,0:0:0:0:
329,192,209307,1,0,0:0:0:0:
182,192,209391,1,0,0:0:0:0:
36,192,209391,1,0,0:0:0:0:
109,192,209724,1,0,0:0:0:0:
402,192,209724,1,0,0:0:0:0:
329,192,209891,1,0,0:0:0:0:
182,192,210057,1,0,0:0:0:0:
36,192,210224,1,0,0:0:0:0:
329,192,210557,1,0,0:0:0:0:
402,192,210724,1,0,0:0:0:0:
182,192,210891,1,0,0:0:0:0:
109,192,211057,1,0,0:0:0:0:
329,192,211224,1,0,0:0:0:0:
402,192,211391,1,0,0:0:0:0:
182,192,211557,1,0,0:0:0:0:
256,192,211724,1,0,0:0:0:0:
36,192,211891,1,0,0:0:0:0:
109,192,212057,1,0,0:0:0:0:
402,192,212057,1,0,0:0:0:0:
256,192,212057,128,0,212724:0:0:0:0:
182,192,212724,128,0,213057:0:0:0:0:
329,192,212724,128,0,213057:0:0:0:0:
182,192,213391,1,0,0:0:0:0:
329,192,213391,1,0,0:0:0:0:
256,192,213557,1,0,0:0:0:0:
182,192,213724,1,0,0:0:0:0:
402,192,213891,1,0,0:0:0:0:
109,192,214057,128,0,214391:0:0:0:0:
182,192,214391,1,0,0:0:0:0:
