osu file format v13

[General]
AudioFilename: Reol.mp3
AudioLeadIn: 0
PreviewTime: 56000
Countdown: 0
SampleSet: None
StackLeniency: 0.7
Mode: 0
LetterboxInBreaks: 0
WidescreenStoryboard: 1

[Editor]
Bookmarks: 186057
DistanceSpacing: 1
BeatDivisor: 4
GridSize: 4
TimelineZoom: 1.2

[Metadata]
Title:+Danshi
TitleUnicode:+Danshi
Artist:Reol
ArtistUnicode:れをる
Creator:lZenxl
Version:neonat's Normal
Source:
Tags:GigaP neonat Tagre Plus Boy Hinsvar Fort Papcio [I]MMoRTal[S] mike91lau Player_X Soldsaga_KunG Okoratu
BeatmapID:445237
BeatmapSetID:165991

[Difficulty]
HPDrainRate:3
CircleSize:3
OverallDifficulty:3
ApproachRate:6
SliderMultiplier:1.3
SliderTickRate:1

[Events]
//Background and Video events
0,0,"BG.png",0,0
Video,0,"new.avi"
//Break Periods
2,46924,53674
//Storyboard Layer 0 (Background)
//Storyboard Layer 1 (Fail)
//Storyboard Layer 2 (Pass)
//Storyboard Layer 3 (Foreground)
//Storyboard Sound Samples
//Background Colour Transformations
3,100,163,162,255

[TimingPoints]
12058,333.333333333333,4,1,1,50,1,0
57391,-90.9090909090909,4,1,1,80,0,1
67391,-100,4,1,1,80,0,0
68057,-90.9090909090909,4,1,1,80,0,1
78724,-100,4,2,1,80,0,0
102724,-133.333333333333,4,2,1,80,0,0
113391,-90.9090909090909,4,1,1,80,0,1
123391,-100,4,1,1,80,0,0
124057,-90.9090909090909,4,1,1,80,0,1
134724,-133.333333333333,4,2,1,80,0,0
145391,-90.9090909090909,4,2,1,80,0,1
145412,-100,4,1,1,80,0,0
166724,-100,4,2,1,30,0,0
168557,-100,4,2,1,40,0,0
168724,-100,4,2,1,50,0,0
168891,-100,4,2,1,60,0,0
169057,-100,4,2,1,70,0,0
169224,-100,4,2,1,80,0,0
169391,-90.9090909090909,4,1,1,80,0,1
179391,-100,4,1,1,80,0,0
180057,-90.9090909090909,4,1,1,80,0,1
190724,-100,4,1,1,80,0,0

[Colours]
Combo1 : 245,167,230
Combo2 : 253,232,113
Combo3 : 245,184,150
Combo4 : 135,186,243

[HitObjects]
288,148,13391,6,0,B|336:124|376:168|444:136,2,130,0|0|0,0:0|0:0|0:0,0:0:0:0:
192,212,14391,2,0,P|176:140|196:80,1,130,4|0,0:0|0:0,0:0:0:0:
300,44,15058,1,8,0:0:0:0:
408,88,15391,2,0,P|423:150|407:212,1,130,0|8,0:0|0:0,0:0:0:0:
336,304,16058,6,0,L|196:304,1,130,0|8,0:0|0:0,0:0:0:0:
100,256,16724,2,0,L|20:140,2,130,0|8|0,0:0|0:0|0:0,0:0:0:0:
212,216,17724,2,0,B|244:156|244:156|200:84,1,130,8|0,0:0|0:0,0:0:0:0:
96,80,18391,1,8,0:0:0:0:
200,24,18724,6,0,P|252:8|344:32,1,130,0|8,0:0|0:0,0:0:0:0:
372,128,19391,2,0,P|364:180|428:248,2,130,0|8|0,0:0|0:0|0:0,0:0:0:0:
444,36,20391,1,8,0:0:0:0:
496,140,20724,2,0,P|512:204|488:280,1,130,0|8,0:0|0:0,0:0:0:0:
392,316,21391,2,0,L|316:312,1,65
276,340,21724,2,0,B|216:328|200:368|132:336,2,130,8|0|8,0:0|0:0|0:0,0:0:0:0:
256,192,22724,12,4,24057,3:3:0:0:
344,116,25391,6,0,P|368:152|344:236,1,130,4|0,0:3|0:0,0:0:0:0:
232,232,26057,2,0,P|208:196|232:112,1,130
344,116,26724,2,0,B|408:104|444:124|444:124|476:92,2,130,0|0|0,0:0|0:0|0:0,0:0:0:0:
244,176,27724,1,0,0:0:0:0:
136,132,28057,6,0,P|104:96|120:8,2,130,0|0|0,0:0|0:0|0:0,0:0:0:0:
164,248,29057,2,0,L|232:376,1,130
332,312,29724,2,0,P|388:296|468:320,2,130,0|0|0,0:0|0:0|0:0,0:0:0:0:
244,236,30724,5,4,0:3:0:0:
224,120,31057,1,0,0:0:0:0:
292,24,31391,2,0,P|352:16|372:20,1,65
412,32,31724,2,0,B|408:68|436:96|436:96|424:168,1,130
364,252,32391,1,0,0:0:0:0:
260,200,32724,2,0,L|192:232,2,65,0|0|0,0:0|0:0|0:0,0:0:0:0:
304,164,33224,6,0,L|268:88,1,65
216,100,33557,2,0,L|176:24,1,65
128,24,33891,1,0,0:0:0:0:
72,44,34057,2,0,P|30:102|32:184,2,130,0|0|0,0:0|0:0|0:0,0:0:0:0:
140,140,35057,2,0,B|156:180|148:216|148:216|208:240,1,130
312,264,35724,1,0,0:0:0:0:
304,148,36057,6,0,P|344:144|456:152,2,130,4|0|0,0:3|0:0|0:0,0:0:0:0:
312,264,37057,1,0,0:0:0:0:
312,264,37224,1,0,0:0:0:0:
312,264,37391,2,0,B|360:300|408:280|408:280|424:324,2,130,0|0|0,0:0|0:0|0:0,0:0:0:0:
276,220,38224,2,0,L|240:144,1,65
140,120,38724,6,0,P|108:140|80:232,1,130
128,328,39391,2,0,P|176:286|189:224,1,130
224,112,40057,2,0,L|280:48,1,65
320,40,40391,2,0,B|364:32|412:48|412:48|460:28,2,130,0|0|0,0:0|0:0|0:0,0:0:0:0:
204,24,41391,6,0,B|148:36|148:36|104:20|56:32,1,130,4|0,0:3|0:0,0:0:0:0:
20,132,42057,2,0,L|56:208,1,65
108,192,42391,2,0,L|135:133,1,65
192,112,42724,2,0,B|240:96|296:128|336:104,2,130,0|0|0,0:0|0:0|0:0,0:0:0:0:
108,192,43724,1,0,0:0:0:0:
176,288,44057,6,0,P|212:316|304:312,1,130
384,240,44724,2,0,L|456:236,2,65,0|0|0,0:0|0:0|0:0,0:0:0:0:
292,168,45391,1,0,0:0:0:0:
308,52,45724,1,0,0:0:0:0:
420,20,46057,2,0,L|492:8,2,65,0|0|0,0:0|0:0|0:0,0:0:0:0:
484,116,46724,1,4,0:0:0:0:
256,192,54724,12,4,56057,0:3:0:0:
312,232,57391,6,0,P|336:192|292:88,1,143.000004364014,4|8,0:2|0:0,0:0:0:0:
198,102,58057,2,0,P|174:142|218:246,1,143.000004364014,0|8,0:0|0:0,0:0:0:0:
276,316,58724,2,0,P|348:316|400:252,1,143.000004364014,0|8,0:0|0:0,0:0:0:0:
432,160,59391,2,0,L|428:8,2,143.000004364014,0|8|0,0:0|0:0|0:0,0:0:0:0:
492,256,60391,5,8,0:0:0:0:
380,232,60724,2,0,B|332:212|284:256|224:228,1,143.000004364014,0|8,0:0|0:0,0:0:0:0:
132,196,61391,1,0,0:0:0:0:
220,124,61724,1,8,0:0:0:0:
156,28,62057,2,0,L|76:36,1,71.5000021820069
32,60,62391,1,8,0:0:0:0:
32,176,62724,6,0,B|52:228|36:268|36:268|96:284,1,143.000004364014,0|8,0:0|0:0,0:0:0:0:
196,280,63391,2,0,B|243:267|243:267|227:227|247:175,1,143.000004364014,0|8,0:0|0:0,0:0:0:0:
308,80,64057,2,0,B|372:116|444:76|444:76|480:96|480:144,2,214.500006546021,0|0|8,0:0|0:0|0:0,0:0:0:0:
204,36,65391,6,0,L|120:20,2,71.5000021820069,0|0|8,0:0|0:0|0:0,0:0:0:0:
208,152,66057,2,0,L|124:168,2,71.5000021820069,0|0|8,0:0|0:0|0:0,0:0:0:0:
324,152,66724,2,0,L|408:168,2,71.5000021820069,0|0|8,0:0|0:0|0:0,0:0:0:0:
320,36,67391,2,0,P|372:28|468:40,1,130,4|4,0:3|0:3,0:0:0:0:
496,140,68057,6,0,P|516:188|492:348,2,214.500006546021,4|0|8,0:2|0:0|0:0,0:0:0:0:
392,188,69391,2,0,P|348:216|192:188,2,214.500006546021,0|0|8,0:0|0:0|0:0,0:0:0:0:
388,72,70724,2,0,B|308:20|232:64|232:64|184:36,2,214.500006546021,0|0|8,0:0|0:0|0:0,0:0:0:0:
476,148,72057,5,0,0:0:0:0:
496,260,72391,1,8,0:0:0:0:
408,332,72724,2,0,P|364:352|312:352,1,71.5000021820069
284,348,73057,1,8,0:0:0:0:
188,288,73391,6,0,P|136:244|124:164,1,143.000004364014,4|8,0:2|0:0,0:0:0:0:
220,112,74057,2,0,P|172:68|84:64,1,143.000004364014,0|8,0:0|0:0,0:0:0:0:
24,148,74724,2,0,P|20:208|52:304,1,143.000004364014,0|8,0:0|0:0,0:0:0:0:
140,348,75391,2,0,L|232:336,1,71.5000021820069
252,296,75724,1,8,0:0:0:0:
348,232,76057,6,0,L|348:148,1,71.5000021820069
400,132,76391,2,0,L|400:36,1,71.5000021820069,8|0,0:0|0:0,0:0:0:0:
448,28,76724,2,0,P|484:48|508:164,2,143.000004364014,0|8|4,0:0|0:0|0:3,0:0:0:0:
332,16,77724,1,4,0:3:0:0:
232,72,78057,1,8,0:3:0:0:
132,16,78391,1,8,0:3:0:0:
40,60,78724,1,4,0:3:0:0:
180,236,81391,6,0,P|216:260|316:248,1,130,4|0,0:0|0:0,0:0:0:0:
384,176,82057,2,0,P|392:128|344:60,1,130
240,108,82724,2,0,P|196:120|104:100,1,130
8,56,83391,2,0,P|4:112|12:144,1,65
48,160,83724,2,0,P|64:216|52:296,1,130,0|4,0:0|0:3,0:0:0:0:
160,344,84391,5,0,0:0:0:0:
268,300,84724,2,0,P|316:284|408:320,1,130
508,300,85391,2,0,L|520:236,2,65,0|0|0,0:0|0:0|0:0,0:0:0:0:
424,220,86057,2,0,L|404:144,1,65
392,100,86391,1,0,0:0:0:0:
288,48,86724,6,0,P|228:32|156:48,1,130,4|0,0:3|0:0,0:0:0:0:
88,132,87391,2,0,L|12:104,2,65,0|0|0,0:0|0:0|0:0,0:0:0:0:
192,188,88057,2,0,B|240:196|292:180|292:180|340:196,1,130
396,280,88724,1,0,0:0:0:0:
452,264,88891,1,0,0:0:0:0:
484,216,89057,1,0,0:0:0:0:
472,100,89391,6,0,P|424:60|344:56,1,130,4|0,0:3|0:0,0:0:0:0:
292,148,90057,2,0,L|228:148,1,65
168,148,90391,1,0,0:0:0:0:
64,92,90724,2,0,P|52:140|52:172,1,65,0|0,0:0|0:0,0:0:0:0:
68,212,91057,2,0,P|72:248|64:292,1,65
44,332,91391,2,0,P|96:348|184:336,1,130
280,296,92057,6,0,L|356:288,1,65,4|0,0:3|0:0,0:0:0:0:
400,312,92391,2,0,P|436:288|456:192,1,130
392,112,93057,2,0,L|372:188,1,65
320,196,93391,2,0,P|264:200|168:196,1,130,4|0,0:3|0:0,0:0:0:0:
108,116,94057,2,0,P|100:72|112:40,1,65
152,16,94391,1,0,0:0:0:0:
268,28,94724,6,0,P|316:44|400:24,1,130,4|0,0:3|0:0,0:0:0:0:
508,52,95391,2,0,L|504:136,1,65
464,156,95724,2,0,L|456:248,1,65
428,272,96057,6,0,P|368:284|280:268,1,130,4|0,0:3|0:0,0:0:0:0:
264,164,96724,2,0,P|199:155|136:167,1,130,4|0,0:3|0:0,0:0:0:0:
40,232,97391,5,4,0:3:0:0:
104,332,97724,1,0,0:0:0:0:
196,260,98057,1,0,0:0:0:0:
300,316,98391,2,0,L|376:324,1,65
424,316,98724,6,0,P|456:272|448:188,1,130,4|0,0:3|0:0,0:0:0:0:
392,100,99391,1,0,0:0:0:0:
284,144,99724,1,0,0:0:0:0:
192,76,100057,6,0,P|124:64|72:96,1,130,4|0,0:3|0:0,0:0:0:0:
40,204,100724,2,0,L|92:268,1,65
136,268,101057,1,0,0:0:0:0:
248,228,101391,5,4,0:3:0:0:
360,264,101724,1,4,0:3:0:0:
464,212,102057,1,4,0:3:0:0:
388,124,102391,2,0,L|244:136,1,130,0|6,0:0|0:0,0:0:0:0:
148,172,103057,5,2,0:0:0:0:
36,132,103391,2,0,P|16:84|36:28,1,97.50000371933,2|0,0:0|0:0,0:0:0:0:
144,32,104057,2,0,P|200:40|244:28,2,97.50000371933,2|0|2,0:0|0:0|0:0,0:0:0:0:
26,41,105057,1,0,0:0:0:0:
60,152,105391,6,0,P|80:204|76:256,1,97.50000371933,2|2,0:3|0:0,0:0:0:0:
48,356,106057,2,0,P|96:360|152:336,1,97.50000371933,2|0,0:0|0:0,0:0:0:0:
220,256,106724,2,0,P|288:248|328:256,1,97.50000371933,2|4,0:0|0:3,0:0:0:0:
396,284,107307,1,0,0:0:0:0:
396,284,107391,2,0,P|432:244|444:192,1,97.50000371933,2|0,0:0|0:0,0:0:0:0:
424,88,108057,6,0,P|368:72|320:92,1,97.50000371933,2|2,0:3|0:0,0:0:0:0:
248,168,108724,2,0,P|208:160|160:112,1,97.50000371933,2|0,0:0|0:0,0:0:0:0:
72,52,109391,2,0,L|48:140,1,73.1250027894975,2|0,0:0|0:0,0:0:0:0:
36,148,109724,2,0,L|40:256,1,97.50000371933,4|2,0:3|0:0,0:0:0:0:
120,332,110391,1,0,0:0:0:0:
232,296,110724,6,0,P|296:288|332:300,1,97.50000371933,2|2,0:3|0:0,0:0:0:0:
440,324,111391,2,0,P|488:284|504:236,1,97.50000371933,2|0,0:0|0:0,0:0:0:0:
468,140,112057,2,0,B|420:120|412:64|412:64|368:96|304:72,1,195.00000743866,4|4,0:3|0:3,0:0:0:0:
24,248,113391,6,0,P|52:292|168:304,1,143.000004364014,4|8,0:0|0:0,0:0:0:0:
212,232,114057,2,0,P|280:244|323:299,1,143.000004364014,0|8,0:0|0:0,0:0:0:0:
424,356,114724,1,0,0:0:0:0:
500,272,115057,1,8,0:0:0:0:
436,176,115391,2,0,P|416:132|452:24,2,143.000004364014,0|8|0,0:0|0:0|0:0,0:0:0:0:
500,272,116391,5,8,0:0:0:0:
384,268,116724,2,0,L|296:280,1,71.5000021820069,0|0,0:0|0:0,0:0:0:0:
256,276,117057,2,0,P|188:244|152:184,1,143.000004364014,8|0,0:0|0:0,0:0:0:0:
264,160,117724,1,8,0:0:0:0:
328,68,118057,2,0,L|408:56,1,71.5000021820069
456,72,118391,1,8,0:0:0:0:
388,164,118724,6,0,L|404:244,2,71.5000021820069,0|0|8,0:0|0:0|0:0,0:0:0:0:
328,68,119391,2,0,L|248:48,2,71.5000021820069,0|0|8,0:0|0:0|0:0,0:0:0:0:
276,168,120057,2,0,P|264:216|348:352,2,214.500006546021,0|0|8,0:0|0:0|0:0,0:0:0:0:
360,88,121391,6,0,P|416:72|488:128,1,143.000004364014,0|8,0:0|0:0,0:0:0:0:
468,172,121891,2,0,P|448:224|488:312,1,143.000004364014
440,348,122391,2,0,B|392:328|392:328|340:356|288:316,1,143.000004364014,8|0,0:0|0:0,0:0:0:0:
256,296,122891,2,0,P|184:264|108:296,1,143.000004364014
80,308,123391,2,0,L|-28:216,1,130
56,136,124057,6,0,B|96:120|96:120|160:136|208:88,1,143.000004364014,4|8,0:0|0:0,0:0:0:0:
244,84,124557,2,0,P|288:72|472:88,1,214.500006546021,0|8,0:0|0:0,0:0:0:0:
468,196,125391,2,0,B|428:212|428:212|364:196|316:244,1,143.000004364014,0|8,0:0|0:0,0:0:0:0:
280,248,125891,2,0,P|236:260|52:244,1,214.500006546021,0|8,0:0|0:0,0:0:0:0:
12,152,126724,2,0,P|12:68|80:16,1,143.000004364014,0|8,0:0|0:0,0:0:0:0:
108,20,127224,2,0,B|148:76|148:76|224:104|304:56,1,214.500006546021,0|8,0:0|0:0,0:0:0:0:
400,84,128057,6,0,P|456:104|492:192,1,143.000004364014,0|8,0:0|0:0,0:0:0:0:
428,268,128724,2,0,L|448:348,2,71.5000021820069,0|0|8,0:0|0:0|0:0,0:0:0:0:
324,224,129391,6,0,P|280:208|180:272,1,143.000004364014,4|8,0:0|0:0,0:0:0:0:
96,300,130057,2,0,P|44:272|44:168,1,143.000004364014,0|8,0:0|0:0,0:0:0:0:
108,112,130724,2,0,L|232:28,2,143.000004364014,0|8|0,0:0|0:0|0:0,0:0:0:0:
108,112,131724,1,8,0:0:0:0:
188,192,132057,6,0,L|272:184,1,71.5000021820069
316,180,132391,1,8,0:0:0:0:
416,232,132724,2,0,L|456:304,2,71.5000021820069,0|0|8,0:0|0:0|0:0,0:0:0:0:
420,116,133391,5,4,0:3:0:0:
340,32,133724,1,4,0:3:0:0:
420,116,134057,1,8,0:3:0:0:
308,140,134391,1,8,0:3:0:0:
220,200,134724,6,0,P|140:208|112:192,1,97.50000371933,4|0,0:0|0:0,0:0:0:0:
40,136,135391,1,8,0:3:0:0:
44,28,135724,1,0,0:0:0:0:
140,76,136057,2,0,P|184:88|240:72,1,97.50000371933,8|8,0:3|0:3,0:0:0:0:
328,24,136724,2,0,L|416:80,1,97.50000371933,8|0,0:3|0:0,0:0:0:0:
472,164,137391,6,0,P|480:216|464:272,1,97.50000371933,8|0,0:3|0:0,0:0:0:0:
372,300,138057,1,8,0:3:0:0:
268,268,138391,1,0,0:0:0:0:
168,308,138724,2,0,L|72:348,2,97.50000371933,8|8|8,0:3|0:3|0:3,0:0:0:0:
168,308,139724,1,8,0:3:0:0:
184,200,140057,6,0,L|184:92,1,97.50000371933,4|0,0:0|0:0,0:0:0:0:
248,16,140724,1,8,0:3:0:0:
348,56,141057,1,0,0:0:0:0:
456,48,141391,2,0,P|480:80|488:152,1,97.50000371933,8|8,0:3|0:3,0:0:0:0:
388,172,142057,2,0,P|360:216|300:240,1,97.50000371933,8|0,0:3|0:0,0:0:0:0:
216,216,142724,6,0,L|100:216,1,97.50000371933,8|0,0:3|0:0,0:0:0:0:
24,164,143391,1,8,0:3:0:0:
108,100,143724,1,0,0:0:0:0:
216,112,144057,2,0,L|320:112,1,97.50000371933,8|8,0:3|0:3,0:0:0:0:
372,20,144724,2,0,L|274:20,1,97.50000371933,8|4,0:3|3:3,0:0:0:0:
144,28,145391,6,0,P|77:58|51:147,1,143.000004364014,4|8,0:0|0:0,0:0:0:0:
120,212,146057,1,0,0:0:0:0:
120,212,146391,1,8,0:0:0:0:
236,196,146724,2,0,P|264:224|264:336,1,130,0|8,0:0|0:0,0:0:0:0:
160,328,147391,2,0,L|24:304,1,130,0|8,0:0|0:0,0:0:0:0:
16,188,148057,6,0,P|32:120|96:76,1,130,0|8,0:0|0:0,0:0:0:0:
192,96,148724,1,0,0:0:0:0:
192,96,149057,1,8,0:0:0:0:
300,140,149391,2,0,P|340:148|432:96,1,130,0|8,0:0|0:0,0:0:0:0:
500,28,150057,2,0,P|484:112|512:160,1,130,0|8,0:0|0:0,0:0:0:0:
508,268,150724,6,0,P|468:292|376:280,1,130,0|8,0:0|0:0,0:0:0:0:
280,240,151391,1,0,0:0:0:0:
280,240,151724,1,8,0:0:0:0:
176,188,152057,2,0,P|124:168|48:192,1,130,0|8,0:0|0:0,0:0:0:0:
56,304,152724,2,0,P|108:324|184:300,1,130,0|8,0:0|0:0,0:0:0:0:
280,240,153391,6,0,L|284:104,1,130,0|8,0:0|0:0,0:0:0:0:
380,44,154057,1,0,0:0:0:0:
380,44,154391,1,8,0:0:0:0:
480,104,154724,2,0,L|476:196,2,65,0|0|8,0:0|0:0|0:0,0:0:0:0:
380,44,155391,2,0,L|240:40,1,130,0|8,0:0|0:0,0:0:0:0:
140,72,156057,5,4,0:0:0:0:
36,124,156391,2,0,P|8:156|0:196,1,65,8|0,0:0|0:0,0:0:0:0:
24,232,156724,2,0,P|56:272|56:368,2,130,0|8|0,0:0|0:0|0:0,0:0:0:0:
36,124,157724,1,8,0:0:0:0:
140,72,158057,2,0,P|184:64|336:72,1,195
380,104,158724,6,0,L|512:76,2,130,0|8|0,0:0|0:0|0:0,0:0:0:0:
304,192,159724,1,8,0:0:0:0:
200,244,160057,2,0,L|128:200,1,65
88,188,160391,2,0,L|72:108,1,65,8|0,0:0|0:0,0:0:0:0:
104,72,160724,2,0,P|148:60|296:68,1,195
348,92,161391,6,0,P|408:92|476:52,2,130,0|8|0,0:0|0:0|0:0,0:0:0:0:
244,144,162391,1,8,0:0:0:0:
160,224,162724,2,0,P|152:268|192:340,1,130,0|8,0:0|0:0,0:0:0:0:
304,304,163391,2,0,L|380:312,2,65,0|0|8,0:0|0:0|0:0,0:0:0:0:
248,204,164057,6,0,P|208:144|136:136,1,130,0|8,0:0|0:0,0:0:0:0:
80,224,164724,2,0,L|80:304,1,65
104,344,165057,1,8,0:0:0:0:
220,316,165391,2,0,P|276:304|360:324,1,130,4|4,0:3|0:3,0:0:0:0:
460,348,166057,2,0,P|488:312|480:216,1,130,8|8,0:3|0:3,0:0:0:0:
408,144,166724,1,4,0:3:0:0:
256,192,167891,12,4,169391,0:0:0:0:
336,192,169724,5,8,0:0:0:0:
220,244,170057,2,0,P|176:208|172:116,1,143.000004364014,0|8,0:0|0:0,0:0:0:0:
268,48,170724,2,0,B|312:68|312:68|360:52|416:72,1,143.000004364014,0|8,0:0|0:0,0:0:0:0:
496,160,171391,2,0,L|496:248,1,71.5000021820069
492,296,171724,1,8,0:0:0:0:
368,332,172057,6,0,P|312:312|224:332,1,143.000004364014,0|8,0:0|0:0,0:0:0:0:
104,344,172724,2,0,L|44:280,1,71.5000021820069
20,236,173057,2,0,B|12:184|48:148|48:148|52:76,1,143.000004364014,8|0,0:0|0:0,0:0:0:0:
144,12,173724,1,8,0:0:0:0:
244,92,174057,2,0,L|336:64,1,71.5000021820069
376,72,174391,2,0,L|444:92,1,71.5000021820069,8|0,0:0|0:0,0:0:0:0:
480,148,174724,6,0,P|496:200|472:296,2,143.000004364014,0|8|0,0:0|0:0|0:0,0:0:0:0:
372,216,175724,1,8,0:0:0:0:
272,296,176057,2,0,P|248:244|304:104,2,214.500006546021,0|0|8,0:0|0:0|0:0,0:0:0:0:
400,316,177391,6,0,L|484:324,2,71.5000021820069,0|0|8,0:0|0:0|0:0,0:0:0:0:
272,296,178057,2,0,L|188:288,2,71.5000021820069,0|0|8,0:0|0:0|0:0,0:0:0:0:
364,208,178724,2,0,L|448:216,2,71.5000021820069,4|0|4,0:3|0:0|0:3,0:0:0:0:
272,136,179391,2,0,L|116:136,1,130,8|2,0:3|2:0,0:0:0:0:
16,156,180057,6,0,P|0:216|32:300,1,143.000004364014,4|8,0:0|0:0,0:0:0:0:
84,312,180557,2,0,P|148:300|304:316,1,214.500006546021,0|8,0:0|0:0,0:0:0:0:
424,300,181391,2,0,P|464:252|452:148,1,143.000004364014,0|8,0:0|0:0,0:0:0:0:
424,128,181891,2,0,B|360:148|360:148|272:124|208:156,1,214.500006546021,0|8,0:0|0:0,0:0:0:0:
100,212,182724,6,0,P|60:184|88:20,2,214.500006546021,0|0|8,0:0|0:0|0:0,0:0:0:0:
216,156,184057,1,0,0:0:0:0:
332,212,184391,1,8,0:0:0:0:
456,176,184724,2,0,L|472:268,1,71.5000021820069
432,300,185057,1,8,0:0:0:0:
312,344,185391,6,0,L|160:328,1,143.000004364014,4|8,0:0|0:0,0:0:0:0:
96,224,186057,2,0,L|238:238,1,143.000004364014,0|8,0:0|0:0,0:0:0:0:
328,148,186724,2,0,L|176:132,1,143.000004364014,0|8,0:0|0:0,0:0:0:0:
72,72,187391,2,0,L|24:8,2,71.5000021820069,0|0|8,0:0|0:0|0:0,0:0:0:0:
12,184,188057,6,0,P|-8:220|12:324,2,143.000004364014,0|8|0,0:0|0:0|0:0,0:0:0:0:
136,144,189057,2,0,L|216:132,1,71.5000021820069
268,112,189391,2,0,L|420:104,1,143.000004364014,4|4,0:3|0:3,0:0:0:0:
308,24,190057,2,0,L|144:12,1,143.000004364014,8|8,0:3|0:3,0:0:0:0:
48,32,190724,6,0,L|28:112,1,65
36,152,191057,2,0,P|40:192|124:256,1,130
160,240,191557,1,0,0:0:0:0:
216,220,191724,2,2,P|267:258|281:320,1,130
164,328,192391,2,0,L|80:340,2,65,0|0|0,0:0|0:0|0:0,0:0:0:0:
396,288,193391,6,0,P|420:252|416:156,1,130,4|8,0:0|0:0,0:0:0:0:
316,116,194057,1,0,0:0:0:0:
316,116,194224,2,0,P|280:132|180:108,1,130
140,92,194724,2,0,P|88:112|52:200,1,130,0|8,0:0|0:0,0:0:0:0:
120,268,195391,2,0,L|196:268,1,65
240,248,195724,6,0,P|288:240|380:268,2,130,8|0|8,0:0|0:0|0:0,0:0:0:0:
120,268,196724,1,0,0:0:0:0:
120,268,196891,2,0,P|72:236|48:160,1,130
72,116,197391,2,0,B|120:88|120:88|172:104|216:76,1,130,0|8,0:0|0:0,0:0:0:0:
304,56,198057,2,0,L|388:48,2,65,0|0|8,0:0|0:0|0:0,0:0:0:0:
244,156,198724,6,0,P|228:208|260:288,1,130,0|8,0:0|0:0,0:0:0:0:
348,212,199391,1,0,0:0:0:0:
348,212,199557,2,0,P|367:161|341:79,1,130
304,52,200057,2,0,L|160:56,2,130,0|8|0,0:0|0:0|0:0,0:0:0:0:
420,28,201057,2,0,L|484:48,1,65,8|0,0:0|0:0,0:0:0:0:
508,100,201391,6,0,P|512:152|504:248,1,130,0|8,0:0|0:0,0:0:0:0:
408,292,202057,1,0,0:0:0:0:
408,292,202391,1,8,0:0:0:0:
308,232,202724,2,0,L|224:236,2,65,4|0|4,0:3|0:0|0:3,0:0:0:0:
364,128,203391,2,0,L|448:124,2,65,8|0|8,0:3|0:0|0:3,0:0:0:0:
272,56,204057,6,0,P|208:40|144:60,1,130,4|8,0:0|0:0,0:0:0:0:
56,132,204724,1,0,0:0:0:0:
56,132,204891,2,0,B|84:184|84:184|56:232|80:272,1,130
116,292,205391,2,0,P|176:312|240:292,1,130,0|8,0:0|0:0,0:0:0:0:
324,216,206057,2,0,L|408:200,1,65
444,220,206391,2,0,L|504:164,1,65,8|0,0:0|0:0,0:0:0:0:
492,116,206724,6,0,P|472:64|400:32,1,130,0|8,0:0|0:0,0:0:0:0:
304,80,207391,1,0,0:0:0:0:
304,80,207557,2,0,P|232:96|168:72,1,130
132,48,208057,2,0,P|64:60|16:128,2,130,0|8|0,0:0|0:0|0:0,0:0:0:0:
124,164,209057,1,8,0:0:0:0:
220,232,209391,6,0,P|264:236|352:176,1,130,0|8,0:0|0:0,0:0:0:0:
432,124,210057,1,0,0:0:0:0:
432,124,210224,2,0,P|472:160|484:240,1,130
460,284,210724,2,0,B|412:280|412:280|380:312|324:296,1,130,0|8,0:0|0:0,0:0:0:0:
220,288,211391,2,0,L|164:324,2,65,0|0|8,0:0|0:0|0:0,0:0:0:0:
284,188,212057,6,0,P|256:80|104:212,1,390,0|8,0:0|0:0,0:0:0:0:
60,320,213391,2,0,L|196:320,1,130,4|0,0:3|0:0,2:0:0:0:
320,320,214057,2,0,L|190:320,1,130,0|2,2:0|0:0,0:0:0:0:
