osu file format v13

[General]
AudioFilename: Reol.mp3
AudioLeadIn: 0
PreviewTime: 56000
Countdown: 0
SampleSet: Normal
StackLeniency: 0.7
Mode: 3
LetterboxInBreaks: 0
SpecialStyle: 0
WidescreenStoryboard: 1

[Editor]
DistanceSpacing: 1
BeatDivisor: 4
GridSize: 4
TimelineZoom: 1.699999

[Metadata]
Title:+Danshi
TitleUnicode:+Danshi
Artist:Reol
ArtistUnicode:れをる
Creator:lZenxl
Version:mike91lau's 4K HD
Source:
Tags:GigaP neonat Tagre Plus Boy Hinsvar Fort Papcio [I]MMoRTal[S] mike91lau Player_X Soldsaga_KunG Okoratu
BeatmapID:444501
BeatmapSetID:165991

[Difficulty]
HPDrainRate:8
CircleSize:4
OverallDifficulty:7
ApproachRate:5
SliderMultiplier:1.8
SliderTickRate:1

[Events]
//Background and Video events
0,0,"BG.png",0,0
Video,0,"new.avi"
//Break Periods
2,48257,54857
//Storyboard Layer 0 (Background)
//Storyboard Layer 1 (Fail)
//Storyboard Layer 2 (Pass)
//Storyboard Layer 3 (Foreground)
//Storyboard Sound Samples
Sample,135057,0,"drum-hitfinish.wav",70
Sample,135224,0,"drum-hitfinish.wav",70
Sample,135891,0,"drum-hitfinish.wav",70
Sample,136557,0,"drum-hitfinish.wav",70
Sample,136891,0,"drum-hitfinish.wav",70
Sample,137057,0,"drum-hitfinish.wav",70
Sample,137224,0,"drum-hitfinish.wav",70
Sample,137724,0,"drum-hitfinish.wav",70
Sample,137891,0,"drum-hitfinish.wav",70
Sample,138391,0,"drum-hitfinish.wav",70
Sample,138557,0,"drum-hitfinish.wav",70
Sample,139057,0,"drum-hitfinish.wav",70
Sample,139224,0,"drum-hitfinish.wav",70
Sample,139557,0,"drum-hitfinish.wav",70
Sample,139724,0,"drum-hitfinish.wav",70
Sample,139891,0,"drum-hitfinish.wav",70
Sample,140057,0,"drum-hitfinish.wav",70
Sample,140391,0,"drum-hitfinish.wav",70
Sample,140557,0,"drum-hitfinish.wav",70
Sample,141057,0,"drum-hitfinish.wav",70
Sample,141891,0,"drum-hitfinish.wav",70
Sample,142224,0,"drum-hitfinish.wav",70
Sample,142391,0,"drum-hitfinish.wav",70
Sample,142557,0,"drum-hitfinish.wav",70
Sample,143057,0,"drum-hitfinish.wav",70
Sample,143224,0,"drum-hitfinish.wav",70
Sample,143724,0,"drum-hitfinish.wav",70
Sample,143891,0,"drum-hitfinish.wav",70
Sample,144557,0,"drum-hitfinish.wav",70
Sample,144641,0,"drum-hitfinish.wav",70
Sample,144807,0,"drum-hitfinish.wav",70
Sample,144891,0,"drum-hitfinish.wav",70
Sample,144974,0,"drum-hitfinish.wav",70
//Background Colour Transformations
3,100,163,162,255

[TimingPoints]
12058,333.333333333333,4,1,1,50,1,0
23557,-400,4,1,1,50,0,0
23578,-50,4,1,1,50,0,0
23599,-400,4,1,1,50,0,0
23620,-50,4,1,1,50,0,0
23641,-400,4,1,1,50,0,0
23662,-50,4,1,1,50,0,0
23682,-400,4,1,1,50,0,0
23703,-50,4,1,1,50,0,0
23724,-400,4,1,1,50,0,0
23766,-50,4,1,1,50,0,0
23807,-400,4,1,1,50,0,0
23849,-50,4,1,1,50,0,0
23891,-200,4,1,1,50,0,0
23932,-50,4,1,1,50,0,0
23974,-400,4,1,1,50,0,0
24057,-200,4,1,1,50,0,0
24891,-50,4,1,1,50,0,0
24974,-400,4,1,1,50,0,0
25057,-50,4,1,1,50,0,0
25141,-400,4,1,1,50,0,0
25224,-50,4,1,1,50,0,0
25307,-400,4,1,1,50,0,0
25391,-100,4,1,1,50,0,0
44057,-90.9090909090909,4,1,1,80,0,0
44724,-83.3333333333333,4,1,1,80,0,0
45391,-76.9230769230769,4,1,1,80,0,0
46057,-71.4285714285714,4,1,1,80,0,0
46724,-100,4,1,1,80,0,0
56057,-1000,4,1,1,80,0,0
56891,-133.333333333333,4,1,1,80,0,0
57391,-100,4,1,1,80,0,1
78724,-100,4,1,1,80,0,0
80891,-50,4,1,1,80,0,0
80974,-400,4,1,1,80,0,0
81057,-50,4,1,1,80,0,0
81141,-400,4,1,1,80,0,0
81224,-50,4,1,1,80,0,0
81307,-400,4,1,1,80,0,0
81391,-100,4,1,1,80,0,0
112057,-1000,4,1,1,80,0,0
112724,-133.333333333333,4,1,1,80,0,0
113391,-100,4,1,1,80,0,1
134724,-100,4,1,1,80,0,0
145057,-400,4,1,1,80,0,0
145391,-100,4,1,1,80,0,0
154724,-50,4,1,1,80,0,0
154807,-200,4,1,1,80,0,0
154891,-50,4,1,1,80,0,0
154974,-200,4,1,1,80,0,0
155057,-50,4,1,1,80,0,0
155141,-200,4,1,1,80,0,0
155224,-50,4,1,1,80,0,0
155307,-200,4,1,1,80,0,0
155391,-100,4,1,1,80,0,0
156057,-100,4,1,1,80,0,0
156141,-400,4,1,1,80,0,0
156224,-50,4,1,1,80,0,0
156266,-200,4,1,1,80,0,0
156307,-50,4,1,1,80,0,0
156349,-200,4,1,1,80,0,0
156391,-50,4,1,1,80,0,0
156432,-200,4,1,1,80,0,0
156474,-50,4,1,1,80,0,0
156516,-200,4,1,1,80,0,0
156557,-50,4,1,1,80,0,0
156599,-200,4,1,1,80,0,0
156641,-50,4,1,1,80,0,0
156682,-200,4,1,1,80,0,0
156724,-100,4,1,1,80,0,0
166724,-1000,4,1,1,80,0,0
168057,-400,4,1,1,80,0,0
168557,-200,4,1,1,80,0,0
169057,-133.333333333333,4,1,1,80,0,0
169391,-100,4,1,1,80,0,1
190724,-100,4,1,1,80,0,0
192724,-400,4,1,1,80,0,0
192807,-50,4,1,1,80,0,0
192891,-400,4,1,1,80,0,0
192974,-50,4,1,1,80,0,0
193057,-400,4,1,1,80,0,0
193141,-50,4,1,1,80,0,0
193224,-400,4,1,1,80,0,0
193307,-50,4,1,1,80,0,0
193391,-100,4,1,1,80,0,0
213391,-200,4,1,1,80,0,0

[HitObjects]
64,192,13391,5,0,0:0:0:0:
320,192,13391,1,0,0:0:0:0:
64,192,13724,1,0,0:0:0:0:
320,192,13724,1,0,0:0:0:0:
64,192,14058,1,0,0:0:0:0:
320,192,14058,1,0,0:0:0:0:
64,192,14224,1,0,0:0:0:0:
320,192,14224,1,0,0:0:0:0:
448,192,14391,1,0,0:0:0:0:
192,192,14391,1,0,0:0:0:0:
64,192,14724,1,0,0:0:0:0:
192,192,14724,1,0,0:0:0:0:
320,192,14808,1,0,0:0:0:0:
64,192,14891,1,0,0:0:0:0:
192,192,14974,1,0,0:0:0:0:
320,192,15058,1,0,0:0:0:0:
448,192,15058,1,0,0:0:0:0:
192,192,15141,1,0,0:0:0:0:
448,192,15224,1,0,0:0:0:0:
320,192,15308,1,0,0:0:0:0:
192,192,15391,1,0,0:0:0:0:
64,192,15391,1,0,0:0:0:0:
320,192,15474,1,0,0:0:0:0:
192,192,15558,1,0,0:0:0:0:
64,192,15641,1,0,0:0:0:0:
320,192,15724,1,0,0:0:0:0:
448,192,15724,1,0,0:0:0:0:
192,192,15808,1,0,0:0:0:0:
320,192,15891,1,0,0:0:0:0:
448,192,15974,1,0,0:0:0:0:
64,192,16058,1,0,0:0:0:0:
320,192,16058,1,0,0:0:0:0:
192,192,16141,1,0,0:0:0:0:
448,192,16224,1,0,0:0:0:0:
320,192,16308,1,0,0:0:0:0:
448,192,16391,1,0,0:0:0:0:
192,192,16391,1,0,0:0:0:0:
320,192,16474,1,0,0:0:0:0:
64,192,16558,1,0,0:0:0:0:
192,192,16641,1,0,0:0:0:0:
64,192,16724,1,0,0:0:0:0:
320,192,16724,1,0,0:0:0:0:
192,192,16808,1,0,0:0:0:0:
64,192,16891,1,0,0:0:0:0:
448,192,16974,1,0,0:0:0:0:
192,192,17058,1,0,0:0:0:0:
64,192,17058,1,0,0:0:0:0:
320,192,17141,1,0,0:0:0:0:
448,192,17224,1,0,0:0:0:0:
64,192,17308,1,0,0:0:0:0:
448,192,17391,1,0,0:0:0:0:
320,192,17391,128,0,17724:0:0:0:0:
64,192,17558,1,0,0:0:0:0:
192,192,17724,128,0,18058:0:0:0:0:
448,192,17891,1,0,0:0:0:0:
64,192,18058,1,0,0:0:0:0:
320,192,18224,1,0,0:0:0:0:
448,192,18391,1,0,0:0:0:0:
192,192,18391,1,0,0:0:0:0:
192,192,18558,1,0,0:0:0:0:
320,192,18558,1,0,0:0:0:0:
64,192,18724,1,0,0:0:0:0:
320,192,18724,1,0,0:0:0:0:
448,192,18724,128,0,19058:0:0:0:0:
192,192,18891,1,0,0:0:0:0:
64,192,19058,128,0,19391:0:0:0:0:
320,192,19058,1,0,0:0:0:0:
192,192,19224,1,0,0:0:0:0:
448,192,19224,1,0,0:0:0:0:
320,192,19391,1,0,0:0:0:0:
448,192,19474,1,0,0:0:0:0:
192,192,19558,1,0,0:0:0:0:
64,192,19641,1,0,0:0:0:0:
320,192,19724,1,0,0:0:0:0:
448,192,19808,1,0,0:0:0:0:
192,192,19891,1,0,0:0:0:0:
64,192,19974,1,0,0:0:0:0:
448,192,20058,128,0,20391:0:0:0:0:
320,192,20058,1,0,0:0:0:0:
192,192,20224,1,0,0:0:0:0:
64,192,20391,128,0,20724:0:0:0:0:
320,192,20391,1,0,0:0:0:0:
192,192,20558,1,0,0:0:0:0:
320,192,20724,1,0,0:0:0:0:
448,192,20724,128,0,20891:0:0:0:0:
64,192,20891,128,0,21058:0:0:0:0:
192,192,21058,1,0,0:0:0:0:
320,192,21058,1,0,0:0:0:0:
448,192,21224,1,0,0:0:0:0:
320,192,21308,1,0,0:0:0:0:
192,192,21391,1,0,0:0:0:0:
64,192,21474,1,0,0:0:0:0:
448,192,21558,128,0,21724:0:0:0:0:
320,192,21724,128,0,21891:0:0:0:0:
192,192,21891,1,0,0:0:0:0:
64,192,22058,128,0,22224:0:0:0:0:
192,192,22224,128,0,22391:0:0:0:0:
320,192,22391,1,0,0:0:0:0:
448,192,22391,128,0,22558:0:0:0:0:
320,192,22558,128,0,22724:0:0:0:0:
192,192,22724,1,0,0:0:0:0:
64,192,22724,1,0,0:0:0:0:
192,192,22891,1,0,0:0:0:0:
64,192,23057,1,0,0:0:0:0:
448,192,23057,1,0,0:0:0:0:
320,192,23057,128,0,23391:0:0:0:0:
192,192,23224,1,0,0:0:0:0:
448,192,23391,128,0,24057:0:0:0:0:
64,192,23391,1,0,0:0:0:0:
64,192,23557,128,0,24057:0:0:0:0:
192,192,23724,128,0,24057:0:0:0:0:
320,192,24057,1,0,0:0:0:0:
192,192,24724,1,0,0:0:0:0:
320,192,24724,1,0,0:0:0:0:
64,192,24891,1,0,0:0:0:0:
448,192,25057,1,0,0:0:0:0:
64,192,25224,1,0,0:0:0:0:
192,192,25391,1,0,0:0:0:0:
320,192,25391,1,0,0:0:0:0:
64,192,25557,1,0,0:0:0:0:
192,192,25641,1,0,0:0:0:0:
320,192,25724,1,0,0:0:0:0:
448,192,25724,1,0,0:0:0:0:
448,192,25891,1,0,0:0:0:0:
320,192,25974,1,0,0:0:0:0:
192,192,26057,1,0,0:0:0:0:
64,192,26057,1,0,0:0:0:0:
320,192,26224,1,0,0:0:0:0:
448,192,26307,1,0,0:0:0:0:
320,192,26391,1,0,0:0:0:0:
192,192,26391,1,0,0:0:0:0:
192,192,26557,1,0,0:0:0:0:
64,192,26641,1,0,0:0:0:0:
192,192,26724,1,0,0:0:0:0:
320,192,26724,1,0,0:0:0:0:
64,192,26891,1,0,0:0:0:0:
192,192,26974,1,0,0:0:0:0:
64,192,27057,1,0,0:0:0:0:
448,192,27057,1,0,0:0:0:0:
448,192,27224,1,0,0:0:0:0:
320,192,27307,1,0,0:0:0:0:
64,192,27391,1,0,0:0:0:0:
448,192,27391,1,0,0:0:0:0:
192,192,27557,1,0,0:0:0:0:
320,192,27641,1,0,0:0:0:0:
192,192,27724,1,0,0:0:0:0:
64,192,27724,1,0,0:0:0:0:
320,192,27891,1,0,0:0:0:0:
192,192,27974,1,0,0:0:0:0:
320,192,28057,1,0,0:0:0:0:
448,192,28057,1,0,0:0:0:0:
64,192,28224,1,0,0:0:0:0:
192,192,28224,1,0,0:0:0:0:
320,192,28391,1,0,0:0:0:0:
448,192,28391,1,0,0:0:0:0:
64,192,28557,1,0,0:0:0:0:
192,192,28557,1,0,0:0:0:0:
320,192,28724,1,0,0:0:0:0:
448,192,28724,1,0,0:0:0:0:
192,192,28891,1,0,0:0:0:0:
64,192,28891,1,0,0:0:0:0:
320,192,28974,1,0,0:0:0:0:
64,192,29057,128,0,29224:0:0:0:0:
320,192,29141,1,0,0:0:0:0:
192,192,29224,1,0,0:0:0:0:
448,192,29391,128,0,30391:0:0:0:0:
320,192,29391,1,0,0:0:0:0:
64,192,29557,1,0,0:0:0:0:
320,192,29724,128,0,30391:0:0:0:0:
192,192,29724,1,0,0:0:0:0:
64,192,29891,1,0,0:0:0:0:
192,192,30057,128,0,30391:0:0:0:0:
64,192,30057,1,0,0:0:0:0:
64,192,30391,1,0,0:0:0:0:
64,192,30724,1,0,0:0:0:0:
192,192,30807,1,0,0:0:0:0:
320,192,30891,1,0,0:0:0:0:
448,192,30974,1,0,0:0:0:0:
320,192,31057,1,0,0:0:0:0:
192,192,31141,1,0,0:0:0:0:
64,192,31224,1,0,0:0:0:0:
320,192,31391,1,0,0:0:0:0:
192,192,31474,1,0,0:0:0:0:
64,192,31557,1,0,0:0:0:0:
448,192,31724,1,0,0:0:0:0:
320,192,31807,1,0,0:0:0:0:
192,192,31891,1,0,0:0:0:0:
320,192,31974,1,0,0:0:0:0:
448,192,32057,1,0,0:0:0:0:
192,192,32224,1,0,0:0:0:0:
320,192,32224,1,0,0:0:0:0:
64,192,32391,1,0,0:0:0:0:
192,192,32557,1,0,0:0:0:0:
320,192,32557,1,0,0:0:0:0:
448,192,32724,1,0,0:0:0:0:
192,192,32891,1,0,0:0:0:0:
320,192,32891,1,0,0:0:0:0:
64,192,33057,1,0,0:0:0:0:
320,192,33057,1,0,0:0:0:0:
192,192,33224,1,0,0:0:0:0:
448,192,33224,128,0,33391:0:0:0:0:
320,192,33391,1,0,0:0:0:0:
64,192,33391,128,0,33557:0:0:0:0:
192,192,33557,1,0,0:0:0:0:
448,192,33557,128,0,33724:0:0:0:0:
320,192,33724,1,0,0:0:0:0:
64,192,33724,128,0,33891:0:0:0:0:
192,192,33891,1,0,0:0:0:0:
448,192,33891,128,0,34057:0:0:0:0:
320,192,34057,1,0,0:0:0:0:
192,192,34224,1,0,0:0:0:0:
320,192,34391,1,0,0:0:0:0:
64,192,34474,1,0,0:0:0:0:
448,192,34474,1,0,0:0:0:0:
192,192,34557,1,0,0:0:0:0:
448,192,34724,1,0,0:0:0:0:
320,192,34807,1,0,0:0:0:0:
192,192,34891,1,0,0:0:0:0:
64,192,34974,1,0,0:0:0:0:
448,192,35057,1,0,0:0:0:0:
320,192,35057,1,0,0:0:0:0:
448,192,35224,1,0,0:0:0:0:
64,192,35391,1,0,0:0:0:0:
192,192,35474,1,0,0:0:0:0:
320,192,35557,1,0,0:0:0:0:
448,192,35641,1,0,0:0:0:0:
64,192,35724,1,0,0:0:0:0:
192,192,35724,1,0,0:0:0:0:
64,192,35891,1,0,0:0:0:0:
192,192,36057,1,0,0:0:0:0:
320,192,36057,1,0,0:0:0:0:
64,192,36224,1,0,0:0:0:0:
192,192,36391,1,0,0:0:0:0:
320,192,36391,1,0,0:0:0:0:
448,192,36557,1,0,0:0:0:0:
192,192,36724,1,0,0:0:0:0:
320,192,36724,1,0,0:0:0:0:
64,192,36891,1,0,0:0:0:0:
192,192,37057,1,0,0:0:0:0:
320,192,37057,1,0,0:0:0:0:
192,192,37224,1,0,0:0:0:0:
320,192,37224,1,0,0:0:0:0:
64,192,37391,5,0,0:0:0:0:
448,192,37391,1,0,0:0:0:0:
192,192,37557,1,0,0:0:0:0:
448,192,37724,1,0,0:0:0:0:
64,192,37724,1,0,0:0:0:0:
320,192,37891,1,0,0:0:0:0:
448,192,38057,1,0,0:0:0:0:
64,192,38057,1,0,0:0:0:0:
192,192,38224,1,0,0:0:0:0:
448,192,38391,1,0,0:0:0:0:
64,192,38391,1,0,0:0:0:0:
448,192,38557,1,0,0:0:0:0:
64,192,38557,1,0,0:0:0:0:
448,192,38724,1,0,0:0:0:0:
192,192,38724,1,0,0:0:0:0:
192,192,38891,1,0,0:0:0:0:
64,192,39057,1,0,0:0:0:0:
320,192,39057,1,0,0:0:0:0:
320,192,39224,1,0,0:0:0:0:
448,192,39391,1,0,0:0:0:0:
192,192,39391,1,0,0:0:0:0:
192,192,39557,1,0,0:0:0:0:
64,192,39724,1,0,0:0:0:0:
320,192,39724,1,0,0:0:0:0:
320,192,39891,1,0,0:0:0:0:
64,192,39891,1,0,0:0:0:0:
192,192,40057,1,0,0:0:0:0:
448,192,40057,1,0,0:0:0:0:
320,192,40224,1,0,0:0:0:0:
192,192,40307,1,0,0:0:0:0:
320,192,40391,1,0,0:0:0:0:
64,192,40391,1,0,0:0:0:0:
192,192,40557,1,0,0:0:0:0:
320,192,40641,1,0,0:0:0:0:
448,192,40724,1,0,0:0:0:0:
192,192,40724,1,0,0:0:0:0:
64,192,40891,128,0,41224:0:0:0:0:
192,192,41057,128,0,41391:0:0:0:0:
320,192,41057,1,0,0:0:0:0:
320,192,41224,128,0,41557:0:0:0:0:
448,192,41391,128,0,41724:0:0:0:0:
64,192,41391,1,0,0:0:0:0:
192,192,41557,128,0,41724:0:0:0:0:
320,192,41724,1,0,0:0:0:0:
64,192,41724,128,0,41891:0:0:0:0:
448,192,41891,128,0,42057:0:0:0:0:
64,192,42057,128,0,42391:0:0:0:0:
320,192,42057,1,0,0:0:0:0:
320,192,42224,1,0,0:0:0:0:
448,192,42391,128,0,42724:0:0:0:0:
192,192,42391,1,0,0:0:0:0:
192,192,42557,1,0,0:0:0:0:
64,192,42724,128,0,43057:0:0:0:0:
320,192,42724,1,0,0:0:0:0:
448,192,42891,128,0,43224:0:0:0:0:
320,192,43057,128,0,43391:0:0:0:0:
192,192,43057,1,0,0:0:0:0:
192,192,43224,128,0,43557:0:0:0:0:
64,192,43391,128,0,43724:0:0:0:0:
448,192,43391,1,0,0:0:0:0:
320,192,43557,128,0,43724:0:0:0:0:
192,192,43724,1,0,0:0:0:0:
448,192,43724,128,0,43891:0:0:0:0:
192,192,43891,128,0,44057:0:0:0:0:
320,192,44057,1,0,0:0:0:0:
64,192,44141,1,0,0:0:0:0:
448,192,44224,1,0,0:0:0:0:
192,192,44307,1,0,0:0:0:0:
320,192,44391,1,0,0:0:0:0:
64,192,44474,1,0,0:0:0:0:
448,192,44557,1,0,0:0:0:0:
192,192,44641,1,0,0:0:0:0:
320,192,44724,1,0,0:0:0:0:
64,192,44807,1,0,0:0:0:0:
448,192,44891,1,0,0:0:0:0:
192,192,44974,1,0,0:0:0:0:
320,192,45057,1,0,0:0:0:0:
64,192,45141,1,0,0:0:0:0:
448,192,45224,1,0,0:0:0:0:
192,192,45307,1,0,0:0:0:0:
320,192,45391,1,0,0:0:0:0:
64,192,45474,1,0,0:0:0:0:
448,192,45557,1,0,0:0:0:0:
192,192,45641,1,0,0:0:0:0:
320,192,45724,1,0,0:0:0:0:
64,192,45807,1,0,0:0:0:0:
448,192,45891,1,0,0:0:0:0:
192,192,45974,1,0,0:0:0:0:
320,192,46057,1,0,0:0:0:0:
64,192,46141,1,0,0:0:0:0:
448,192,46224,1,0,0:0:0:0:
192,192,46307,1,0,0:0:0:0:
320,192,46391,1,0,0:0:0:0:
64,192,46474,1,0,0:0:0:0:
448,192,46557,1,0,0:0:0:0:
192,192,46641,1,0,0:0:0:0:
64,192,46724,128,0,48057:0:0:0:0:
320,192,46724,128,0,48057:0:0:0:0:
448,192,56057,5,0,0:0:0:70:drum-hitfinish.wav
64,192,56891,1,0,0:0:0:0:
448,192,56891,1,0,0:0:0:0:
64,192,57057,1,0,0:0:0:0:
448,192,57057,1,0,0:0:0:0:
64,192,57224,1,0,0:0:0:0:
448,192,57224,1,0,0:0:0:0:
64,192,57391,1,0,0:0:0:0:
192,192,57391,1,0,0:0:0:0:
448,192,57391,1,0,0:0:0:0:
320,192,57557,1,0,0:0:0:0:
64,192,57724,1,0,0:0:0:0:
320,192,57891,1,0,0:0:0:0:
192,192,57974,1,0,0:0:0:0:
448,192,58057,1,0,0:0:0:0:
64,192,58224,1,0,0:0:0:0:
448,192,58391,1,0,0:0:0:0:
192,192,58557,1,0,0:0:0:0:
320,192,58641,1,0,0:0:0:0:
64,192,58724,1,0,0:0:0:0:
320,192,58891,1,0,0:0:0:0:
64,192,59057,1,0,0:0:0:0:
320,192,59141,1,0,0:0:0:0:
448,192,59224,1,0,0:0:0:0:
192,192,59307,1,0,0:0:0:0:
64,192,59391,1,0,0:0:0:0:
320,192,59474,1,0,0:0:0:0:
448,192,59557,1,0,0:0:0:0:
192,192,59641,1,0,0:0:0:0:
64,192,59724,1,0,0:0:0:0:
320,192,59807,1,0,0:0:0:0:
448,192,59891,1,0,0:0:0:0:
192,192,59974,1,0,0:0:0:0:
64,192,60057,1,0,0:0:0:0:
192,192,60224,1,0,0:0:0:0:
320,192,60307,1,0,0:0:0:0:
448,192,60391,1,0,0:0:0:0:
64,192,60557,1,0,0:0:0:0:
320,192,60641,1,0,0:0:0:0:
448,192,60724,1,0,0:0:0:0:
64,192,60724,1,0,0:0:0:0:
320,192,60891,1,0,0:0:0:0:
192,192,60974,1,0,0:0:0:0:
64,192,61057,1,0,0:0:0:0:
448,192,61224,128,0,61557:0:0:0:0:
192,192,61224,1,0,0:0:0:0:
320,192,61391,1,0,0:0:0:0:
64,192,61391,1,0,0:0:0:0:
192,192,61557,1,0,0:0:0:0:
64,192,61724,128,0,62057:0:0:0:0:
320,192,61724,1,0,0:0:0:0:
192,192,61891,1,0,0:0:0:0:
448,192,61891,1,0,0:0:0:0:
320,192,62057,1,0,0:0:0:0:
448,192,62224,128,0,62557:0:0:0:0:
192,192,62224,1,0,0:0:0:0:
320,192,62391,1,0,0:0:0:0:
64,192,62391,1,0,0:0:0:0:
192,192,62557,1,0,0:0:0:0:
64,192,62724,128,0,62891:0:0:0:0:
448,192,62724,1,0,0:0:0:0:
192,192,62891,128,0,63057:0:0:0:0:
320,192,62891,1,0,0:0:0:0:
448,192,63057,128,0,63224:0:0:0:0:
64,192,63057,1,0,0:0:0:0:
320,192,63224,128,0,63391:0:0:0:0:
192,192,63224,1,0,0:0:0:0:
64,192,63391,128,0,63557:0:0:0:0:
448,192,63391,1,0,0:0:0:0:
192,192,63557,128,0,63724:0:0:0:0:
320,192,63557,1,0,0:0:0:0:
448,192,63724,128,0,63891:0:0:0:0:
64,192,63724,1,0,0:0:0:0:
320,192,63891,128,0,64057:0:0:0:0:
192,192,63891,1,0,0:0:0:0:
448,192,64057,1,0,0:0:0:0:
64,192,64057,1,0,0:0:0:0:
192,192,64224,1,0,0:0:0:0:
64,192,64391,1,0,0:0:0:0:
448,192,64391,1,0,0:0:0:0:
320,192,64557,1,0,0:0:0:0:
448,192,64724,1,0,0:0:0:0:
64,192,64724,1,0,0:0:0:0:
192,192,64891,1,0,0:0:0:0:
64,192,65057,1,0,0:0:0:0:
448,192,65057,1,0,0:0:0:0:
320,192,65224,1,0,0:0:0:0:
64,192,65391,128,0,65724:0:0:0:0:
448,192,65391,1,0,0:0:0:0:
192,192,65557,128,0,65891:0:0:0:0:
320,192,65724,128,0,66057:0:0:0:0:
448,192,65891,128,0,66224:0:0:0:0:
64,192,65891,128,0,66224:0:0:0:0:
192,192,66057,128,0,66391:0:0:0:0:
320,192,66224,128,0,66557:0:0:0:0:
448,192,66391,128,0,66724:0:0:0:0:
64,192,66391,128,0,66724:0:0:0:0:
192,192,66557,128,0,66891:0:0:0:0:
320,192,66724,128,0,67057:0:0:0:0:
448,192,66891,128,0,67224:0:0:0:0:
64,192,66891,1,0,0:0:0:0:
192,192,67057,1,0,0:0:0:0:
64,192,67224,1,0,0:0:0:0:
320,192,67391,128,0,67557:0:0:0:0:
192,192,67391,128,0,67724:0:0:0:0:
64,192,67724,1,0,0:0:0:0:
448,192,67724,1,0,0:0:0:0:
320,192,68057,1,0,0:0:0:0:
192,192,68057,1,0,0:0:0:0:
64,192,68391,1,0,0:0:0:0:
448,192,68391,1,0,0:0:0:0:
192,192,68557,1,0,0:0:0:0:
320,192,68724,1,0,0:0:0:0:
192,192,68891,1,0,0:0:0:0:
64,192,69057,1,0,0:0:0:0:
448,192,69224,1,0,0:0:0:0:
192,192,69391,1,0,0:0:0:0:
320,192,69391,1,0,0:0:0:0:
64,192,69724,1,0,0:0:0:0:
448,192,69724,1,0,0:0:0:0:
320,192,69891,1,0,0:0:0:0:
192,192,70057,1,0,0:0:0:0:
320,192,70224,1,0,0:0:0:0:
448,192,70391,1,0,0:0:0:0:
64,192,70557,1,0,0:0:0:0:
192,192,70724,1,0,0:0:0:0:
320,192,70724,1,0,0:0:0:0:
64,192,71057,1,0,0:0:0:0:
448,192,71057,1,0,0:0:0:0:
192,192,71224,1,0,0:0:0:0:
64,192,71391,1,0,0:0:0:0:
448,192,71557,1,0,0:0:0:0:
320,192,71724,1,0,0:0:0:0:
448,192,71891,1,0,0:0:0:0:
64,192,72057,128,0,72641:0:0:0:0:
192,192,72224,128,0,72807:0:0:0:0:
320,192,72391,128,0,72974:0:0:0:0:
448,192,72557,128,0,73141:0:0:0:0:
64,192,72724,128,0,73224:0:0:0:0:
192,192,72891,128,0,73224:0:0:0:0:
320,192,73057,128,0,73224:0:0:0:0:
448,192,73224,1,0,0:0:0:0:
64,192,73391,1,0,0:0:0:0:
320,192,73391,1,0,0:0:0:0:
448,192,73391,1,0,0:0:0:0:
192,192,73557,1,0,0:0:0:0:
64,192,73724,1,0,0:0:0:0:
320,192,73724,128,0,73891:0:0:0:0:
192,192,73891,1,0,0:0:0:0:
448,192,73891,128,0,74057:0:0:0:0:
64,192,74057,1,0,0:0:0:0:
320,192,74224,1,0,0:0:0:0:
448,192,74391,1,0,0:0:0:0:
192,192,74391,128,0,74557:0:0:0:0:
320,192,74557,1,0,0:0:0:0:
64,192,74557,128,0,74724:0:0:0:0:
448,192,74724,1,0,0:0:0:0:
320,192,74891,1,0,0:0:0:0:
192,192,75057,1,0,0:0:0:0:
448,192,75057,128,0,75224:0:0:0:0:
320,192,75224,1,0,0:0:0:0:
64,192,75224,128,0,75391:0:0:0:0:
192,192,75391,1,0,0:0:0:0:
448,192,75391,128,0,75557:0:0:0:0:
64,192,75557,128,0,75724:0:0:0:0:
320,192,75557,1,0,0:0:0:0:
448,192,75724,128,0,75891:0:0:0:0:
192,192,75724,1,0,0:0:0:0:
320,192,75891,1,0,0:0:0:0:
448,192,76057,1,0,0:0:0:0:
192,192,76057,128,0,76224:0:0:0:0:
64,192,76057,1,0,0:0:0:0:
320,192,76224,128,0,76391:0:0:0:0:
448,192,76391,1,0,0:0:0:0:
192,192,76391,128,0,76557:0:0:0:0:
64,192,76391,1,0,0:0:0:0:
320,192,76557,128,0,76724:0:0:0:0:
448,192,76724,1,0,0:0:0:0:
64,192,76724,128,0,76891:0:0:0:0:
192,192,76724,1,0,0:0:0:0:
448,192,76891,128,0,77057:0:0:0:0:
320,192,77057,1,0,0:0:0:0:
64,192,77057,128,0,77224:0:0:0:0:
192,192,77057,1,0,0:0:0:0:
448,192,77224,128,0,77391:0:0:0:0:
320,192,77391,1,0,0:0:0:0:
64,192,77391,128,0,77724:0:0:0:0:
192,192,77391,1,0,0:0:0:0:
320,192,77557,1,0,0:0:0:0:
192,192,77724,1,0,0:0:0:0:
448,192,77724,1,0,0:0:0:0:
320,192,77724,128,0,77891:0:0:0:0:
192,192,77891,128,0,78057:0:0:0:0:
320,192,78057,1,0,0:0:0:0:
64,192,78057,1,0,0:0:0:0:
448,192,78057,128,0,78224:0:0:0:0:
320,192,78224,1,0,0:0:0:0:
64,192,78391,1,0,0:0:0:0:
320,192,78391,1,0,0:0:0:0:
192,192,78391,128,0,78557:0:0:0:0:
320,192,78557,128,0,78724:0:0:0:0:
192,192,78724,1,0,0:0:0:0:
448,192,78724,1,0,0:0:0:0:
64,192,78724,128,0,78891:0:0:0:0:
192,192,78891,1,0,0:0:0:0:
320,192,79057,1,0,0:0:0:0:
448,192,79057,1,0,0:0:0:0:
64,192,79391,1,0,0:0:0:0:
64,192,79557,1,0,0:0:0:0:
192,192,79724,1,0,0:0:0:0:
320,192,79724,1,0,0:0:0:0:
64,192,79891,1,0,0:0:0:0:
192,192,79974,1,0,0:0:0:0:
448,192,80057,1,0,0:0:0:0:
448,192,80224,1,0,0:0:0:0:
64,192,80307,1,0,0:0:0:0:
320,192,80391,1,0,0:0:0:0:
192,192,80391,1,0,0:0:0:0:
64,192,80557,1,0,0:0:0:0:
64,192,80724,1,0,0:0:0:0:
448,192,80891,1,0,0:0:0:0:
320,192,80891,1,0,0:0:0:0:
448,192,81057,1,0,0:0:0:0:
320,192,81057,1,0,0:0:0:0:
448,192,81224,1,0,0:0:0:0:
320,192,81224,1,0,0:0:0:0:
448,192,81391,1,0,0:0:0:0:
320,192,81391,1,0,0:0:0:0:
64,192,81557,1,0,0:0:0:0:
192,192,81641,1,0,0:0:0:0:
320,192,81724,1,0,0:0:0:0:
64,192,81724,1,0,0:0:0:0:
448,192,81807,1,0,0:0:0:0:
192,192,81891,1,0,0:0:0:0:
320,192,82057,1,0,0:0:0:0:
448,192,82224,1,0,0:0:0:0:
320,192,82307,1,0,0:0:0:0:
192,192,82391,1,0,0:0:0:0:
448,192,82391,1,0,0:0:0:0:
64,192,82474,1,0,0:0:0:0:
320,192,82557,1,0,0:0:0:0:
192,192,82724,1,0,0:0:0:0:
320,192,82724,1,0,0:0:0:0:
64,192,82891,1,0,0:0:0:0:
192,192,82974,1,0,0:0:0:0:
448,192,83057,1,0,0:0:0:0:
320,192,83141,1,0,0:0:0:0:
64,192,83224,1,0,0:0:0:0:
320,192,83391,1,0,0:0:0:0:
192,192,83391,1,0,0:0:0:0:
448,192,83557,1,0,0:0:0:0:
320,192,83724,1,0,0:0:0:0:
192,192,83724,1,0,0:0:0:0:
64,192,83891,1,0,0:0:0:0:
192,192,84057,1,0,0:0:0:0:
320,192,84057,1,0,0:0:0:0:
64,192,84224,1,0,0:0:0:0:
448,192,84307,1,0,0:0:0:0:
192,192,84391,1,0,0:0:0:0:
320,192,84391,1,0,0:0:0:0:
448,192,84557,1,0,0:0:0:0:
64,192,84641,1,0,0:0:0:0:
320,192,84724,1,0,0:0:0:0:
192,192,84724,1,0,0:0:0:0:
448,192,84891,1,0,0:0:0:0:
192,192,84974,1,0,0:0:0:0:
64,192,85057,1,0,0:0:0:0:
448,192,85057,1,0,0:0:0:0:
64,192,85224,1,0,0:0:0:0:
320,192,85307,1,0,0:0:0:0:
64,192,85391,1,0,0:0:0:0:
448,192,85391,1,0,0:0:0:0:
192,192,85474,1,0,0:0:0:0:
64,192,85557,1,0,0:0:0:0:
192,192,85641,1,0,0:0:0:0:
448,192,85724,1,0,0:0:0:0:
64,192,85724,128,0,86057:0:0:0:0:
448,192,86057,1,0,0:0:0:0:
320,192,86141,1,0,0:0:0:0:
448,192,86224,1,0,0:0:0:0:
320,192,86307,1,0,0:0:0:0:
448,192,86391,128,0,86724:0:0:0:0:
64,192,86391,1,0,0:0:0:0:
64,192,86724,1,0,0:0:0:0:
192,192,86724,1,0,0:0:0:0:
192,192,86891,1,0,0:0:0:0:
320,192,86974,1,0,0:0:0:0:
448,192,87057,1,0,0:0:0:0:
320,192,87141,1,0,0:0:0:0:
192,192,87224,1,0,0:0:0:0:
64,192,87307,1,0,0:0:0:0:
320,192,87391,1,0,0:0:0:0:
448,192,87391,1,0,0:0:0:0:
320,192,87557,1,0,0:0:0:0:
192,192,87641,1,0,0:0:0:0:
64,192,87724,1,0,0:0:0:0:
192,192,87807,1,0,0:0:0:0:
320,192,87891,1,0,0:0:0:0:
448,192,87974,1,0,0:0:0:0:
64,192,88057,1,0,0:0:0:0:
192,192,88057,1,0,0:0:0:0:
320,192,88224,1,0,0:0:0:0:
192,192,88307,1,0,0:0:0:0:
64,192,88391,1,0,0:0:0:0:
320,192,88474,1,0,0:0:0:0:
192,192,88557,1,0,0:0:0:0:
64,192,88641,1,0,0:0:0:0:
320,192,88724,1,0,0:0:0:0:
448,192,88724,1,0,0:0:0:0:
192,192,88891,1,0,0:0:0:0:
320,192,88974,1,0,0:0:0:0:
448,192,89057,1,0,0:0:0:0:
192,192,89141,1,0,0:0:0:0:
320,192,89224,1,0,0:0:0:0:
448,192,89307,1,0,0:0:0:0:
64,192,89391,1,0,0:0:0:0:
192,192,89391,1,0,0:0:0:0:
320,192,89557,1,0,0:0:0:0:
448,192,89641,1,0,0:0:0:0:
64,192,89724,1,0,0:0:0:0:
192,192,89807,1,0,0:0:0:0:
64,192,89891,1,0,0:0:0:0:
192,192,89974,1,0,0:0:0:0:
320,192,90057,1,0,0:0:0:0:
448,192,90057,1,0,0:0:0:0:
192,192,90224,1,0,0:0:0:0:
64,192,90307,1,0,0:0:0:0:
448,192,90391,1,0,0:0:0:0:
320,192,90474,1,0,0:0:0:0:
448,192,90557,1,0,0:0:0:0:
320,192,90641,1,0,0:0:0:0:
64,192,90724,128,0,90891:0:0:0:0:
448,192,90724,1,0,0:0:0:0:
192,192,90891,128,0,91057:0:0:0:0:
448,192,91057,128,0,91224:0:0:0:0:
64,192,91057,1,0,0:0:0:0:
320,192,91224,128,0,91391:0:0:0:0:
64,192,91391,128,0,91724:0:0:0:0:
448,192,91391,128,0,91724:0:0:0:0:
320,192,91724,1,0,0:0:0:0:
192,192,91724,1,0,0:0:0:0:
448,192,91891,1,0,0:0:0:0:
192,192,92057,1,0,0:0:0:0:
320,192,92057,1,0,0:0:0:0:
64,192,92141,1,0,0:0:0:0:
192,192,92224,1,0,0:0:0:0:
320,192,92307,1,0,0:0:0:0:
448,192,92391,1,0,0:0:0:0:
64,192,92474,1,0,0:0:0:0:
192,192,92557,1,0,0:0:0:0:
320,192,92641,1,0,0:0:0:0:
448,192,92724,1,0,0:0:0:0:
64,192,92807,1,0,0:0:0:0:
192,192,92891,1,0,0:0:0:0:
320,192,92974,1,0,0:0:0:0:
448,192,93057,1,0,0:0:0:0:
448,192,93224,1,0,0:0:0:0:
320,192,93391,1,0,0:0:0:0:
192,192,93391,1,0,0:0:0:0:
448,192,93474,1,0,0:0:0:0:
320,192,93557,1,0,0:0:0:0:
192,192,93641,1,0,0:0:0:0:
64,192,93724,1,0,0:0:0:0:
448,192,93807,1,0,0:0:0:0:
320,192,93891,1,0,0:0:0:0:
192,192,93974,1,0,0:0:0:0:
64,192,94057,1,0,0:0:0:0:
448,192,94141,1,0,0:0:0:0:
320,192,94224,1,0,0:0:0:0:
192,192,94307,1,0,0:0:0:0:
64,192,94391,1,0,0:0:0:0:
64,192,94557,1,0,0:0:0:0:
192,192,94724,1,0,0:0:0:0:
320,192,94724,1,0,0:0:0:0:
320,192,94891,1,0,0:0:0:0:
192,192,94891,1,0,0:0:0:0:
448,192,95057,1,0,0:0:0:0:
64,192,95057,1,0,0:0:0:0:
64,192,95224,1,0,0:0:0:0:
448,192,95224,1,0,0:0:0:0:
448,192,95391,128,0,95724:0:0:0:0:
192,192,95391,1,0,0:0:0:0:
64,192,95557,1,0,0:0:0:0:
64,192,95724,128,0,96057:0:0:0:0:
320,192,95724,1,0,0:0:0:0:
448,192,95891,1,0,0:0:0:0:
320,192,96057,1,0,0:0:0:0:
192,192,96224,1,0,0:0:0:0:
64,192,96307,1,0,0:0:0:0:
448,192,96391,128,0,96724:0:0:0:0:
192,192,96391,1,0,0:0:0:0:
192,192,96557,1,0,0:0:0:0:
192,192,96724,1,0,0:0:0:0:
320,192,96891,1,0,0:0:0:0:
448,192,96974,1,0,0:0:0:0:
64,192,97057,128,0,97391:0:0:0:0:
320,192,97057,1,0,0:0:0:0:
320,192,97224,1,0,0:0:0:0:
448,192,97391,1,0,0:0:0:0:
320,192,97391,128,0,97557:0:0:0:0:
448,192,97557,1,0,0:0:0:0:
64,192,97724,1,0,0:0:0:0:
192,192,97724,128,0,97891:0:0:0:0:
64,192,97891,1,0,0:0:0:0:
320,192,98057,1,0,0:0:0:0:
448,192,98057,128,0,98224:0:0:0:0:
320,192,98224,1,0,0:0:0:0:
192,192,98391,1,0,0:0:0:0:
64,192,98391,128,0,98557:0:0:0:0:
192,192,98557,1,0,0:0:0:0:
448,192,98724,1,0,0:0:0:0:
320,192,98724,128,0,98891:0:0:0:0:
192,192,98891,1,0,0:0:0:0:
64,192,99057,1,0,0:0:0:0:
192,192,99057,128,0,99224:0:0:0:0:
320,192,99224,1,0,0:0:0:0:
320,192,99391,1,0,0:0:0:0:
448,192,99391,128,0,99557:0:0:0:0:
64,192,99557,1,0,0:0:0:0:
192,192,99724,1,0,0:0:0:0:
64,192,99724,128,0,99891:0:0:0:0:
448,192,99891,1,0,0:0:0:0:
192,192,100057,1,0,0:0:0:0:
320,192,100057,1,0,0:0:0:0:
64,192,100141,1,0,0:0:0:0:
192,192,100224,1,0,0:0:0:0:
320,192,100307,1,0,0:0:0:0:
448,192,100391,1,0,0:0:0:0:
64,192,100391,1,0,0:0:0:0:
64,192,100557,1,0,0:0:0:0:
448,192,100557,1,0,0:0:0:0:
320,192,100724,1,0,0:0:0:0:
192,192,100724,1,0,0:0:0:0:
448,192,100807,1,0,0:0:0:0:
320,192,100891,1,0,0:0:0:0:
192,192,100974,1,0,0:0:0:0:
64,192,101057,1,0,0:0:0:0:
448,192,101057,1,0,0:0:0:0:
64,192,101224,1,0,0:0:0:0:
448,192,101391,128,0,101724:0:0:0:0:
320,192,101391,1,0,0:0:0:0:
320,192,101557,128,0,101724:0:0:0:0:
64,192,101724,128,0,102057:0:0:0:0:
192,192,101724,1,0,0:0:0:0:
192,192,101891,128,0,102057:0:0:0:0:
320,192,102057,128,0,102724:0:0:0:0:
448,192,102057,1,0,0:0:0:0:
192,192,102391,128,0,103057:0:0:0:0:
448,192,102724,128,0,103057:0:0:0:0:
64,192,102724,1,0,0:0:0:0:
320,192,103057,1,0,0:0:0:0:
64,192,103391,1,0,0:0:0:0:
192,192,103724,1,0,0:0:0:0:
448,192,104057,1,0,0:0:0:0:
320,192,104057,1,0,0:0:0:0:
320,192,104307,1,0,0:0:0:0:
192,192,104391,1,0,0:0:0:0:
64,192,104641,1,0,0:0:0:0:
192,192,104724,1,0,0:0:0:0:
320,192,105057,1,0,0:0:0:0:
64,192,105391,1,0,0:0:0:0:
192,192,105391,1,0,0:0:0:0:
448,192,105724,1,0,0:0:0:0:
192,192,105974,1,0,0:0:0:0:
320,192,106057,1,0,0:0:0:0:
192,192,106224,1,0,0:0:0:0:
64,192,106307,1,0,0:0:0:0:
64,192,106641,1,0,0:0:0:0:
192,192,106724,1,0,0:0:0:0:
320,192,106807,1,0,0:0:0:0:
448,192,106891,1,0,0:0:0:0:
320,192,106974,1,0,0:0:0:0:
192,192,107057,1,0,0:0:0:0:
64,192,107141,1,0,0:0:0:0:
192,192,107224,1,0,0:0:0:0:
320,192,107307,1,0,0:0:0:0:
448,192,107391,1,0,0:0:0:0:
64,192,107641,1,0,0:0:0:0:
320,192,107724,1,0,0:0:0:0:
192,192,107974,1,0,0:0:0:0:
448,192,108057,1,0,0:0:0:0:
64,192,108057,1,0,0:0:0:0:
192,192,108391,1,0,0:0:0:0:
192,192,108641,1,0,0:0:0:0:
320,192,108724,1,0,0:0:0:0:
192,192,108974,1,0,0:0:0:0:
64,192,109057,1,0,0:0:0:0:
192,192,109391,1,0,0:0:0:0:
320,192,109641,1,0,0:0:0:0:
448,192,109724,1,0,0:0:0:0:
192,192,109974,1,0,0:0:0:0:
64,192,110057,1,0,0:0:0:0:
192,192,110307,1,0,0:0:0:0:
320,192,110391,1,0,0:0:0:0:
192,192,110724,1,0,0:0:0:0:
64,192,110724,1,0,0:0:0:0:
320,192,111057,1,0,0:0:0:0:
64,192,111307,1,0,0:0:0:0:
192,192,111391,1,0,0:0:0:0:
192,192,111641,1,0,0:0:0:0:
320,192,111724,1,0,0:0:0:0:
320,192,111974,1,0,0:0:0:0:
448,192,112057,1,0,0:0:0:0:
320,192,112724,1,0,0:0:0:0:
64,192,112891,1,0,0:0:0:0:
192,192,112891,1,0,0:0:0:0:
320,192,113057,1,0,0:0:0:0:
448,192,113057,1,0,0:0:0:0:
192,192,113224,1,0,0:0:0:0:
64,192,113224,1,0,0:0:0:0:
192,192,113391,1,0,0:0:0:0:
320,192,113391,1,0,0:0:0:0:
448,192,113391,1,0,0:0:0:0:
64,192,113724,128,0,114057:0:0:0:0:
320,192,113724,1,0,0:0:0:0:
192,192,113891,128,0,114057:0:0:0:0:
320,192,114057,128,0,114391:0:0:0:0:
64,192,114224,1,0,0:0:0:0:
448,192,114391,128,0,114724:0:0:0:0:
192,192,114391,1,0,0:0:0:0:
320,192,114557,128,0,114724:0:0:0:0:
192,192,114724,128,0,115057:0:0:0:0:
64,192,114891,1,0,0:0:0:0:
320,192,115057,1,0,0:0:0:0:
448,192,115224,1,0,0:0:0:0:
320,192,115391,1,0,0:0:0:0:
64,192,115391,1,0,0:0:0:0:
448,192,115557,1,0,0:0:0:0:
320,192,115724,1,0,0:0:0:0:
192,192,115891,1,0,0:0:0:0:
320,192,116057,1,0,0:0:0:0:
448,192,116057,1,0,0:0:0:0:
192,192,116224,1,0,0:0:0:0:
64,192,116391,1,0,0:0:0:0:
192,192,116474,1,0,0:0:0:0:
320,192,116557,1,0,0:0:0:0:
448,192,116641,1,0,0:0:0:0:
192,192,116724,1,0,0:0:0:0:
64,192,116724,1,0,0:0:0:0:
448,192,116807,1,0,0:0:0:0:
320,192,116891,1,0,0:0:0:0:
192,192,116974,1,0,0:0:0:0:
64,192,117057,1,0,0:0:0:0:
192,192,117224,1,0,0:0:0:0:
320,192,117224,1,0,0:0:0:0:
64,192,117307,1,0,0:0:0:0:
192,192,117391,1,0,0:0:0:0:
320,192,117474,1,0,0:0:0:0:
448,192,117557,5,0,0:0:0:0:
192,192,117724,1,0,0:0:0:0:
320,192,117724,1,0,0:0:0:0:
448,192,117807,1,0,0:0:0:0:
320,192,117891,1,0,0:0:0:0:
192,192,117974,1,0,0:0:0:0:
64,192,118057,1,0,0:0:0:0:
448,192,118057,1,0,0:0:0:0:
64,192,118224,1,0,0:0:0:0:
448,192,118224,1,0,0:0:0:0:
192,192,118391,1,0,0:0:0:0:
320,192,118391,1,0,0:0:0:0:
192,192,118557,1,0,0:0:0:0:
320,192,118557,1,0,0:0:0:0:
448,192,118724,128,0,119057:0:0:0:0:
64,192,118724,128,0,118891:0:0:0:0:
192,192,118891,1,0,0:0:0:0:
192,192,119057,128,0,119391:0:0:0:0:
320,192,119057,128,0,119224:0:0:0:0:
64,192,119224,1,0,0:0:0:0:
64,192,119391,128,0,119724:0:0:0:0:
448,192,119391,128,0,119557:0:0:0:0:
320,192,119557,1,0,0:0:0:0:
320,192,119724,128,0,120057:0:0:0:0:
192,192,119724,128,0,119891:0:0:0:0:
448,192,119891,1,0,0:0:0:0:
64,192,120057,128,0,121057:0:0:0:0:
448,192,120057,1,0,0:0:0:0:
192,192,120224,1,0,0:0:0:0:
320,192,120391,1,0,0:0:0:0:
448,192,120557,1,0,0:0:0:0:
320,192,120724,1,0,0:0:0:0:
192,192,120891,1,0,0:0:0:0:
448,192,121057,1,0,0:0:0:0:
192,192,121224,1,0,0:0:0:0:
448,192,121391,128,0,121724:0:0:0:0:
320,192,121391,1,0,0:0:0:0:
192,192,121557,1,0,0:0:0:0:
320,192,121724,1,0,0:0:0:0:
192,192,121891,1,0,0:0:0:0:
64,192,121891,128,0,122224:0:0:0:0:
320,192,122057,1,0,0:0:0:0:
192,192,122224,1,0,0:0:0:0:
320,192,122391,128,0,122724:0:0:0:0:
448,192,122391,1,0,0:0:0:0:
192,192,122557,1,0,0:0:0:0:
448,192,122724,1,0,0:0:0:0:
192,192,122891,128,0,123224:0:0:0:0:
64,192,122891,1,0,0:0:0:0:
320,192,123057,1,0,0:0:0:0:
64,192,123224,1,0,0:0:0:0:
192,192,123391,1,0,0:0:0:0:
320,192,123391,1,0,0:0:0:0:
448,192,123391,128,0,123557:0:0:0:0:
64,192,123391,128,0,123557:0:0:0:0:
448,192,123724,128,0,124057:0:0:0:0:
64,192,123724,128,0,124057:0:0:0:0:
192,192,124057,128,0,124391:0:0:0:0:
320,192,124057,128,0,124391:0:0:0:0:
64,192,124391,1,0,0:0:0:0:
448,192,124391,1,0,0:0:0:0:
192,192,124557,128,0,124891:0:0:0:0:
320,192,124557,128,0,124891:0:0:0:0:
64,192,124891,1,0,0:0:0:0:
448,192,124891,1,0,0:0:0:0:
64,192,125057,1,0,0:0:0:0:
448,192,125057,1,0,0:0:0:0:
64,192,125224,1,0,0:0:0:0:
448,192,125224,1,0,0:0:0:0:
448,192,125391,128,0,125724:0:0:0:0:
64,192,125391,128,0,125724:0:0:0:0:
192,192,125724,1,0,0:0:0:0:
320,192,125724,1,0,0:0:0:0:
64,192,125891,128,0,126224:0:0:0:0:
448,192,125891,128,0,126224:0:0:0:0:
192,192,126224,1,0,0:0:0:0:
320,192,126224,1,0,0:0:0:0:
192,192,126391,1,0,0:0:0:0:
320,192,126391,1,0,0:0:0:0:
192,192,126557,1,0,0:0:0:0:
320,192,126557,1,0,0:0:0:0:
64,192,126724,128,0,127057:0:0:0:0:
192,192,126724,128,0,127057:0:0:0:0:
320,192,127057,1,0,0:0:0:0:
448,192,127057,1,0,0:0:0:0:
64,192,127224,128,0,127557:0:0:0:0:
192,192,127224,128,0,127557:0:0:0:0:
320,192,127557,1,0,0:0:0:0:
448,192,127557,1,0,0:0:0:0:
320,192,127724,1,0,0:0:0:0:
448,192,127724,1,0,0:0:0:0:
320,192,127891,1,0,0:0:0:0:
448,192,127891,1,0,0:0:0:0:
64,192,128057,128,0,128224:0:0:0:0:
320,192,128057,128,0,128224:0:0:0:0:
192,192,128224,128,0,128391:0:0:0:0:
448,192,128224,128,0,128391:0:0:0:0:
320,192,128391,128,0,128557:0:0:0:0:
64,192,128391,128,0,128557:0:0:0:0:
448,192,128557,128,0,128724:0:0:0:0:
192,192,128557,128,0,128724:0:0:0:0:
320,192,128724,128,0,128891:0:0:0:0:
64,192,128724,128,0,128891:0:0:0:0:
192,192,128891,128,0,129057:0:0:0:0:
448,192,128891,128,0,129057:0:0:0:0:
320,192,129057,128,0,129391:0:0:0:0:
64,192,129224,128,0,129391:0:0:0:0:
192,192,129391,1,0,0:0:0:0:
448,192,129391,1,0,0:0:0:0:
192,192,129557,1,0,0:0:0:0:
320,192,129724,1,0,0:0:0:0:
448,192,129724,1,0,0:0:0:0:
320,192,129891,1,0,0:0:0:0:
64,192,130057,128,0,130391:0:0:0:0:
192,192,130057,1,0,0:0:0:0:
448,192,130391,1,0,0:0:0:0:
320,192,130391,1,0,0:0:0:0:
320,192,130557,1,0,0:0:0:0:
64,192,130724,128,0,131057:0:0:0:0:
192,192,130724,1,0,0:0:0:0:
448,192,131057,1,0,0:0:0:0:
320,192,131057,1,0,0:0:0:0:
320,192,131224,1,0,0:0:0:0:
192,192,131224,1,0,0:0:0:0:
192,192,131391,128,0,131557:0:0:0:0:
320,192,131391,1,0,0:0:0:0:
320,192,131557,128,0,131724:0:0:0:0:
192,192,131724,128,0,131891:0:0:0:0:
320,192,131891,128,0,132057:0:0:0:0:
192,192,132057,1,0,0:0:0:0:
64,192,132057,1,0,0:0:0:0:
448,192,132224,1,0,0:0:0:0:
192,192,132391,1,0,0:0:0:0:
320,192,132391,1,0,0:0:0:0:
64,192,132557,1,0,0:0:0:0:
320,192,132724,1,0,0:0:0:0:
448,192,132724,1,0,0:0:0:0:
448,192,132891,1,0,0:0:0:0:
192,192,133057,1,0,0:0:0:0:
320,192,133057,1,0,0:0:0:0:
448,192,133057,128,0,133391:0:0:0:0:
64,192,133224,1,0,0:0:0:0:
64,192,133391,1,0,0:0:0:0:
192,192,133391,1,0,0:0:0:0:
448,192,133557,1,0,0:0:0:0:
192,192,133724,1,0,0:0:0:0:
320,192,133724,1,0,0:0:0:0:
64,192,133891,1,0,0:0:0:0:
320,192,134057,1,0,0:0:0:0:
448,192,134057,1,0,0:0:0:0:
64,192,134057,128,0,134391:0:0:0:0:
448,192,134224,1,0,0:0:0:0:
192,192,134391,1,0,0:0:0:0:
320,192,134391,1,0,0:0:0:0:
64,192,134557,1,0,0:0:0:0:
64,192,134724,1,0,0:0:0:0:
192,192,134724,1,0,0:0:0:0:
448,192,134724,1,0,0:0:0:0:
192,192,135057,1,0,0:0:0:0:
320,192,135224,1,0,0:0:0:0:
448,192,135391,1,0,0:0:0:0:
192,192,135391,1,0,0:0:0:0:
64,192,135391,128,0,135724:0:0:0:0:
320,192,135724,1,0,0:0:0:0:
192,192,135891,1,0,0:0:0:0:
64,192,136057,1,0,0:0:0:0:
320,192,136057,128,0,136391:0:0:0:0:
448,192,136391,1,0,0:0:0:0:
320,192,136557,1,0,0:0:0:0:
448,192,136724,1,0,0:0:0:0:
64,192,136724,1,0,0:0:0:0:
320,192,136724,128,0,137057:0:0:0:0:
192,192,136891,1,0,0:0:0:0:
64,192,137057,1,0,0:0:0:0:
320,192,137224,1,0,0:0:0:0:
448,192,137391,1,0,0:0:0:0:
64,192,137391,1,0,0:0:0:0:
192,192,137391,128,0,137724:0:0:0:0:
320,192,137724,1,0,0:0:0:0:
192,192,137891,1,0,0:0:0:0:
448,192,138057,1,0,0:0:0:0:
64,192,138057,1,0,0:0:0:0:
320,192,138057,128,0,138391:0:0:0:0:
192,192,138391,1,0,0:0:0:0:
320,192,138557,1,0,0:0:0:0:
448,192,138724,1,0,0:0:0:0:
192,192,138724,128,0,139057:0:0:0:0:
448,192,139057,1,0,0:0:0:0:
64,192,139057,1,0,0:0:0:0:
192,192,139224,1,0,0:0:0:0:
320,192,139391,1,0,0:0:0:0:
64,192,139557,1,0,0:0:0:0:
448,192,139724,1,0,0:0:0:0:
192,192,139891,1,0,0:0:0:0:
448,192,140057,1,0,0:0:0:0:
64,192,140057,1,0,0:0:0:0:
192,192,140057,128,0,140391:0:0:0:0:
320,192,140391,1,0,0:0:0:0:
448,192,140557,1,0,0:0:0:0:
320,192,140724,1,0,0:0:0:0:
64,192,140724,128,0,141057:0:0:0:0:
192,192,141057,1,0,0:0:0:0:
448,192,141391,1,0,0:0:0:0:
64,192,141391,1,0,0:0:0:0:
320,192,141391,128,0,141724:0:0:0:0:
192,192,141724,1,0,0:0:0:0:
448,192,141891,1,0,0:0:0:0:
320,192,142057,1,0,0:0:0:0:
64,192,142057,1,0,0:0:0:0:
192,192,142057,128,0,142391:0:0:0:0:
448,192,142224,1,0,0:0:0:0:
64,192,142391,1,0,0:0:0:0:
192,192,142557,1,0,0:0:0:0:
64,192,142724,1,0,0:0:0:0:
448,192,142724,128,0,143057:0:0:0:0:
320,192,143057,1,0,0:0:0:0:
192,192,143224,1,0,0:0:0:0:
64,192,143391,1,0,0:0:0:0:
320,192,143391,128,0,143724:0:0:0:0:
64,192,143724,1,0,0:0:0:0:
192,192,143891,1,0,0:0:0:0:
64,192,144057,1,0,0:0:0:0:
320,192,144057,128,0,144391:0:0:0:0:
192,192,144224,1,0,0:0:0:0:
448,192,144391,1,0,0:0:0:0:
64,192,144391,1,0,0:0:0:0:
192,192,144557,1,0,0:0:0:0:
320,192,144641,1,0,0:0:0:0:
448,192,144724,1,0,0:0:0:0:
64,192,144724,1,0,0:0:0:0:
192,192,144807,1,0,0:0:0:0:
320,192,144891,1,0,0:0:0:0:
192,192,144974,1,0,0:0:0:0:
448,192,145057,1,0,0:0:0:0:
192,192,145391,1,0,0:0:0:0:
320,192,145391,1,0,0:0:0:0:
64,192,145724,1,0,0:0:0:0:
320,192,145891,1,0,0:0:0:0:
448,192,145974,1,0,0:0:0:0:
64,192,146057,128,0,146391:0:0:0:0:
192,192,146057,1,0,0:0:0:0:
320,192,146224,1,0,0:0:0:0:
448,192,146391,128,0,146724:0:0:0:0:
320,192,146391,1,0,0:0:0:0:
192,192,146557,1,0,0:0:0:0:
64,192,146724,1,0,0:0:0:0:
320,192,146807,1,0,0:0:0:0:
192,192,146891,1,0,0:0:0:0:
448,192,146974,1,0,0:0:0:0:
64,192,147057,1,0,0:0:0:0:
192,192,147224,1,0,0:0:0:0:
192,192,147307,1,0,0:0:0:0:
192,192,147391,1,0,0:0:0:0:
448,192,147557,1,0,0:0:0:0:
64,192,147557,1,0,0:0:0:0:
192,192,147724,1,0,0:0:0:0:
448,192,147891,1,0,0:0:0:0:
192,192,147974,1,0,0:0:0:0:
320,192,148057,1,0,0:0:0:0:
64,192,148141,1,0,0:0:0:0:
448,192,148224,1,0,0:0:0:0:
192,192,148391,1,0,0:0:0:0:
320,192,148391,1,0,0:0:0:0:
64,192,148557,1,0,0:0:0:0:
320,192,148641,1,0,0:0:0:0:
448,192,148724,128,0,149057:0:0:0:0:
192,192,148724,1,0,0:0:0:0:
64,192,148891,1,0,0:0:0:0:
64,192,149057,128,0,149391:0:0:0:0:
320,192,149057,1,0,0:0:0:0:
448,192,149224,1,0,0:0:0:0:
448,192,149391,1,0,0:0:0:0:
192,192,149557,1,0,0:0:0:0:
320,192,149557,1,0,0:0:0:0:
64,192,149724,1,0,0:0:0:0:
320,192,149891,1,0,0:0:0:0:
64,192,149974,1,0,0:0:0:0:
448,192,150057,1,0,0:0:0:0:
192,192,150141,1,0,0:0:0:0:
448,192,150224,1,0,0:0:0:0:
64,192,150391,1,0,0:0:0:0:
448,192,150391,1,0,0:0:0:0:
320,192,150557,1,0,0:0:0:0:
320,192,150641,1,0,0:0:0:0:
320,192,150724,1,0,0:0:0:0:
64,192,150724,1,0,0:0:0:0:
192,192,150891,1,0,0:0:0:0:
448,192,150891,1,0,0:0:0:0:
320,192,151057,1,0,0:0:0:0:
448,192,151224,1,0,0:0:0:0:
192,192,151307,1,0,0:0:0:0:
64,192,151391,128,0,151724:0:0:0:0:
320,192,151391,1,0,0:0:0:0:
448,192,151557,1,0,0:0:0:0:
448,192,151724,128,0,152057:0:0:0:0:
192,192,151724,1,0,0:0:0:0:
64,192,151891,1,0,0:0:0:0:
320,192,152057,128,0,152224:0:0:0:0:
64,192,152057,1,0,0:0:0:0:
192,192,152224,128,0,152391:0:0:0:0:
448,192,152391,1,0,0:0:0:0:
64,192,152557,1,0,0:0:0:0:
192,192,152724,128,0,152891:0:0:0:0:
448,192,152724,1,0,0:0:0:0:
320,192,152891,128,0,153057:0:0:0:0:
64,192,153057,1,0,0:0:0:0:
192,192,153224,1,0,0:0:0:0:
448,192,153391,128,0,153557:0:0:0:0:
192,192,153391,1,0,0:0:0:0:
64,192,153557,128,0,153724:0:0:0:0:
320,192,153557,1,0,0:0:0:0:
320,192,153724,128,0,154057:0:0:0:0:
448,192,153891,1,0,0:0:0:0:
64,192,154057,128,0,154224:0:0:0:0:
192,192,154057,128,0,154391:0:0:0:0:
448,192,154224,128,0,154391:0:0:0:0:
320,192,154391,128,0,154724:0:0:0:0:
64,192,154557,1,0,0:0:0:0:
448,192,154724,1,0,0:0:0:0:
320,192,154891,1,0,0:0:0:0:
192,192,155057,1,0,0:0:0:0:
64,192,155224,1,0,0:0:0:0:
320,192,155391,1,0,0:0:0:0:
192,192,155557,1,0,0:0:0:0:
320,192,155724,1,0,0:0:0:0:
448,192,155807,1,0,0:0:0:0:
320,192,155891,1,0,0:0:0:0:
192,192,155974,1,0,0:0:0:0:
64,192,156057,1,0,0:0:0:0:
64,192,156224,1,0,0:0:0:0:
64,192,156307,1,0,0:0:0:0:
64,192,156391,1,0,0:0:0:0:
64,192,156474,1,0,0:0:0:0:
64,192,156557,1,0,0:0:0:0:
64,192,156641,1,0,0:0:0:0:
64,192,156724,1,0,0:0:0:0:
320,192,156724,1,0,0:0:0:0:
192,192,156891,1,0,0:0:0:0:
448,192,157057,1,0,0:0:0:0:
192,192,157057,1,0,0:0:0:0:
320,192,157224,1,0,0:0:0:0:
64,192,157391,1,0,0:0:0:0:
320,192,157391,1,0,0:0:0:0:
192,192,157557,1,0,0:0:0:0:
192,192,157724,1,0,0:0:0:0:
448,192,157724,1,0,0:0:0:0:
320,192,157891,1,0,0:0:0:0:
64,192,158057,1,0,0:0:0:0:
448,192,158057,1,0,0:0:0:0:
64,192,158224,1,0,0:0:0:0:
192,192,158391,1,0,0:0:0:0:
320,192,158391,1,0,0:0:0:0:
448,192,158557,1,0,0:0:0:0:
64,192,158724,1,0,0:0:0:0:
448,192,158724,1,0,0:0:0:0:
192,192,158891,1,0,0:0:0:0:
448,192,159057,1,0,0:0:0:0:
320,192,159224,1,0,0:0:0:0:
448,192,159391,1,0,0:0:0:0:
64,192,159391,1,0,0:0:0:0:
320,192,159557,1,0,0:0:0:0:
64,192,159724,1,0,0:0:0:0:
192,192,159891,1,0,0:0:0:0:
64,192,160057,1,0,0:0:0:0:
448,192,160057,1,0,0:0:0:0:
192,192,160224,1,0,0:0:0:0:
192,192,160391,1,0,0:0:0:0:
320,192,160557,1,0,0:0:0:0:
448,192,160724,1,0,0:0:0:0:
64,192,160724,1,0,0:0:0:0:
320,192,160891,1,0,0:0:0:0:
192,192,161057,1,0,0:0:0:0:
320,192,161224,1,0,0:0:0:0:
64,192,161391,1,0,0:0:0:0:
192,192,161557,1,0,0:0:0:0:
320,192,161724,1,0,0:0:0:0:
448,192,161891,1,0,0:0:0:0:
192,192,162057,1,0,0:0:0:0:
320,192,162057,1,0,0:0:0:0:
448,192,162224,1,0,0:0:0:0:
320,192,162391,1,0,0:0:0:0:
192,192,162391,1,0,0:0:0:0:
64,192,162557,1,0,0:0:0:0:
448,192,162724,1,0,0:0:0:0:
320,192,162891,1,0,0:0:0:0:
192,192,163057,1,0,0:0:0:0:
64,192,163224,1,0,0:0:0:0:
192,192,163391,1,0,0:0:0:0:
320,192,163391,1,0,0:0:0:0:
64,192,163557,1,0,0:0:0:0:
192,192,163724,1,0,0:0:0:0:
320,192,163724,1,0,0:0:0:0:
448,192,163891,1,0,0:0:0:0:
64,192,164057,128,0,164391:0:0:0:0:
192,192,164057,1,0,0:0:0:0:
192,192,164391,128,0,164724:0:0:0:0:
320,192,164391,1,0,0:0:0:0:
448,192,164557,1,0,0:0:0:0:
64,192,164724,128,0,164891:0:0:0:0:
320,192,164724,1,0,0:0:0:0:
192,192,164891,128,0,165057:0:0:0:0:
320,192,164891,1,0,0:0:0:0:
320,192,165057,128,0,165391:0:0:0:0:
448,192,165057,1,0,0:0:0:0:
64,192,165224,1,0,0:0:0:0:
192,192,165391,1,0,0:0:0:0:
64,192,165391,1,0,0:0:0:0:
448,192,165557,1,0,0:0:0:0:
64,192,165724,1,0,0:0:0:0:
192,192,165724,1,0,0:0:0:0:
64,192,165891,1,0,0:0:0:0:
192,192,165891,1,0,0:0:0:0:
448,192,166057,1,0,0:0:0:0:
448,192,166391,1,0,0:0:0:0:
448,192,166724,1,0,0:0:0:70:drum-hitfinish.wav
64,192,168057,1,0,0:0:0:0:
192,192,168224,1,0,0:0:0:0:
64,192,168391,1,0,0:0:0:0:
192,192,168557,1,0,0:0:0:0:
64,192,168724,1,0,0:0:0:0:
320,192,168891,1,0,0:0:0:0:
64,192,169057,1,0,0:0:0:0:
320,192,169224,1,0,0:0:0:0:
64,192,169391,1,0,0:0:0:0:
448,192,169391,1,0,0:0:0:0:
192,192,169724,1,0,0:0:0:0:
320,192,169724,1,0,0:0:0:0:
64,192,169891,1,0,0:0:0:0:
448,192,169891,1,0,0:0:0:0:
192,192,170057,1,0,0:0:0:0:
320,192,170057,1,0,0:0:0:0:
192,192,170391,1,0,0:0:0:0:
320,192,170391,1,0,0:0:0:0:
64,192,170557,1,0,0:0:0:0:
448,192,170557,1,0,0:0:0:0:
192,192,170724,1,0,0:0:0:0:
320,192,170724,1,0,0:0:0:0:
192,192,171057,1,0,0:0:0:0:
320,192,171057,1,0,0:0:0:0:
64,192,171224,1,0,0:0:0:0:
448,192,171224,1,0,0:0:0:0:
320,192,171391,1,0,0:0:0:0:
64,192,171391,1,0,0:0:0:0:
192,192,171557,1,0,0:0:0:0:
448,192,171557,1,0,0:0:0:0:
320,192,171724,1,0,0:0:0:0:
64,192,171724,1,0,0:0:0:0:
192,192,171891,1,0,0:0:0:0:
448,192,171891,1,0,0:0:0:0:
320,192,172057,1,0,0:0:0:0:
64,192,172057,1,0,0:0:0:0:
192,192,172141,1,0,0:0:0:0:
64,192,172224,1,0,0:0:0:0:
192,192,172391,1,0,0:0:0:0:
448,192,172391,1,0,0:0:0:0:
320,192,172474,1,0,0:0:0:0:
448,192,172557,1,0,0:0:0:0:
192,192,172724,1,0,0:0:0:0:
320,192,172724,1,0,0:0:0:0:
64,192,172891,1,0,0:0:0:0:
448,192,172974,1,0,0:0:0:0:
64,192,173057,1,0,0:0:0:0:
320,192,173057,1,0,0:0:0:0:
448,192,173224,1,0,0:0:0:0:
64,192,173307,1,0,0:0:0:0:
448,192,173391,1,0,0:0:0:0:
192,192,173391,1,0,0:0:0:0:
64,192,173557,1,0,0:0:0:0:
448,192,173557,1,0,0:0:0:0:
192,192,173724,1,0,0:0:0:0:
448,192,173891,1,0,0:0:0:0:
64,192,173891,1,0,0:0:0:0:
320,192,174057,1,0,0:0:0:0:
64,192,174224,1,0,0:0:0:0:
192,192,174391,1,0,0:0:0:0:
320,192,174391,1,0,0:0:0:0:
448,192,174557,1,0,0:0:0:0:
64,192,174724,128,0,175057:0:0:0:0:
320,192,174807,1,0,0:0:0:0:
448,192,174891,1,0,0:0:0:0:
448,192,175057,128,0,175391:0:0:0:0:
192,192,175141,1,0,0:0:0:0:
64,192,175224,1,0,0:0:0:0:
192,192,175391,128,0,175724:0:0:0:0:
64,192,175474,1,0,0:0:0:0:
448,192,175557,1,0,0:0:0:0:
320,192,175724,128,0,176057:0:0:0:0:
448,192,175807,1,0,0:0:0:0:
64,192,175891,1,0,0:0:0:0:
64,192,176057,128,0,176391:0:0:0:0:
192,192,176224,128,0,176391:0:0:0:0:
320,192,176391,1,0,0:0:0:0:
64,192,176557,1,0,0:0:0:0:
448,192,176724,128,0,177057:0:0:0:0:
320,192,176891,128,0,177057:0:0:0:0:
192,192,177057,1,0,0:0:0:0:
448,192,177224,1,0,0:0:0:0:
64,192,177391,1,0,0:0:0:0:
192,192,177474,1,0,0:0:0:0:
320,192,177557,1,0,0:0:0:0:
448,192,177641,1,0,0:0:0:0:
192,192,177724,128,0,177891:0:0:0:0:
320,192,177724,128,0,177891:0:0:0:0:
448,192,177891,1,0,0:0:0:0:
320,192,177974,1,0,0:0:0:0:
192,192,178057,1,0,0:0:0:0:
64,192,178141,1,0,0:0:0:0:
192,192,178224,128,0,178391:0:0:0:0:
320,192,178224,128,0,178391:0:0:0:0:
64,192,178391,1,0,0:0:0:0:
192,192,178474,1,0,0:0:0:0:
320,192,178557,1,0,0:0:0:0:
448,192,178641,1,0,0:0:0:0:
192,192,178724,128,0,178891:0:0:0:0:
320,192,178724,128,0,178891:0:0:0:0:
448,192,178891,1,0,0:0:0:0:
320,192,178974,1,0,0:0:0:0:
192,192,179057,1,0,0:0:0:0:
64,192,179141,1,0,0:0:0:0:
192,192,179224,1,0,0:0:0:0:
320,192,179224,1,0,0:0:0:0:
320,192,179391,128,0,179557:0:0:0:0:
64,192,179391,1,0,0:0:0:0:
448,192,179391,1,0,0:0:0:0:
192,192,179391,128,0,179557:0:0:0:0:
192,192,179724,128,0,180057:0:0:0:0:
320,192,179724,128,0,180057:0:0:0:0:
64,192,180057,1,0,0:0:0:0:
448,192,180057,128,0,180391:0:0:0:0:
320,192,180391,1,0,0:0:0:0:
64,192,180557,128,0,180891:0:0:0:0:
192,192,180557,1,0,0:0:0:0:
192,192,180891,1,0,0:0:0:0:
320,192,180974,1,0,0:0:0:0:
192,192,181057,1,0,0:0:0:0:
320,192,181141,1,0,0:0:0:0:
192,192,181224,1,0,0:0:0:0:
320,192,181307,1,0,0:0:0:0:
64,192,181391,128,0,181724:0:0:0:0:
192,192,181391,1,0,0:0:0:0:
192,192,181724,1,0,0:0:0:0:
448,192,181891,128,0,182224:0:0:0:0:
320,192,181891,1,0,0:0:0:0:
320,192,182224,1,0,0:0:0:0:
192,192,182307,1,0,0:0:0:0:
320,192,182391,1,0,0:0:0:0:
192,192,182474,1,0,0:0:0:0:
320,192,182557,1,0,0:0:0:0:
192,192,182641,1,0,0:0:0:0:
448,192,182724,128,0,183057:0:0:0:0:
320,192,182724,1,0,0:0:0:0:
320,192,183057,1,0,0:0:0:0:
64,192,183224,128,0,183557:0:0:0:0:
192,192,183224,1,0,0:0:0:0:
192,192,183557,1,0,0:0:0:0:
320,192,183641,1,0,0:0:0:0:
192,192,183724,1,0,0:0:0:0:
320,192,183807,1,0,0:0:0:0:
192,192,183891,1,0,0:0:0:0:
320,192,183974,1,0,0:0:0:0:
448,192,184057,1,0,0:0:0:0:
192,192,184057,128,0,184224:0:0:0:0:
64,192,184224,1,0,0:0:0:0:
320,192,184224,128,0,184391:0:0:0:0:
448,192,184391,1,0,0:0:0:0:
64,192,184391,128,0,184557:0:0:0:0:
192,192,184557,1,0,0:0:0:0:
448,192,184557,128,0,184724:0:0:0:0:
320,192,184724,1,0,0:0:0:0:
64,192,184724,128,0,185057:0:0:0:0:
192,192,184891,128,0,185057:0:0:0:0:
320,192,184891,1,0,0:0:0:0:
448,192,185057,128,0,185391:0:0:0:0:
320,192,185224,128,0,185391:0:0:0:0:
192,192,185224,1,0,0:0:0:0:
64,192,185391,1,0,0:0:0:0:
192,192,185557,1,0,0:0:0:0:
64,192,185724,1,0,0:0:0:0:
192,192,185891,1,0,0:0:0:0:
320,192,186057,1,0,0:0:0:0:
64,192,186057,1,0,0:0:0:0:
192,192,186057,128,0,186391:0:0:0:0:
448,192,186391,1,0,0:0:0:0:
320,192,186557,1,0,0:0:0:0:
192,192,186724,1,0,0:0:0:0:
448,192,186724,1,0,0:0:0:0:
320,192,186724,128,0,187057:0:0:0:0:
64,192,187057,1,0,0:0:0:0:
192,192,187224,1,0,0:0:0:0:
320,192,187391,1,0,0:0:0:0:
64,192,187391,1,0,0:0:0:0:
448,192,187557,1,0,0:0:0:0:
64,192,187724,1,0,0:0:0:0:
320,192,187724,1,0,0:0:0:0:
192,192,187891,1,0,0:0:0:0:
320,192,188057,1,0,0:0:0:0:
64,192,188057,1,0,0:0:0:0:
192,192,188224,1,0,0:0:0:0:
448,192,188224,1,0,0:0:0:0:
320,192,188391,1,0,0:0:0:0:
64,192,188391,1,0,0:0:0:0:
448,192,188557,1,0,0:0:0:0:
192,192,188557,1,0,0:0:0:0:
64,192,188724,1,0,0:0:0:0:
320,192,188724,1,0,0:0:0:0:
64,192,188891,1,0,0:0:0:0:
320,192,188891,1,0,0:0:0:0:
192,192,189057,1,0,0:0:0:0:
448,192,189057,1,0,0:0:0:0:
192,192,189224,1,0,0:0:0:0:
448,192,189224,1,0,0:0:0:0:
64,192,189224,128,0,189724:0:0:0:0:
320,192,189391,1,0,0:0:0:0:
448,192,189557,1,0,0:0:0:0:
192,192,189724,1,0,0:0:0:0:
64,192,189891,1,0,0:0:0:0:
192,192,190057,1,0,0:0:0:0:
320,192,190224,1,0,0:0:0:0:
448,192,190391,1,0,0:0:0:0:
320,192,190557,1,0,0:0:0:0:
64,192,190724,128,0,191391:0:0:0:0:
192,192,190724,128,0,191057:0:0:0:0:
448,192,190724,128,0,191391:0:0:0:0:
320,192,191057,1,0,0:0:0:0:
192,192,191391,1,0,0:0:0:0:
320,192,191557,1,0,0:0:0:0:
448,192,191724,1,0,0:0:0:0:
64,192,191724,128,0,191891:0:0:0:0:
192,192,191724,128,0,192057:0:0:0:0:
448,192,192057,128,0,192224:0:0:0:0:
64,192,192057,1,0,0:0:0:0:
320,192,192057,128,0,192391:0:0:0:0:
64,192,192391,1,0,0:0:0:0:
64,192,192557,1,0,0:0:0:0:
64,192,192724,1,0,0:0:0:0:
64,192,192891,1,0,0:0:0:0:
192,192,192891,1,0,0:0:0:0:
64,192,193057,1,0,0:0:0:0:
192,192,193057,1,0,0:0:0:0:
64,192,193224,1,0,0:0:0:0:
192,192,193224,1,0,0:0:0:0:
64,192,193391,1,0,0:0:0:0:
192,192,193391,1,0,0:0:0:0:
448,192,193724,1,0,0:0:0:0:
320,192,193891,1,0,0:0:0:0:
192,192,193974,1,0,0:0:0:0:
64,192,194057,1,0,0:0:0:0:
320,192,194057,1,0,0:0:0:0:
448,192,194224,1,0,0:0:0:0:
64,192,194391,1,0,0:0:0:0:
192,192,194557,1,0,0:0:0:0:
320,192,194641,1,0,0:0:0:0:
448,192,194724,1,0,0:0:0:0:
192,192,194724,1,0,0:0:0:0:
64,192,194807,1,0,0:0:0:0:
192,192,194891,1,0,0:0:0:0:
320,192,194974,1,0,0:0:0:0:
448,192,195057,1,0,0:0:0:0:
320,192,195141,1,0,0:0:0:0:
192,192,195224,1,0,0:0:0:0:
64,192,195307,1,0,0:0:0:0:
448,192,195391,1,0,0:0:0:0:
320,192,195474,1,0,0:0:0:0:
192,192,195557,1,0,0:0:0:0:
64,192,195641,1,0,0:0:0:0:
192,192,195724,1,0,0:0:0:0:
320,192,195807,1,0,0:0:0:0:
448,192,195891,1,0,0:0:0:0:
192,192,196057,1,0,0:0:0:0:
320,192,196057,1,0,0:0:0:0:
64,192,196224,1,0,0:0:0:0:
320,192,196391,1,0,0:0:0:0:
192,192,196391,1,0,0:0:0:0:
448,192,196557,1,0,0:0:0:0:
192,192,196724,1,0,0:0:0:0:
320,192,196724,1,0,0:0:0:0:
64,192,196891,1,0,0:0:0:0:
448,192,196974,1,0,0:0:0:0:
192,192,197057,1,0,0:0:0:0:
320,192,197057,1,0,0:0:0:0:
448,192,197224,1,0,0:0:0:0:
64,192,197307,1,0,0:0:0:0:
192,192,197391,1,0,0:0:0:0:
320,192,197391,1,0,0:0:0:0:
448,192,197557,1,0,0:0:0:0:
192,192,197641,1,0,0:0:0:0:
64,192,197724,1,0,0:0:0:0:
448,192,197724,1,0,0:0:0:0:
64,192,197891,1,0,0:0:0:0:
320,192,197974,1,0,0:0:0:0:
64,192,198057,1,0,0:0:0:0:
448,192,198057,1,0,0:0:0:0:
192,192,198141,1,0,0:0:0:0:
320,192,198224,1,0,0:0:0:0:
448,192,198307,1,0,0:0:0:0:
320,192,198391,1,0,0:0:0:0:
192,192,198474,1,0,0:0:0:0:
64,192,198557,1,0,0:0:0:0:
320,192,198724,1,0,0:0:0:0:
192,192,198724,1,0,0:0:0:0:
448,192,198891,1,0,0:0:0:0:
448,192,199057,1,0,0:0:0:0:
64,192,199057,1,0,0:0:0:0:
64,192,199224,1,0,0:0:0:0:
192,192,199391,1,0,0:0:0:0:
320,192,199391,1,0,0:0:0:0:
448,192,199557,1,0,0:0:0:0:
320,192,199724,1,0,0:0:0:0:
192,192,199724,1,0,0:0:0:0:
64,192,199891,1,0,0:0:0:0:
192,192,200057,1,0,0:0:0:0:
320,192,200057,1,0,0:0:0:0:
448,192,200224,1,0,0:0:0:0:
320,192,200307,1,0,0:0:0:0:
192,192,200391,1,0,0:0:0:0:
192,192,200557,1,0,0:0:0:0:
320,192,200641,1,0,0:0:0:0:
448,192,200724,1,0,0:0:0:0:
64,192,200891,1,0,0:0:0:0:
192,192,200974,1,0,0:0:0:0:
320,192,201057,1,0,0:0:0:0:
320,192,201224,1,0,0:0:0:0:
192,192,201307,1,0,0:0:0:0:
64,192,201391,1,0,0:0:0:0:
448,192,201391,1,0,0:0:0:0:
192,192,201557,1,0,0:0:0:0:
320,192,201724,1,0,0:0:0:0:
192,192,201724,1,0,0:0:0:0:
320,192,201891,1,0,0:0:0:0:
64,192,202057,1,0,0:0:0:0:
448,192,202057,1,0,0:0:0:0:
64,192,202224,1,0,0:0:0:0:
192,192,202391,1,0,0:0:0:0:
320,192,202391,1,0,0:0:0:0:
448,192,202557,1,0,0:0:0:0:
448,192,202724,1,0,0:0:0:0:
320,192,202807,1,0,0:0:0:0:
192,192,202891,1,0,0:0:0:0:
64,192,202974,1,0,0:0:0:0:
192,192,203057,1,0,0:0:0:0:
320,192,203141,1,0,0:0:0:0:
448,192,203224,1,0,0:0:0:0:
192,192,203391,1,0,0:0:0:0:
320,192,203391,1,0,0:0:0:0:
64,192,203391,128,0,203557:0:0:0:0:
192,192,203557,128,0,203724:0:0:0:0:
448,192,203724,128,0,203891:0:0:0:0:
320,192,203891,128,0,204057:0:0:0:0:
64,192,204057,128,0,204391:0:0:0:0:
192,192,204391,1,0,0:0:0:0:
320,192,204557,1,0,0:0:0:0:
448,192,204724,128,0,204891:0:0:0:0:
64,192,204891,1,0,0:0:0:0:
192,192,205057,1,0,0:0:0:0:
448,192,205224,128,0,205391:0:0:0:0:
320,192,205391,128,0,205557:0:0:0:0:
192,192,205557,128,0,205724:0:0:0:0:
64,192,205724,128,0,205891:0:0:0:0:
192,192,205891,128,0,206057:0:0:0:0:
320,192,206057,128,0,206224:0:0:0:0:
448,192,206224,128,0,206391:0:0:0:0:
320,192,206391,1,0,0:0:0:0:
192,192,206557,1,0,0:0:0:0:
64,192,206724,1,0,0:0:0:0:
320,192,206724,1,0,0:0:0:0:
192,192,206891,1,0,0:0:0:0:
64,192,207057,128,0,207224:0:0:0:0:
320,192,207057,128,0,207224:0:0:0:0:
192,192,207224,128,0,207391:0:0:0:0:
448,192,207224,128,0,207391:0:0:0:0:
320,192,207557,1,0,0:0:0:0:
192,192,207641,1,0,0:0:0:0:
64,192,207724,1,0,0:0:0:0:
192,192,207807,1,0,0:0:0:0:
320,192,207891,1,0,0:0:0:0:
448,192,208057,128,0,208224:0:0:0:0:
192,192,208057,128,0,208224:0:0:0:0:
320,192,208224,128,0,208391:0:0:0:0:
64,192,208224,128,0,208391:0:0:0:0:
192,192,208557,1,0,0:0:0:0:
64,192,208724,128,0,208807:0:0:0:0:
192,192,208807,128,0,208891:0:0:0:0:
320,192,208891,128,0,208974:0:0:0:0:
448,192,208974,128,0,209057:0:0:0:0:
320,192,209057,128,0,209141:0:0:0:0:
192,192,209141,128,0,209224:0:0:0:0:
64,192,209224,128,0,209307:0:0:0:0:
448,192,209391,128,0,209725:0:0:0:0:
320,192,209725,1,0,0:0:0:0:
192,192,209891,1,0,0:0:0:0:
64,192,210057,128,0,210224:0:0:0:0:
448,192,210225,1,0,0:0:0:0:
320,192,210391,1,0,0:0:0:0:
64,192,210557,128,0,210724:0:0:0:0:
192,192,210725,128,0,210891:0:0:0:0:
320,192,210891,128,0,211058:0:0:0:0:
448,192,211058,128,0,211225:0:0:0:0:
320,192,211225,128,0,211391:0:0:0:0:
192,192,211391,128,0,211558:0:0:0:0:
64,192,211558,128,0,211725:0:0:0:0:
192,192,211725,1,0,0:0:0:0:
320,192,211891,1,0,0:0:0:0:
64,192,212057,128,0,212391:0:0:0:0:
448,192,212058,1,0,0:0:0:0:
192,192,212058,1,0,0:0:0:0:
192,192,212391,128,0,212557:0:0:0:0:
320,192,212557,128,0,212641:0:0:0:0:
448,192,212641,128,0,212724:0:0:0:0:
320,192,212724,128,0,212807:0:0:0:0:
192,192,212807,128,0,212974:0:0:0:0:
64,192,212974,128,0,213391:0:0:0:0:
192,192,213391,1,0,0:0:0:0:
448,192,213391,1,0,0:0:0:0:
448,192,213557,128,0,214391:2:0:0:0:
320,192,213724,1,0,2:0:0:0:
320,192,213891,1,0,2:0:0:0:
192,192,214057,1,0,2:0:0:0:
320,192,214224,1,0,2:0:0:0:
64,192,214391,1,0,2:0:0:0:
