osu file format v13

[General]
AudioFilename: Reol.mp3
AudioLeadIn: 0
PreviewTime: 56000
Countdown: 0
SampleSet: None
StackLeniency: 0.7
Mode: 0
LetterboxInBreaks: 0
WidescreenStoryboard: 1

[Editor]
Bookmarks: 156057
DistanceSpacing: 1
BeatDivisor: 4
GridSize: 4
TimelineZoom: 2.2

[Metadata]
Title:+Danshi
TitleUnicode:+Danshi
Artist:Reol
ArtistUnicode:れをる
Creator:lZenxl
Version:Pap's Easy
Source:
Tags:GigaP neonat Tagre Plus Boy Hinsvar Fort Papcio [I]MMoRTal[S] mike91lau Player_X Soldsaga_KunG Okoratu
BeatmapID:434942
BeatmapSetID:165991

[Difficulty]
HPDrainRate:2
CircleSize:2
OverallDifficulty:2
ApproachRate:3
SliderMultiplier:0.899999999999999
SliderTickRate:1

[Events]
//Background and Video events
0,0,"BG.png",0,0
Video,0,"new.avi"
//Break Periods
2,48257,54617
2,102923,111284
2,134923,143951
//Storyboard Layer 0 (Background)
//Storyboard Layer 1 (Fail)
//Storyboard Layer 2 (Pass)
//Storyboard Layer 3 (Foreground)
//Storyboard Sound Samples
//Background Colour Transformations
3,100,163,162,255

[TimingPoints]
12058,333.333333333333,4,1,1,50,1,0
56057,-100,4,1,1,50,0,0
57391,-100,4,2,1,80,0,1
67391,-100,4,2,1,80,0,0
68057,-100,4,2,1,80,0,1
78724,-100,4,2,1,80,0,0
80724,-100,4,2,1,80,0,0
81391,-100,4,2,1,80,0,0
102724,-166.666666666667,4,2,1,80,0,0
112807,-166.666666666667,4,2,1,80,0,0
113391,-100,4,2,1,80,0,1
123391,-100,4,2,1,80,0,0
124057,-100,4,2,1,80,0,1
134724,-166.666666666667,4,2,1,80,0,0
145391,-100,4,2,1,80,0,1
145412,-100,4,2,1,80,0,0
166724,-100,4,2,1,30,0,0
168557,-100,4,2,1,40,0,0
168724,-100,4,2,1,50,0,0
168891,-100,4,2,1,60,0,0
169057,-100,4,2,1,70,0,0
169224,-100,4,2,1,80,0,0
169391,-100,4,2,1,80,0,1
179391,-90.9090909090909,4,2,1,80,0,0
180057,-90.9090909090909,4,2,1,80,0,1
190724,-100,4,2,1,80,0,0
193057,-100,4,2,1,80,0,0

[Colours]
Combo1 : 245,167,230
Combo2 : 253,232,113
Combo3 : 245,184,150
Combo4 : 135,186,243

[HitObjects]
256,192,12058,12,8,13391,0:0:0:0:
256,76,14058,5,8,0:0:0:0:
416,160,14724,2,0,B|372:176|344:160|344:160|300:212,2,135,4|0|8,0:0|0:0|0:0,0:0:0:0:
380,76,16058,6,0,P|336:32|300:28,1,89.9999999999999,0|8,0:0|0:0,0:0:0:0:
224,56,16724,2,0,B|196:108|136:104|136:104|112:192,1,180,0|0,0:0|0:0,0:0:0:0:
84,260,17724,1,8,0:0:0:0:
256,204,18391,5,8,0:0:0:0:
320,140,18724,2,0,P|344:200|276:292,2,180,0|0|0,0:0|0:0|0:0,0:0:0:0:
284,56,20391,6,0,B|236:76|208:116|208:116|196:132|164:156|120:132,1,180,8|8,0:0|0:0,0:0:0:0:
60,188,21391,2,0,P|72:248|56:288,2,89.9999999999999,0|8|0,0:0|0:0|0:0,0:0:0:0:
256,192,22724,12,0,24057,0:0:0:0:
272,104,24724,6,0,B|216:160|296:220|232:284,2,180,0|4|4,0:0|0:3|0:3,0:0:0:0:
428,192,26724,6,0,P|424:236|440:292,1,89.9999999999999,4|4,0:3|0:3,0:0:0:0:
500,344,27391,2,0,P|456:312|320:328,1,180,4|0,0:3|0:3,0:0:0:0:
256,272,28391,1,4,0:3:0:0:
176,317,28724,2,0,P|89:301|12:344,2,180,4|4|4,0:3|0:3|0:3,0:0:0:0:
248,156,30724,2,0,B|290:188|281:245|281:245|364:224,1,180,4|4,0:3|0:3,0:0:0:0:
280,64,32057,2,0,P|232:60|192:76,2,89.9999999999999,4|4|4,0:3|0:3|0:3,0:0:0:0:
340,132,33057,6,0,L|404:120,2,45,4|0|4,0:3|0:0|0:3,0:0:0:0:
159,132,34057,1,4,0:3:0:0:
286,259,34724,2,0,B|240:276|240:276|200:312,2,89.9999999999999,4|4|4,0:3|0:3|0:3,0:0:0:0:
344,192,35724,1,4,0:3:0:0:
352,104,36057,6,0,B|296:104|270:144|270:144|192:80,1,180,4|4,0:3|0:3,0:0:0:0:
140,154,37057,2,0,L|216:231,2,89.9999999999999,4|4|4,0:3|0:3|0:3,0:0:0:0:
76,217,38057,2,0,B|129:282|129:282|89:308|89:364,2,180,4|4|4,0:3|0:3|0:3,0:0:0:0:
256,188,40057,6,0,P|288:160|348:152,2,89.9999999999999,4|4|4,0:3|0:3|0:3,0:0:0:0:
200,256,41057,1,4,0:3:0:0:
280,296,41391,6,0,P|216:344|127:310,1,180,4|4,0:3|0:3,0:0:0:0:
80,236,42391,1,4,0:3:0:0:
156,192,42724,6,0,P|230:221|307:165,1,180,4|4,0:3|0:3,0:0:0:0:
333,82,43724,1,4,0:3:0:0:
404,24,44057,6,0,B|436:72|416:120|416:120|468:188,2,180,4|4|4,0:3|0:3|0:3,0:0:0:0:
332,80,45724,2,0,P|264:124|256:144,1,89.9999999999999,4|4,0:3|0:3,0:0:0:0:
100,48,46724,6,0,B|72:124|112:160|156:208|228:164|260:128|260:128|296:144|304:212,1,360,4|0,0:0|0:0,0:0:0:0:
256,128,56057,5,4,0:3:0:0:
256,128,57391,6,0,P|272:176|316:208,1,89.9999999999999,4|8,0:0|0:0,0:0:0:0:
376,152,58057,2,0,P|384:236|304:292,1,180,0|0,0:0|0:0,0:0:0:0:
160,196,59391,2,0,P|116:184|64:204,1,89.9999999999999,0|8,0:0|0:0,0:0:0:0:
120,276,60057,6,0,L|108:88,2,180,0|0|0,0:0|0:0|0:0,0:0:0:0:
204,312,61724,1,8,0:0:0:0:
288,276,62057,2,0,P|348:296|384:284,1,89.9999999999999,0|8,0:0|0:0,0:0:0:0:
344,204,62724,6,0,P|256:180|180:236,2,180,0|0|0,0:0|0:0|0:0,0:0:0:0:
432,100,64557,1,0,0:0:0:0:
388,20,64891,2,0,P|364:36|348:60,1,45,0|8,0:0|0:0,0:0:0:0:
272,88,65391,6,0,P|180:112|116:168,2,180,0|0|4,0:0|0:0|0:3,0:0:0:0:
360,96,67057,1,4,0:3:0:0:
420,160,67391,2,0,P|444:208|488:224,1,89.9999999999999,2|2,0:0|0:0,0:0:0:0:
456,312,68057,6,0,P|384:308|352:244,2,135,4|0|8,0:0|0:0|0:0,0:0:0:0:
436,224,69391,2,0,L|352:108,2,135,0|0|8,0:0|0:0|0:0,0:0:0:0:
353,259,70724,6,0,L|241:168,2,135,0|0|8,0:0|0:0|0:0,0:0:0:0:
172,244,72391,1,8,0:0:0:0:
96,196,72724,2,0,P|104:152|92:96,1,89.9999999999999,0|8,0:0|0:0,0:0:0:0:
168,56,73391,6,0,B|196:88|248:72|248:72|312:148,2,180,4|0|8,0:0|0:0|0:0,0:0:0:0:
108,124,75057,1,0,0:0:0:0:
100,212,75391,1,0,0:0:0:0:
188,232,75724,1,0,0:0:0:0:
188,232,76057,6,0,B|224:272|280:260|280:260|352:324,1,180,0|0,0:0|0:0,0:0:0:0:
392,188,77224,2,0,P|348:148|368:80,1,135,0|8,0:0|0:3,0:0:0:0:
452,108,78057,2,0,P|484:148|488:200,2,89.9999999999999,8|8|4,0:3|0:3|0:3,0:0:0:0:
268,40,80724,5,0,0:0:0:0:
256,220,81391,5,2,0:3:0:0:
136,84,82057,2,0,B|128:140|180:168|180:168|188:212|164:252,1,180,4|4,0:3|0:3,0:0:0:0:
256,264,83057,1,0,0:0:0:0:
344,248,83391,2,0,B|324:216|332:172|332:172|384:144|376:88,1,180,4|4,0:3|0:3,0:0:0:0:
288,92,84391,2,0,P|256:120|244:180,1,89.9999999999999,4|4,0:3|0:3,0:0:0:0:
420,108,85391,5,0,0:0:0:0:
420,108,85724,2,0,P|444:160|380:268,1,180,4|4,0:3|0:3,0:0:0:0:
304,244,86724,2,0,L|208:268,1,89.9999999999999,4|4,0:3|0:3,0:0:0:0:
88,140,87724,1,4,0:3:0:0:
132,60,88057,6,0,B|168:80|176:124|176:124|280:160,1,180,4|4,0:3|0:3,0:0:0:0:
428,68,89391,2,0,P|416:140|428:168,1,89.9999999999999,4|4,0:3|0:3,0:0:0:0:
384,236,90057,2,0,P|364:300|332:320,2,89.9999999999999,4|4|4,0:3|0:3|0:3,0:0:0:0:
232,140,91391,6,0,B|288:128|288:128|336:132,2,89.9999999999999,4|4|4,0:3|0:3|0:3,0:0:0:0:
120,280,92724,1,4,0:3:0:0:
300,296,93391,1,4,0:3:0:0:
376,252,93724,2,0,P|432:252|468:236,1,89.9999999999999,4|4,0:3|0:3,0:0:0:0:
292,188,94724,6,0,P|272:272|340:352,1,180,4|4,0:3|0:3,0:0:0:0:
412,324,95724,1,4,0:3:0:0:
440,240,96057,6,0,P|460:156|392:76,2,180,4|4|4,0:3|0:3|0:3,0:0:0:0:
264,204,98057,1,4,0:3:0:0:
192,148,98391,2,0,P|172:184|184:244,1,89.9999999999999,4|4,0:3|0:3,0:0:0:0:
232,60,99391,6,0,P|143:63|96:144,2,180,4|4|4,0:3|0:3|0:3,0:0:0:0:
316,92,101057,2,0,P|352:128|400:132,1,89.9999999999999,4|4,0:3|0:3,0:0:0:0:
468,180,101724,6,0,B|436:228|388:224|388:224|420:316|508:356,1,270,4|2,0:3|0:3,0:0:0:0:
256,88,112724,5,4,0:3:0:0:
256,88,113391,6,0,P|268:136|252:192,1,89.9999999999999,4|8,0:0|0:0,0:0:0:0:
192,232,114057,2,0,P|212:300|276:316,1,135,0|0,0:0|0:0,0:0:0:0:
296,352,114724,2,0,B|344:308|344:308|384:316|420:288,1,135,0|0,0:0|0:0,0:0:0:0:
440,260,115391,6,0,P|424:200|440:168,1,89.9999999999999,0|8,0:0|0:0,0:0:0:0:
412,88,116057,2,0,P|340:128|256:72,2,180,0|0|0,0:0|0:0|0:0,0:0:0:0:
480,148,117724,1,8,0:0:0:0:
432,224,118057,2,0,L|448:284,2,45,0|0|8,0:0|0:0|0:0,0:0:0:0:
340,220,118724,6,0,B|341:275|378:299|378:299|320:368,2,180,0|0|0,0:0|0:0|0:0,0:0:0:0:
324,176,120224,2,0,P|284:128|200:128,1,135,0|0,0:0|0:0,0:0:0:0:
384,56,121391,6,0,P|408:108|400:152,2,89.9999999999999,0|8|0,0:0|0:0|0:0,0:0:0:0:
296,44,122391,1,8,0:0:0:0:
292,132,122724,2,0,P|282:188|301:228,1,89.9999999999999,4|4,0:3|0:3,0:0:0:0:
384,232,123391,5,2,0:0:0:0:
384,232,124057,6,0,B|360:168|408:168|384:80,2,135,4|0|8,0:0|0:0|0:0,0:0:0:0:
300,264,125391,2,0,B|211:246|211:246|160:260,2,135,0|0|8,0:0|0:0|0:0,0:0:0:0:
340,344,126724,6,0,P|404:364|412:300,2,135,0|0|8,0:0|0:0|0:0,0:0:0:0:
272,284,128057,6,0,P|176:264|112:316,2,180,0|0|4,0:0|0:0|0:0,0:0:0:0:
352,240,129724,2,0,L|396:192,2,45,8|0|0,0:0|0:0|0:0,0:0:0:0:
216,120,130724,2,0,P|144:112|112:124,1,89.9999999999999,0|8,0:0|0:0,0:0:0:0:
44,84,131391,2,0,P|84:148|32:240,1,180,0|0,0:0|0:0,0:0:0:0:
256,192,132224,12,0,133391,0:0:0:0:
256,72,134057,6,0,P|292:88|304:224,1,180,4|4,0:3|0:0,0:0:0:0:
60,96,145391,5,4,0:0:0:0:
228,164,146057,2,0,P|252:172|320:168,1,89.9999999999999,0|8,0:0|0:0,0:0:0:0:
404,152,146724,5,0,0:0:0:0:
259,261,147390,2,0,P|237:274|171:288,1,89.9999999999999,0|8,0:0|0:0,0:0:0:0:
108,348,148057,6,0,P|92:252|154:201,1,180,0|0,0:0|0:0,0:0:0:0:
212,140,149057,1,8,0:0:0:0:
248,56,149391,6,0,P|268:108|376:152,1,180,0|0,0:0|0:0,0:0:0:0:
200,184,150724,2,0,B|184:232|156:244|156:244|140:316|192:344,1,180,0|0,0:0|0:0,0:0:0:0:
256,284,151724,1,8,0:0:0:0:
330,337,152057,6,0,B|372:316|356:244|356:244|328:232|312:184,2,180,0|0|0,0:0|0:0|0:0,0:0:0:0:
256,284,153724,1,8,0:0:0:0:
220,200,154057,2,0,P|184:228|164:280,2,89.9999999999999,0|8|4,0:0|0:0|0:3,0:0:0:0:
256,192,154891,12,4,156057,0:0:0:0:
128,80,156724,5,0,0:0:0:0:
128,80,157057,1,8,0:0:0:0:
128,80,157391,2,0,B|80:128|64:192|80:272|176:304|256:256|256:256|304:224|256:160|208:224|256:256|256:256|336:304|432:272|448:192|432:128|384:80,1,809.999999999999,0|8,0:0|0:0,0:0:0:0:
304,48,160724,2,0,B|256:52|256:52|208:48,1,89.9999999999999,0|0,0:0|0:0,0:0:0:0:
128,80,161391,6,0,L|108:184,1,89.9999999999999,0|8,0:0|0:0,0:0:0:0:
72,192,161891,2,0,B|76:216|68:240|68:240|112:252|120:308,1,135,0|8,0:0|0:0,0:0:0:0:
204,268,162724,2,0,P|288:304|360:248,1,180,0|0,0:0|0:0,0:0:0:0:
277,211,163724,1,8,0:0:0:0:
348,156,164057,6,0,P|264:120|192:176,2,180,0|0|4,0:0|0:0|0:3,0:0:0:0:
438,156,165724,1,4,0:3:0:0:
438,245,166057,1,4,0:3:0:0:
347,245,166391,1,8,0:0:0:0:
256,192,166724,12,4,169391,0:0:0:0:
184,68,170057,6,0,P|168:124|52:176,1,180,0|0,0:0|0:0,0:0:0:0:
12,252,171057,2,0,P|28:308|68:332,2,89.9999999999999,8|0|8,0:0|0:0|0:0,0:0:0:0:
104,248,172057,6,0,P|160:288|136:388,2,180,0|0|0,0:0|0:0|0:0,0:0:0:0:
84,160,173724,1,8,0:0:0:0:
152,100,174057,2,0,P|128:84|100:72,2,45,0|0|8,0:0|0:0|0:0,0:0:0:0:
236,68,174724,6,0,B|276:76|312:48|312:48|396:128,2,180,0|0|0,0:0|0:0|0:0,0:0:0:0:
100,60,176557,2,0,P|128:136|112:192,1,135,0|8,0:0|0:0,0:0:0:0:
40,236,177391,6,0,L|176:276,2,135,0|0|8,0:0|0:0|0:0,0:0:0:0:
44,144,178724,2,0,B|100:160|100:160|136:144,1,89.9999999999999,4|4,0:3|0:3,0:0:0:0:
212,92,179391,1,2,0:0:0:0:
228,188,179724,1,2,0:0:0:0:
304,124,180057,6,0,B|328:152|328:192|328:192|400:224,2,148.50000453186,4|0|8,0:0|0:0|0:0,0:0:0:0:
244,44,181391,2,0,B|213:64|203:103|203:103|125:115,2,148.50000453186,0|0|8,0:0|0:0|0:0,0:0:0:0:
342,36,182724,6,0,P|406:56|443:143,2,148.50000453186,0|0|8,0:0|0:0|0:0,0:0:0:0:
256,84,184057,2,0,P|212:128|168:144,1,99.0000030212402,0|8,0:0|0:0,0:0:0:0:
88,104,184724,6,0,P|44:184|116:264,1,198.00000604248,0|4,0:0|0:0,0:0:0:0:
242,120,186057,1,0,0:0:0:0:
382,260,186724,2,0,P|384:156|480:116,1,198.00000604248,0|0,0:0|0:0,0:0:0:0:
468,212,187724,1,8,0:0:0:0:
468,312,188057,6,0,P|380:360|300:320,2,198.00000604248,0|0|0,0:0|0:0|0:0,0:0:0:0:
256,192,189557,12,2,190723,0:0:0:0:
256,192,190891,12,4,193391,0:0:0:0:
