osu file format v13

[General]
AudioFilename: Reol.mp3
AudioLeadIn: 0
PreviewTime: 56000
Countdown: 0
SampleSet: Normal
StackLeniency: 0.7
Mode: 1
LetterboxInBreaks: 0
WidescreenStoryboard: 1

[Editor]
Bookmarks: 156057
DistanceSpacing: 1.1
BeatDivisor: 4
GridSize: 32
TimelineZoom: 2.2

[Metadata]
Title:+Danshi
TitleUnicode:+Danshi
Artist:Reol
ArtistUnicode:れをる
Creator:lZenxl
Version:IMT's Oni
Source:
Tags:GigaP neonat Tagre Plus Boy Hinsvar Fort Papcio [I]MMoRTal[S] mike91lau Player_X Soldsaga_KunG Okoratu
BeatmapID:460953
BeatmapSetID:165991

[Difficulty]
HPDrainRate:5
CircleSize:5
OverallDifficulty:5
ApproachRate:9.9
SliderMultiplier:1.4
SliderTickRate:1

[Events]
//Background and Video events
0,0,"BG.png",0,0
Video,0,"new.avi"
//Break Periods
//Storyboard Layer 0 (Background)
//Storyboard Layer 1 (Fail)
//Storyboard Layer 2 (Pass)
//Storyboard Layer 3 (Foreground)
//Storyboard Sound Samples
//Background Colour Transformations
3,100,163,162,255

[TimingPoints]
12058,333.333333333333,4,1,0,70,1,0
56057,-100,4,1,0,70,0,0
57391,-100,4,1,0,70,0,1
67391,-100,4,1,0,70,0,0
68057,-100,4,1,0,70,0,1
78724,-100,4,1,0,70,0,0
80724,-100,4,1,0,70,0,0
81391,-100,4,1,0,70,0,0
102724,-166.666666666667,4,1,0,70,0,0
112807,-166.666666666667,4,1,0,70,0,0
113391,-100,4,1,0,70,0,1
123391,-100,4,1,0,70,0,0
124057,-100,4,1,0,70,0,1
134724,-166.666666666667,4,1,0,70,0,0
145391,-100,4,1,0,70,0,1
145412,-100,4,1,0,70,0,0
166724,-100,4,1,0,70,0,0
169391,-100,4,1,0,70,0,1
179391,-90.9090909090909,4,1,0,70,0,0
180057,-90.9090909090909,4,1,0,70,0,1
190724,-100,4,1,0,70,0,0
193057,-100,4,1,0,70,0,0

[Colours]
Combo1 : 255,56,21
Combo2 : 0,128,255

[HitObjects]
256,192,10724,12,0,13224,0:0:0:0:
64,64,13391,5,8,0:0:0:0:
64,64,13724,1,8,0:0:0:0:
64,64,14058,1,8,0:0:0:0:
64,64,14224,1,8,0:0:0:0:
64,64,14391,1,4,0:0:0:0:
256,192,14724,1,0,0:0:0:0:
256,192,15058,1,8,0:0:0:0:
192,128,15224,1,0,0:0:0:0:
256,128,15308,1,0,0:0:0:0:
256,192,15391,1,0,0:0:0:0:
320,128,15558,1,0,0:0:0:0:
256,192,15724,1,8,0:0:0:0:
320,224,15891,1,8,0:0:0:0:
256,192,16058,1,0,0:0:0:0:
384,224,16224,1,8,0:0:0:0:
416,224,16308,1,8,0:0:0:0:
256,192,16391,1,8,0:0:0:0:
288,288,16558,1,0,0:0:0:0:
256,192,16724,1,0,0:0:0:0:
384,256,16891,1,8,0:0:0:0:
256,192,17058,1,8,0:0:0:0:
256,192,17224,1,0,0:0:0:0:
256,192,17391,1,0,0:0:0:0:
256,192,17724,1,12,0:0:0:0:
256,192,18058,1,0,0:0:0:0:
288,256,18141,1,0,0:0:0:0:
320,256,18224,1,8,0:0:0:0:
256,192,18391,1,8,0:0:0:0:
384,224,18558,1,0,0:0:0:0:
256,192,18724,1,0,0:0:0:0:
384,288,18891,1,8,0:0:0:0:
448,288,18974,1,8,0:0:0:0:
256,192,19058,1,8,0:0:0:0:
288,288,19224,1,0,0:0:0:0:
256,192,19391,1,0,0:0:0:0:
320,256,19474,1,0,0:0:0:0:
256,192,19558,1,8,0:0:0:0:
416,224,19641,1,0,0:0:0:0:
256,192,19724,1,8,0:0:0:0:
448,160,19891,1,0,0:0:0:0:
352,192,19974,1,0,0:0:0:0:
256,192,20058,1,8,0:0:0:0:
224,288,20224,1,0,0:0:0:0:
256,192,20391,1,8,0:0:0:0:
352,288,20558,1,0,0:0:0:0:
416,256,20641,1,8,0:0:0:0:
256,192,20724,1,0,0:0:0:0:
192,256,20891,1,8,0:0:0:0:
256,192,21058,1,8,0:0:0:0:
320,288,21141,1,8,0:0:0:0:
224,288,21224,1,0,0:0:0:0:
288,224,21308,1,0,0:0:0:0:
384,128,21391,1,8,0:0:0:0:
192,288,21558,1,8,0:0:0:0:
256,288,21641,1,8,0:0:0:0:
256,192,21724,1,8,0:0:0:0:
288,288,21891,1,0,0:0:0:0:
256,192,22058,1,0,0:0:0:0:
256,192,22224,1,0,0:0:0:0:
256,192,22391,1,8,0:0:0:0:
256,192,22558,1,0,0:0:0:0:
256,192,22724,1,0,0:0:0:0:
160,224,22891,1,8,0:0:0:0:
256,192,23057,1,8,0:0:0:0:
256,256,23141,1,8,0:0:0:0:
352,288,23224,1,0,0:0:0:0:
384,224,23307,1,0,0:0:0:0:
256,192,23391,1,0,0:0:0:0:
416,256,23474,1,0,0:0:0:0:
384,160,23557,1,8,0:0:0:0:
256,192,23724,1,8,0:0:0:0:
256,288,23807,1,8,0:0:0:0:
320,224,23891,1,0,0:0:0:0:
352,224,23974,1,0,0:0:0:0:
256,192,24057,1,0,0:0:0:0:
64,64,24224,1,8,0:0:0:0:
64,64,24391,1,0,0:0:0:0:
64,64,24557,1,0,0:0:0:0:
64,64,24724,1,0,0:0:0:0:
64,64,24891,1,8,0:0:0:0:
64,64,25057,1,12,0:0:0:0:
64,64,25224,1,4,0:0:0:0:
64,64,25391,1,4,0:0:0:0:
224,224,25557,1,8,0:0:0:0:
256,192,25724,1,0,0:0:0:0:
224,256,25891,1,0,0:0:0:0:
256,256,25974,1,0,0:0:0:0:
256,192,26057,1,0,0:0:0:0:
352,256,26224,1,8,0:0:0:0:
256,192,26391,1,0,0:0:0:0:
288,288,26557,1,8,0:0:0:0:
256,192,26724,1,0,0:0:0:0:
224,288,26891,1,8,0:0:0:0:
288,256,26974,1,0,0:0:0:0:
256,192,27057,1,0,0:0:0:0:
384,224,27224,1,8,0:0:0:0:
256,192,27391,1,0,0:0:0:0:
224,288,27557,1,8,0:0:0:0:
256,288,27641,1,8,0:0:0:0:
256,192,27724,1,0,0:0:0:0:
320,288,27891,1,8,0:0:0:0:
256,256,27974,1,0,0:0:0:0:
256,192,28057,1,0,0:0:0:0:
256,192,28224,1,8,0:0:0:0:
256,192,28391,1,0,0:0:0:0:
256,192,28557,1,8,0:0:0:0:
256,192,28724,1,0,0:0:0:0:
256,192,28891,1,8,0:0:0:0:
256,192,29057,1,0,0:0:0:0:
256,192,29224,1,8,0:0:0:0:
256,192,29391,1,0,0:0:0:0:
256,192,29557,1,8,0:0:0:0:
256,192,29724,1,0,0:0:0:0:
320,256,29807,1,0,0:0:0:0:
256,192,29891,1,8,0:0:0:0:
320,256,29974,1,8,0:0:0:0:
256,192,30057,1,0,0:0:0:0:
256,192,30224,1,8,0:0:0:0:
320,256,30307,1,8,0:0:0:0:
256,192,30391,1,0,0:0:0:0:
256,192,30557,1,8,0:0:0:0:
256,192,30724,1,0,0:0:0:0:
256,192,30891,1,0,0:0:0:0:
256,192,31057,1,0,0:0:0:0:
256,192,31224,1,8,0:0:0:0:
256,192,31391,1,0,0:0:0:0:
256,192,31557,1,8,0:0:0:0:
256,192,31724,1,0,0:0:0:0:
256,128,31807,1,8,0:0:0:0:
192,160,31891,1,0,0:0:0:0:
256,192,32057,1,0,0:0:0:0:
256,192,32224,1,8,0:0:0:0:
384,224,32307,1,0,0:0:0:0:
256,192,32391,1,0,0:0:0:0:
256,192,32557,1,8,0:0:0:0:
256,192,32724,1,0,0:0:0:0:
256,192,32891,1,8,0:0:0:0:
320,256,32974,1,8,0:0:0:0:
256,192,33057,1,0,0:0:0:0:
256,192,33224,1,8,0:0:0:0:
256,192,33391,1,0,0:0:0:0:
256,192,33557,1,8,0:0:0:0:
256,192,33724,1,0,0:0:0:0:
256,192,33891,1,8,0:0:0:0:
256,192,34057,1,0,0:0:0:0:
256,128,34141,1,0,0:0:0:0:
256,192,34224,1,8,0:0:0:0:
192,192,34307,1,8,0:0:0:0:
256,192,34391,1,0,0:0:0:0:
256,192,34557,1,8,0:0:0:0:
256,192,34724,1,0,0:0:0:0:
160,160,34807,1,0,0:0:0:0:
256,192,34891,1,8,0:0:0:0:
160,160,34974,1,0,0:0:0:0:
256,192,35057,1,0,0:0:0:0:
256,192,35224,1,8,0:0:0:0:
256,192,35391,1,0,0:0:0:0:
160,128,35474,1,0,0:0:0:0:
256,192,35557,1,8,0:0:0:0:
160,160,35641,1,8,0:0:0:0:
256,192,35724,1,0,0:0:0:0:
256,192,35891,1,8,0:0:0:0:
256,192,36057,1,0,0:0:0:0:
256,192,36224,1,8,0:0:0:0:
256,192,36391,1,0,0:0:0:0:
256,192,36557,1,8,0:0:0:0:
192,192,36641,1,0,0:0:0:0:
256,192,36724,1,0,0:0:0:0:
288,160,36807,1,0,0:0:0:0:
256,192,36891,1,8,0:0:0:0:
256,192,37057,1,0,0:0:0:0:
256,192,37224,1,8,0:0:0:0:
256,192,37391,1,0,0:0:0:0:
256,192,37557,1,8,0:0:0:0:
160,160,37641,1,8,0:0:0:0:
256,192,37724,1,0,0:0:0:0:
256,192,37891,1,8,0:0:0:0:
256,192,38057,1,0,0:0:0:0:
224,224,38224,1,8,0:0:0:0:
224,224,38307,1,8,0:0:0:0:
256,192,38391,1,0,0:0:0:0:
256,192,38557,1,8,0:0:0:0:
256,192,38724,1,0,0:0:0:0:
256,192,38891,1,8,0:0:0:0:
256,192,39057,1,0,0:0:0:0:
256,192,39224,1,8,0:0:0:0:
160,96,39307,1,0,0:0:0:0:
256,192,39391,1,0,0:0:0:0:
256,192,39557,1,8,0:0:0:0:
256,192,39724,1,0,0:0:0:0:
256,192,39891,1,8,0:0:0:0:
256,192,40057,1,0,0:0:0:0:
256,192,40224,1,8,0:0:0:0:
224,192,40307,1,0,0:0:0:0:
256,192,40391,1,0,0:0:0:0:
256,192,40557,1,8,0:0:0:0:
256,96,40641,1,8,0:0:0:0:
256,192,40724,1,0,0:0:0:0:
192,192,40807,1,0,0:0:0:0:
256,192,40891,1,8,0:0:0:0:
256,192,41057,1,0,0:0:0:0:
160,96,41141,1,0,0:0:0:0:
256,192,41224,1,8,0:0:0:0:
256,192,41391,1,0,0:0:0:0:
256,192,41557,1,8,0:0:0:0:
256,192,41724,1,0,0:0:0:0:
256,192,41891,1,8,0:0:0:0:
256,192,42057,1,0,0:0:0:0:
160,96,42141,1,0,0:0:0:0:
256,192,42224,1,8,0:0:0:0:
160,96,42307,1,0,0:0:0:0:
256,192,42391,1,0,0:0:0:0:
256,192,42557,1,8,0:0:0:0:
256,192,42724,1,0,0:0:0:0:
256,192,42891,1,8,0:0:0:0:
160,64,42974,1,8,0:0:0:0:
256,192,43057,1,0,0:0:0:0:
256,192,43224,1,8,0:0:0:0:
256,192,43391,1,0,0:0:0:0:
256,192,43557,1,8,0:0:0:0:
288,128,43641,1,8,0:0:0:0:
256,192,43724,1,0,0:0:0:0:
256,192,43891,1,8,0:0:0:0:
256,192,44057,1,0,0:0:0:0:
256,192,44224,1,8,0:0:0:0:
224,192,44307,1,0,0:0:0:0:
256,192,44391,1,0,0:0:0:0:
256,192,44557,1,8,0:0:0:0:
256,192,44724,1,0,0:0:0:0:
224,160,44807,1,0,0:0:0:0:
256,192,44891,1,8,0:0:0:0:
128,160,44974,1,0,0:0:0:0:
256,192,45057,1,0,0:0:0:0:
256,192,45224,1,8,0:0:0:0:
256,192,45391,1,0,0:0:0:0:
224,128,45474,1,0,0:0:0:0:
256,192,45557,1,8,0:0:0:0:
256,192,45724,1,0,0:0:0:0:
224,128,45807,1,8,0:0:0:0:
224,128,45891,1,0,0:0:0:0:
256,192,46057,1,0,0:0:0:0:
192,128,46141,1,0,0:0:0:0:
256,192,46224,1,8,0:0:0:0:
192,128,46307,1,0,0:0:0:0:
256,192,46391,1,0,0:0:0:0:
256,192,46557,1,8,0:0:0:0:
192,128,46641,1,8,0:0:0:0:
256,192,46724,1,0,0:0:0:0:
256,192,49391,1,0,0:0:0:0:
256,192,51724,1,8,0:0:0:0:
256,192,51807,1,8,0:0:0:0:
256,192,51891,1,8,0:0:0:0:
256,192,51974,1,8,0:0:0:0:
256,192,52057,1,0,0:0:0:0:
256,192,54724,1,0,0:0:0:0:
256,192,56057,1,0,0:0:0:0:
256,192,56891,1,0,0:0:0:0:
256,192,57057,1,0,0:0:0:0:
256,192,57224,1,0,0:0:0:0:
256,192,57391,1,0,0:0:0:0:
256,192,57724,1,8,0:0:0:0:
352,160,57891,1,0,0:0:0:0:
352,256,58057,1,8,0:0:0:0:
192,128,58141,1,0,0:0:0:0:
160,160,58224,1,0,0:0:0:0:
192,160,58307,1,0,0:0:0:0:
256,192,58391,1,8,0:0:0:0:
192,192,58557,1,8,0:0:0:0:
256,192,58724,1,0,0:0:0:0:
288,192,58807,1,8,0:0:0:0:
224,224,58891,1,0,0:0:0:0:
288,224,58974,1,0,0:0:0:0:
256,192,59057,1,8,0:0:0:0:
288,96,59224,1,8,0:0:0:0:
256,192,59391,1,0,0:0:0:0:
192,224,59557,1,0,0:0:0:0:
256,192,59724,1,8,0:0:0:0:
384,192,59891,1,0,0:0:0:0:
320,192,59974,1,0,0:0:0:0:
256,192,60057,1,0,0:0:0:0:
320,256,60224,1,0,0:0:0:0:
256,192,60391,1,8,0:0:0:0:
320,224,60557,1,0,0:0:0:0:
288,224,60641,1,8,0:0:0:0:
256,192,60724,1,0,0:0:0:0:
288,160,60891,1,0,0:0:0:0:
256,192,61057,1,8,0:0:0:0:
384,192,61224,1,8,0:0:0:0:
320,192,61307,1,8,0:0:0:0:
256,192,61391,1,0,0:0:0:0:
320,192,61557,1,8,0:0:0:0:
256,192,61724,1,8,0:0:0:0:
320,192,61891,1,0,0:0:0:0:
288,224,61974,1,8,0:0:0:0:
256,192,62057,1,0,0:0:0:0:
320,224,62224,1,8,0:0:0:0:
256,192,62391,1,8,0:0:0:0:
320,224,62557,1,0,0:0:0:0:
384,224,62724,1,8,0:0:0:0:
256,96,62891,1,0,0:0:0:0:
256,192,63057,1,8,0:0:0:0:
256,224,63224,1,0,0:0:0:0:
224,160,63391,1,8,0:0:0:0:
320,256,63557,1,0,0:0:0:0:
256,192,63724,1,8,0:0:0:0:
256,192,63891,1,8,0:0:0:0:
256,192,64057,1,0,0:0:0:0:
352,224,64224,1,0,0:0:0:0:
320,256,64307,1,0,0:0:0:0:
256,192,64391,1,8,0:0:0:0:
352,160,64557,1,0,0:0:0:0:
288,128,64641,1,0,0:0:0:0:
256,192,64724,1,0,0:0:0:0:
224,256,64891,1,0,0:0:0:0:
256,192,65057,1,8,0:0:0:0:
352,128,65224,1,0,0:0:0:0:
256,192,65391,1,8,0:0:0:0:
288,192,65474,1,8,0:0:0:0:
384,256,65557,1,0,0:0:0:0:
256,192,65724,1,8,0:0:0:0:
352,192,65891,1,8,0:0:0:0:
192,224,65974,1,8,0:0:0:0:
256,192,66057,1,0,0:0:0:0:
320,256,66224,1,8,0:0:0:0:
256,192,66391,1,8,0:0:0:0:
192,160,66474,1,8,0:0:0:0:
384,192,66557,1,0,0:0:0:0:
256,192,66724,1,0,0:0:0:0:
256,192,67057,1,0,0:0:0:0:
256,192,67391,1,0,0:0:0:0:
256,192,67724,1,8,0:0:0:0:
256,192,68057,1,4,0:0:0:0:
256,192,68391,1,8,0:0:0:0:
288,160,68557,1,8,0:0:0:0:
256,192,68724,1,0,0:0:0:0:
256,128,68891,1,0,0:0:0:0:
160,224,68974,1,0,0:0:0:0:
256,192,69057,1,8,0:0:0:0:
384,256,69224,1,8,0:0:0:0:
256,192,69391,1,0,0:0:0:0:
352,192,69474,1,0,0:0:0:0:
288,224,69557,1,8,0:0:0:0:
256,192,69724,1,8,0:0:0:0:
384,224,69891,1,8,0:0:0:0:
384,256,69974,1,8,0:0:0:0:
256,192,70057,1,0,0:0:0:0:
256,128,70224,1,0,0:0:0:0:
256,192,70391,1,8,0:0:0:0:
224,224,70557,1,0,0:0:0:0:
256,192,70724,1,0,0:0:0:0:
224,224,70807,1,0,0:0:0:0:
256,224,70891,1,8,0:0:0:0:
256,192,71057,1,8,0:0:0:0:
288,128,71224,1,8,0:0:0:0:
288,128,71307,1,8,0:0:0:0:
256,192,71391,1,0,0:0:0:0:
96,192,71557,1,0,0:0:0:0:
256,192,71724,1,8,0:0:0:0:
352,224,71891,1,8,0:0:0:0:
256,192,72057,1,0,0:0:0:0:
256,256,72224,1,0,0:0:0:0:
256,256,72307,1,0,0:0:0:0:
256,192,72391,1,8,0:0:0:0:
320,160,72557,1,0,0:0:0:0:
320,128,72724,1,8,0:0:0:0:
224,160,72891,1,0,0:0:0:0:
224,160,72974,1,0,0:0:0:0:
256,192,73057,1,8,0:0:0:0:
256,288,73141,1,8,0:0:0:0:
352,256,73224,1,0,0:0:0:0:
256,192,73391,1,4,0:0:0:0:
256,192,73724,1,8,0:0:0:0:
256,96,73891,1,0,0:0:0:0:
256,192,74057,1,0,0:0:0:0:
352,192,74224,1,0,0:0:0:0:
160,224,74307,1,0,0:0:0:0:
256,192,74391,1,8,0:0:0:0:
320,224,74557,1,8,0:0:0:0:
256,192,74724,1,8,0:0:0:0:
320,224,74891,1,0,0:0:0:0:
320,224,74974,1,0,0:0:0:0:
256,192,75057,1,8,0:0:0:0:
352,128,75224,1,0,0:0:0:0:
256,192,75391,1,8,0:0:0:0:
320,128,75557,1,0,0:0:0:0:
320,128,75641,1,8,0:0:0:0:
256,192,75724,1,8,0:0:0:0:
288,160,75891,1,8,0:0:0:0:
256,192,76057,1,0,0:0:0:0:
288,160,76224,1,8,0:0:0:0:
256,192,76391,1,0,0:0:0:0:
288,160,76557,1,8,0:0:0:0:
256,192,76724,1,0,0:0:0:0:
288,160,76891,1,8,0:0:0:0:
256,192,77057,1,0,0:0:0:0:
192,224,77224,1,8,0:0:0:0:
256,192,77391,1,0,0:0:0:0:
320,192,77557,1,8,0:0:0:0:
256,192,77724,1,0,0:0:0:0:
320,192,77891,1,0,0:0:0:0:
256,192,78057,1,0,0:0:0:0:
192,192,78224,1,8,0:0:0:0:
256,192,78391,1,8,0:0:0:0:
192,192,78557,1,0,0:0:0:0:
256,192,78724,1,0,0:0:0:0:
320,192,79057,1,0,0:0:0:0:
288,256,79391,1,8,0:0:0:0:
288,256,79557,1,0,0:0:0:0:
192,256,79724,1,8,0:0:0:0:
320,192,80057,1,8,0:0:0:0:
256,224,80224,1,8,0:0:0:0:
256,224,80307,1,0,0:0:0:0:
256,224,80391,1,0,0:0:0:0:
352,224,80557,1,0,0:0:0:0:
352,224,80724,1,8,0:0:0:0:
192,224,80891,1,0,0:0:0:0:
192,224,81057,1,0,0:0:0:0:
192,224,81224,1,0,0:0:0:0:
64,64,81391,1,4,0:0:0:0:
224,224,81557,1,8,0:0:0:0:
256,256,81641,1,0,0:0:0:0:
256,192,81724,1,0,0:0:0:0:
224,256,81891,1,0,0:0:0:0:
256,192,82057,1,0,0:0:0:0:
160,192,82141,1,0,0:0:0:0:
352,256,82224,1,8,0:0:0:0:
160,256,82307,1,0,0:0:0:0:
256,192,82391,1,0,0:0:0:0:
288,288,82557,1,8,0:0:0:0:
256,192,82724,1,0,0:0:0:0:
224,288,82891,1,8,0:0:0:0:
288,256,82974,1,0,0:0:0:0:
256,192,83057,1,0,0:0:0:0:
384,224,83224,1,8,0:0:0:0:
256,192,83391,1,0,0:0:0:0:
224,288,83557,1,8,0:0:0:0:
256,288,83641,1,8,0:0:0:0:
256,192,83724,1,0,0:0:0:0:
320,288,83891,1,8,0:0:0:0:
256,256,83974,1,0,0:0:0:0:
256,192,84057,1,0,0:0:0:0:
256,192,84224,1,8,0:0:0:0:
256,192,84391,1,0,0:0:0:0:
256,192,84557,1,8,0:0:0:0:
256,192,84724,1,0,0:0:0:0:
160,192,84807,1,0,0:0:0:0:
256,192,84891,1,8,0:0:0:0:
192,256,84974,1,8,0:0:0:0:
256,192,85057,1,0,0:0:0:0:
256,192,85224,1,8,0:0:0:0:
256,192,85391,1,0,0:0:0:0:
256,192,85557,1,8,0:0:0:0:
256,192,85724,1,0,0:0:0:0:
320,256,85807,1,0,0:0:0:0:
256,192,85891,1,8,0:0:0:0:
256,192,86057,1,0,0:0:0:0:
256,192,86224,1,8,0:0:0:0:
320,256,86307,1,8,0:0:0:0:
256,192,86391,1,0,0:0:0:0:
256,192,86557,1,8,0:0:0:0:
256,192,86724,1,0,0:0:0:0:
160,192,86891,1,8,0:0:0:0:
160,128,86974,1,0,0:0:0:0:
256,192,87057,1,0,0:0:0:0:
256,192,87224,1,8,0:0:0:0:
256,192,87391,1,0,0:0:0:0:
256,192,87557,1,8,0:0:0:0:
256,192,87724,1,0,0:0:0:0:
256,128,87807,1,8,0:0:0:0:
192,160,87891,1,0,0:0:0:0:
256,192,88057,1,0,0:0:0:0:
256,192,88224,1,8,0:0:0:0:
384,224,88307,1,0,0:0:0:0:
256,192,88391,1,0,0:0:0:0:
256,192,88557,1,8,0:0:0:0:
256,192,88724,1,0,0:0:0:0:
256,192,88891,1,8,0:0:0:0:
320,256,88974,1,8,0:0:0:0:
256,192,89057,1,0,0:0:0:0:
256,192,89224,1,8,0:0:0:0:
256,192,89391,1,0,0:0:0:0:
256,192,89557,1,8,0:0:0:0:
256,192,89724,1,0,0:0:0:0:
256,192,89891,1,8,0:0:0:0:
256,192,90057,1,0,0:0:0:0:
256,128,90141,1,0,0:0:0:0:
256,192,90224,1,8,0:0:0:0:
256,192,90391,1,0,0:0:0:0:
256,192,90557,1,8,0:0:0:0:
256,192,90724,1,0,0:0:0:0:
160,160,90807,1,0,0:0:0:0:
256,192,90891,1,8,0:0:0:0:
160,160,90974,1,0,0:0:0:0:
256,192,91057,1,0,0:0:0:0:
256,192,91224,1,8,0:0:0:0:
256,192,91391,1,0,0:0:0:0:
160,128,91474,1,0,0:0:0:0:
256,192,91557,1,8,0:0:0:0:
256,192,91724,1,0,0:0:0:0:
256,128,91807,1,0,0:0:0:0:
256,192,91891,1,8,0:0:0:0:
256,192,92057,1,0,0:0:0:0:
256,192,92224,1,8,0:0:0:0:
256,192,92391,1,0,0:0:0:0:
256,192,92557,1,8,0:0:0:0:
192,192,92641,1,0,0:0:0:0:
256,192,92724,1,0,0:0:0:0:
288,160,92807,1,0,0:0:0:0:
256,192,92891,1,8,0:0:0:0:
256,192,93057,1,0,0:0:0:0:
256,192,93224,1,8,0:0:0:0:
256,192,93391,1,0,0:0:0:0:
256,192,93557,1,8,0:0:0:0:
160,160,93641,1,8,0:0:0:0:
256,192,93724,1,0,0:0:0:0:
256,192,93891,1,8,0:0:0:0:
256,192,94057,1,0,0:0:0:0:
224,224,94224,1,8,0:0:0:0:
224,224,94307,1,8,0:0:0:0:
256,192,94391,1,0,0:0:0:0:
256,192,94557,1,8,0:0:0:0:
256,192,94724,1,0,0:0:0:0:
256,192,94891,1,8,0:0:0:0:
256,192,95057,1,0,0:0:0:0:
256,192,95224,1,8,0:0:0:0:
160,96,95307,1,0,0:0:0:0:
256,192,95391,1,0,0:0:0:0:
256,192,95557,1,8,0:0:0:0:
256,192,95724,1,0,0:0:0:0:
256,192,95891,1,8,0:0:0:0:
256,192,96057,1,0,0:0:0:0:
256,192,96224,1,8,0:0:0:0:
224,192,96307,1,0,0:0:0:0:
256,192,96391,1,0,0:0:0:0:
256,192,96557,1,8,0:0:0:0:
256,96,96641,1,8,0:0:0:0:
256,192,96724,1,0,0:0:0:0:
256,192,96891,1,8,0:0:0:0:
256,192,97057,1,0,0:0:0:0:
160,96,97141,1,0,0:0:0:0:
256,192,97224,1,8,0:0:0:0:
256,192,97391,1,0,0:0:0:0:
256,192,97557,1,8,0:0:0:0:
256,192,97724,1,0,0:0:0:0:
256,192,97891,1,8,0:0:0:0:
256,192,98057,1,0,0:0:0:0:
160,96,98141,1,0,0:0:0:0:
256,192,98224,1,8,0:0:0:0:
160,96,98307,1,0,0:0:0:0:
256,192,98391,1,0,0:0:0:0:
256,192,98557,1,8,0:0:0:0:
256,192,98724,1,0,0:0:0:0:
256,192,98891,1,8,0:0:0:0:
160,64,98974,1,8,0:0:0:0:
256,192,99057,1,0,0:0:0:0:
256,192,99224,1,8,0:0:0:0:
256,192,99391,1,0,0:0:0:0:
256,192,99557,1,8,0:0:0:0:
288,128,99641,1,8,0:0:0:0:
256,192,99724,1,0,0:0:0:0:
256,192,99891,1,8,0:0:0:0:
256,192,100057,1,0,0:0:0:0:
256,192,100224,1,8,0:0:0:0:
224,192,100307,1,0,0:0:0:0:
256,192,100391,1,0,0:0:0:0:
256,192,100557,1,8,0:0:0:0:
256,192,100724,1,0,0:0:0:0:
224,160,100807,1,0,0:0:0:0:
256,192,100891,1,8,0:0:0:0:
128,160,100974,1,0,0:0:0:0:
256,192,101057,1,0,0:0:0:0:
256,192,101224,1,8,0:0:0:0:
256,192,101391,1,0,0:0:0:0:
256,192,101557,1,8,0:0:0:0:
224,128,101724,1,8,0:0:0:0:
224,128,101891,1,0,0:0:0:0:
256,192,102057,1,0,0:0:0:0:
256,192,102391,1,0,0:0:0:0:
256,192,102724,1,0,0:0:0:0:
256,224,103057,1,0,0:0:0:0:
256,224,103280,1,8,0:0:0:0:
256,224,103391,1,0,0:0:0:0:
256,128,103613,1,8,0:0:0:0:
256,192,103724,1,0,0:0:0:0:
256,192,103946,1,0,0:0:0:0:
256,192,104057,1,8,0:0:0:0:
256,192,104280,1,0,0:0:0:0:
256,192,104391,1,0,0:0:0:0:
256,192,104613,1,0,0:0:0:0:
256,192,104724,1,8,0:0:0:0:
256,192,104946,1,0,0:0:0:0:
256,192,105057,1,8,0:0:0:0:
256,192,105391,1,0,0:0:0:0:
256,192,105502,1,0,0:0:0:0:
256,192,105613,1,0,0:0:0:0:
256,192,105724,1,0,0:0:0:0:
256,192,105946,1,0,0:0:0:0:
256,192,106057,1,8,0:0:0:0:
256,192,106280,1,0,0:0:0:0:
256,192,106391,1,8,0:0:0:0:
256,192,106613,1,0,0:0:0:0:
256,192,106724,1,8,0:0:0:0:
256,192,106835,1,8,0:0:0:0:
256,192,106946,1,8,0:0:0:0:
256,192,107057,1,8,0:0:0:0:
256,192,107169,1,8,0:0:0:0:
256,192,107280,1,8,0:0:0:0:
256,192,107391,1,8,0:0:0:0:
256,192,107613,1,8,0:0:0:0:
256,192,107724,1,0,0:0:0:0:
256,192,107946,1,8,0:0:0:0:
256,192,108057,1,0,0:0:0:0:
256,192,108391,1,0,0:0:0:0:
256,192,108613,1,8,0:0:0:0:
256,192,108724,1,0,0:0:0:0:
256,192,108946,1,0,0:0:0:0:
256,192,109057,1,8,0:0:0:0:
256,192,109280,1,8,0:0:0:0:
256,192,109391,1,0,0:0:0:0:
256,192,109613,1,0,0:0:0:0:
256,192,109724,1,8,0:0:0:0:
256,192,109946,1,0,0:0:0:0:
256,192,110057,1,8,0:0:0:0:
256,192,110280,1,0,0:0:0:0:
256,192,110391,1,8,0:0:0:0:
256,192,110613,1,8,0:0:0:0:
256,192,110724,1,0,0:0:0:0:
256,192,110835,1,0,0:0:0:0:
256,192,110946,1,0,0:0:0:0:
256,192,111057,1,0,0:0:0:0:
256,192,111280,1,0,0:0:0:0:
256,192,111391,1,8,0:0:0:0:
256,192,111613,1,0,0:0:0:0:
256,192,111724,5,0,0:0:0:0:
256,192,112057,12,0,112724,0:0:0:0:
256,192,112891,5,0,0:0:0:0:
256,192,113057,1,0,0:0:0:0:
256,192,113224,1,0,0:0:0:0:
256,192,113391,1,8,0:0:0:0:
256,288,113724,1,0,0:0:0:0:
0,256,113891,1,0,0:0:0:0:
128,288,113974,1,0,0:0:0:0:
320,192,114057,1,8,0:0:0:0:
224,160,114224,1,0,0:0:0:0:
128,192,114307,1,8,0:0:0:0:
192,224,114391,1,0,0:0:0:0:
256,256,114557,1,0,0:0:0:0:
352,256,114641,1,0,0:0:0:0:
256,192,114724,1,8,0:0:0:0:
224,256,114891,1,0,0:0:0:0:
288,256,115057,1,8,0:0:0:0:
128,256,115224,1,8,0:0:0:0:
256,256,115307,1,0,0:0:0:0:
320,192,115390,1,8,0:0:0:0:
256,256,115557,1,0,0:0:0:0:
192,224,115724,1,0,0:0:0:0:
288,224,115891,1,8,0:0:0:0:
256,192,116057,1,8,0:0:0:0:
288,224,116224,1,8,0:0:0:0:
320,224,116307,1,8,0:0:0:0:
256,288,116390,1,0,0:0:0:0:
352,256,116557,1,0,0:0:0:0:
352,256,116641,1,0,0:0:0:0:
320,192,116723,1,8,0:0:0:0:
288,192,116891,1,0,0:0:0:0:
384,288,117057,1,8,0:0:0:0:
352,288,117141,1,8,0:0:0:0:
320,288,117224,1,0,0:0:0:0:
352,192,117307,1,0,0:0:0:0:
192,160,117390,1,8,0:0:0:0:
224,224,117557,1,0,0:0:0:0:
320,256,117724,1,0,0:0:0:0:
288,160,117891,1,0,0:0:0:0:
192,192,118057,1,8,0:0:0:0:
288,192,118224,1,8,0:0:0:0:
192,192,118307,1,8,0:0:0:0:
160,192,118391,1,0,0:0:0:0:
256,256,118557,1,8,0:0:0:0:
256,256,118724,1,0,0:0:0:0:
320,256,118891,1,8,0:0:0:0:
256,288,119057,1,0,0:0:0:0:
448,288,119224,1,8,0:0:0:0:
320,256,119391,1,0,0:0:0:0:
288,192,119557,1,8,0:0:0:0:
192,192,119724,1,0,0:0:0:0:
256,224,119891,1,0,0:0:0:0:
224,224,119974,1,0,0:0:0:0:
224,224,120057,1,8,0:0:0:0:
352,256,120141,1,8,0:0:0:0:
256,256,120224,1,0,0:0:0:0:
256,256,120391,1,0,0:0:0:0:
224,224,120557,1,8,0:0:0:0:
256,256,120641,1,8,0:0:0:0:
192,256,120724,1,0,0:0:0:0:
288,128,120891,1,0,0:0:0:0:
256,160,120974,1,0,0:0:0:0:
256,224,121057,1,8,0:0:0:0:
256,256,121224,1,0,0:0:0:0:
352,288,121391,1,8,0:0:0:0:
288,224,121557,1,0,0:0:0:0:
288,256,121641,1,0,0:0:0:0:
288,256,121724,1,8,0:0:0:0:
288,288,121891,1,8,0:0:0:0:
320,288,122057,1,8,0:0:0:0:
320,288,122141,1,8,0:0:0:0:
192,320,122224,1,0,0:0:0:0:
320,192,122391,1,8,0:0:0:0:
320,192,122474,1,8,0:0:0:0:
288,192,122557,1,0,0:0:0:0:
192,96,122724,1,0,0:0:0:0:
224,224,123057,1,0,0:0:0:0:
192,224,123391,1,8,0:0:0:0:
288,96,123724,1,8,0:0:0:0:
160,160,124057,1,0,0:0:0:0:
288,224,124391,1,0,0:0:0:0:
352,224,124557,1,0,0:0:0:0:
288,224,124641,1,0,0:0:0:0:
288,256,124724,1,8,0:0:0:0:
320,224,124891,1,0,0:0:0:0:
256,192,125057,1,8,0:0:0:0:
192,192,125224,1,8,0:0:0:0:
352,224,125391,1,8,0:0:0:0:
256,256,125474,1,8,0:0:0:0:
256,256,125557,1,0,0:0:0:0:
256,128,125724,1,0,0:0:0:0:
320,128,125891,1,8,0:0:0:0:
288,160,125974,1,8,0:0:0:0:
256,160,126057,1,0,0:0:0:0:
224,192,126224,1,8,0:0:0:0:
224,224,126391,1,8,0:0:0:0:
288,224,126557,1,8,0:0:0:0:
192,224,126724,1,8,0:0:0:0:
224,224,126807,1,8,0:0:0:0:
288,256,126891,1,0,0:0:0:0:
288,256,127057,1,0,0:0:0:0:
256,256,127224,1,8,0:0:0:0:
256,256,127307,1,8,0:0:0:0:
256,256,127391,1,0,0:0:0:0:
288,256,127557,1,0,0:0:0:0:
352,256,127724,1,0,0:0:0:0:
256,288,127891,1,8,0:0:0:0:
352,256,128057,1,0,0:0:0:0:
288,288,128224,1,0,0:0:0:0:
320,288,128391,1,8,0:0:0:0:
192,224,128557,1,0,0:0:0:0:
352,192,128724,1,0,0:0:0:0:
192,256,128891,1,8,0:0:0:0:
224,256,129057,1,8,0:0:0:0:
256,256,129141,1,0,0:0:0:0:
224,256,129224,1,0,0:0:0:0:
352,256,129391,1,4,0:0:0:0:
320,192,129724,1,8,0:0:0:0:
224,224,129891,1,0,0:0:0:0:
256,160,130057,1,8,0:0:0:0:
224,192,130224,1,0,0:0:0:0:
288,64,130391,1,8,0:0:0:0:
192,128,130474,1,0,0:0:0:0:
256,96,130557,1,0,0:0:0:0:
320,192,130641,1,0,0:0:0:0:
256,224,130724,1,8,0:0:0:0:
320,192,130891,1,8,0:0:0:0:
256,192,131057,1,0,0:0:0:0:
384,224,131224,1,0,0:0:0:0:
256,256,131391,1,8,0:0:0:0:
320,256,131557,1,8,0:0:0:0:
352,256,131724,1,0,0:0:0:0:
192,288,131891,1,0,0:0:0:0:
128,192,132057,1,8,0:0:0:0:
224,192,132224,1,0,0:0:0:0:
160,224,132391,1,8,0:0:0:0:
288,256,132557,1,0,0:0:0:0:
224,256,132724,1,8,0:0:0:0:
224,288,132891,1,0,0:0:0:0:
352,256,133057,1,8,0:0:0:0:
288,288,133224,1,8,0:0:0:0:
224,288,133391,1,0,0:0:0:0:
160,192,133724,1,0,0:0:0:0:
256,224,134057,1,0,0:0:0:0:
224,192,134391,1,0,0:0:0:0:
256,224,134724,1,12,0:0:0:0:
352,192,135391,1,4,0:0:0:0:
224,224,136057,1,4,0:0:0:0:
352,224,136391,1,4,0:0:0:0:
128,256,136724,1,4,0:0:0:0:
320,160,137391,1,4,0:0:0:0:
192,160,138057,1,4,0:0:0:0:
384,192,138724,1,4,0:0:0:0:
160,288,139057,1,4,0:0:0:0:
352,224,139391,1,4,0:0:0:0:
192,96,140057,1,4,0:0:0:0:
384,160,140724,1,4,0:0:0:0:
160,160,141391,1,4,0:0:0:0:
224,192,141724,1,4,0:0:0:0:
288,192,142057,1,4,0:0:0:0:
160,128,142724,1,4,0:0:0:0:
384,160,143391,1,4,0:0:0:0:
96,224,144057,1,4,0:0:0:0:
224,288,144391,1,4,0:0:0:0:
320,224,144724,1,4,0:0:0:0:
320,192,145057,1,8,0:0:0:0:
256,192,145391,1,0,0:0:0:0:
192,192,145474,1,8,0:0:0:0:
192,160,145557,1,8,0:0:0:0:
320,192,146057,1,8,0:0:0:0:
320,192,146141,1,8,0:0:0:0:
288,192,146224,1,0,0:0:0:0:
288,192,146391,1,8,0:0:0:0:
256,192,146474,1,8,0:0:0:0:
256,224,146557,1,0,0:0:0:0:
352,224,146724,1,0,0:0:0:0:
352,256,146807,1,8,0:0:0:0:
288,288,146891,1,8,0:0:0:0:
224,192,147224,1,8,0:0:0:0:
224,224,147307,1,0,0:0:0:0:
192,224,147391,1,8,0:0:0:0:
160,224,147557,1,8,0:0:0:0:
128,192,147891,1,8,0:0:0:0:
256,224,147974,1,8,0:0:0:0:
224,224,148057,1,0,0:0:0:0:
224,128,148724,1,8,0:0:0:0:
224,128,148807,1,8,0:0:0:0:
192,160,148891,1,0,0:0:0:0:
192,160,149057,1,8,0:0:0:0:
192,192,149141,1,8,0:0:0:0:
192,192,149224,1,0,0:0:0:0:
288,160,149391,1,0,0:0:0:0:
288,160,149557,1,8,0:0:0:0:
256,192,149891,1,8,0:0:0:0:
256,224,149974,1,8,0:0:0:0:
256,224,150057,1,0,0:0:0:0:
288,224,150557,1,0,0:0:0:0:
288,224,150724,1,0,0:0:0:0:
256,224,150891,1,8,0:0:0:0:
288,160,151391,1,8,0:0:0:0:
288,160,151724,1,8,0:0:0:0:
192,160,152057,1,0,0:0:0:0:
192,192,152224,1,8,0:0:0:0:
288,224,152724,1,0,0:0:0:0:
256,224,152891,1,8,0:0:0:0:
224,224,153391,1,0,0:0:0:0:
320,224,153557,1,8,0:0:0:0:
224,224,153724,1,8,0:0:0:0:
288,224,153807,1,8,0:0:0:0:
288,224,153890,1,0,0:0:0:0:
224,160,154057,1,8,0:0:0:0:
192,160,154224,1,0,0:0:0:0:
224,128,154391,1,8,0:0:0:0:
224,160,154557,1,0,0:0:0:0:
320,224,154724,1,0,0:0:0:0:
224,256,155057,1,0,0:0:0:0:
384,224,155391,1,0,0:0:0:0:
96,160,155724,1,0,0:0:0:0:
256,224,156057,1,0,0:0:0:0:
256,160,156224,1,0,0:0:0:0:
256,192,156307,1,0,0:0:0:0:
160,224,156391,1,0,0:0:0:0:
256,192,156474,1,0,0:0:0:0:
224,224,156557,1,0,0:0:0:0:
288,256,156641,1,0,0:0:0:0:
288,256,156724,1,8,0:0:0:0:
160,224,157057,1,0,0:0:0:0:
224,256,157224,1,8,0:0:0:0:
256,224,157391,1,8,0:0:0:0:
192,256,157557,1,0,0:0:0:0:
160,256,157724,1,8,0:0:0:0:
160,256,157891,1,0,0:0:0:0:
192,256,158057,1,8,0:0:0:0:
224,160,158391,1,8,0:0:0:0:
224,160,158724,1,0,0:0:0:0:
288,256,159057,1,8,0:0:0:0:
160,192,159391,1,8,0:0:0:0:
160,224,159724,1,0,0:0:0:0:
320,224,159891,1,8,0:0:0:0:
256,224,160057,1,0,0:0:0:0:
256,224,160224,1,8,0:0:0:0:
288,192,160391,1,8,0:0:0:0:
288,192,160557,1,0,0:0:0:0:
224,224,160724,1,8,0:0:0:0:
320,256,161057,1,8,0:0:0:0:
256,224,161391,1,8,0:0:0:0:
224,224,161557,1,0,0:0:0:0:
224,224,161724,1,0,0:0:0:0:
224,256,161891,1,8,0:0:0:0:
256,256,162057,1,8,0:0:0:0:
256,256,162224,1,0,0:0:0:0:
256,256,162391,1,8,0:0:0:0:
256,256,162557,1,0,0:0:0:0:
416,192,162724,1,0,0:0:0:0:
288,192,162891,1,8,0:0:0:0:
288,224,163057,1,0,0:0:0:0:
288,224,163224,1,8,0:0:0:0:
288,224,163391,1,8,0:0:0:0:
320,256,163557,1,0,0:0:0:0:
224,256,163724,1,8,0:0:0:0:
256,160,164057,1,8,0:0:0:0:
224,192,164391,1,8,0:0:0:0:
224,256,164724,1,8,0:0:0:0:
224,256,164891,1,0,0:0:0:0:
256,256,165057,1,8,0:0:0:0:
256,256,165391,1,8,0:0:0:0:
256,256,165724,1,8,0:0:0:0:
256,256,166057,1,8,0:0:0:0:
256,256,166391,1,0,0:0:0:0:
256,256,166724,1,8,0:0:0:0:
192,160,167057,1,0,0:0:0:0:
352,224,167391,1,8,0:0:0:0:
160,192,167724,1,0,0:0:0:0:
256,224,168224,1,0,0:0:0:0:
256,256,168391,1,0,0:0:0:0:
256,256,168557,1,0,0:0:0:0:
256,256,168724,1,0,0:0:0:0:
256,256,168891,1,0,0:0:0:0:
256,256,169057,1,0,0:0:0:0:
256,256,169224,1,0,0:0:0:0:
256,192,169391,1,8,0:0:0:0:
256,288,169724,1,0,0:0:0:0:
0,256,169891,1,0,0:0:0:0:
128,288,169974,1,0,0:0:0:0:
320,192,170057,1,8,0:0:0:0:
224,160,170141,1,8,0:0:0:0:
128,192,170224,1,0,0:0:0:0:
352,128,170391,1,8,0:0:0:0:
352,128,170474,1,0,0:0:0:0:
256,256,170557,1,0,0:0:0:0:
352,256,170641,1,0,0:0:0:0:
256,192,170724,1,8,0:0:0:0:
224,256,170891,1,0,0:0:0:0:
96,160,170974,1,0,0:0:0:0:
288,256,171057,1,8,0:0:0:0:
128,256,171224,1,8,0:0:0:0:
256,256,171307,1,0,0:0:0:0:
320,192,171390,1,8,0:0:0:0:
256,256,171557,1,0,0:0:0:0:
96,160,171641,1,8,0:0:0:0:
192,224,171724,1,0,0:0:0:0:
288,224,171891,1,8,0:0:0:0:
64,192,172057,1,0,0:0:0:0:
288,224,172224,1,8,0:0:0:0:
320,224,172307,1,8,0:0:0:0:
256,288,172390,1,0,0:0:0:0:
352,256,172474,1,0,0:0:0:0:
352,256,172557,1,8,0:0:0:0:
320,192,172723,1,8,0:0:0:0:
192,160,172807,1,8,0:0:0:0:
288,192,172891,1,0,0:0:0:0:
384,288,173057,1,8,0:0:0:0:
352,288,173141,1,8,0:0:0:0:
320,288,173224,1,0,0:0:0:0:
352,192,173307,1,0,0:0:0:0:
192,160,173390,1,8,0:0:0:0:
224,224,173557,1,0,0:0:0:0:
224,224,173641,1,0,0:0:0:0:
320,256,173724,1,0,0:0:0:0:
288,160,173891,1,0,0:0:0:0:
192,192,174057,1,8,0:0:0:0:
288,192,174224,1,8,0:0:0:0:
192,192,174307,1,8,0:0:0:0:
160,192,174391,1,0,0:0:0:0:
224,192,174474,1,0,0:0:0:0:
256,256,174557,1,8,0:0:0:0:
256,256,174724,1,0,0:0:0:0:
320,256,174891,1,8,0:0:0:0:
256,288,175057,1,0,0:0:0:0:
448,288,175224,1,8,0:0:0:0:
320,256,175391,1,0,0:0:0:0:
288,192,175557,1,8,0:0:0:0:
192,192,175724,1,0,0:0:0:0:
256,224,175891,1,0,0:0:0:0:
224,224,175974,1,0,0:0:0:0:
224,224,176057,1,8,0:0:0:0:
352,256,176141,1,0,0:0:0:0:
256,256,176224,1,8,0:0:0:0:
256,256,176391,1,0,0:0:0:0:
224,192,176474,1,0,0:0:0:0:
224,224,176557,1,8,0:0:0:0:
256,256,176641,1,8,0:0:0:0:
192,256,176724,1,0,0:0:0:0:
288,128,176891,1,0,0:0:0:0:
256,160,176974,1,0,0:0:0:0:
256,224,177057,1,8,0:0:0:0:
128,160,177141,1,0,0:0:0:0:
256,256,177224,1,0,0:0:0:0:
352,288,177391,1,8,0:0:0:0:
288,224,177557,1,0,0:0:0:0:
288,256,177641,1,0,0:0:0:0:
288,256,177724,1,8,0:0:0:0:
288,288,177891,1,8,0:0:0:0:
320,288,178057,1,8,0:0:0:0:
320,288,178141,1,8,0:0:0:0:
192,320,178224,1,0,0:0:0:0:
320,192,178391,1,8,0:0:0:0:
320,192,178474,1,8,0:0:0:0:
288,192,178557,1,0,0:0:0:0:
192,96,178724,1,0,0:0:0:0:
224,224,179057,1,0,0:0:0:0:
192,224,179391,1,8,0:0:0:0:
288,96,179724,1,8,0:0:0:0:
160,160,180057,1,0,0:0:0:0:
288,224,180391,1,0,0:0:0:0:
352,224,180557,1,0,0:0:0:0:
288,224,180641,1,0,0:0:0:0:
288,256,180724,1,8,0:0:0:0:
320,224,180891,1,0,0:0:0:0:
256,192,181057,1,8,0:0:0:0:
192,192,181141,1,0,0:0:0:0:
192,192,181224,1,8,0:0:0:0:
352,224,181391,1,8,0:0:0:0:
256,256,181474,1,8,0:0:0:0:
256,256,181557,1,0,0:0:0:0:
256,128,181724,1,0,0:0:0:0:
320,128,181891,1,8,0:0:0:0:
288,160,181974,1,8,0:0:0:0:
256,160,182057,1,0,0:0:0:0:
224,192,182224,1,8,0:0:0:0:
224,192,182307,1,0,0:0:0:0:
224,224,182391,1,8,0:0:0:0:
288,224,182557,1,8,0:0:0:0:
192,224,182724,1,8,0:0:0:0:
224,224,182807,1,8,0:0:0:0:
288,256,182891,1,0,0:0:0:0:
288,256,183057,1,0,0:0:0:0:
256,256,183224,1,8,0:0:0:0:
256,256,183307,1,8,0:0:0:0:
256,256,183391,1,0,0:0:0:0:
288,256,183557,1,0,0:0:0:0:
352,256,183724,1,0,0:0:0:0:
192,160,183807,1,0,0:0:0:0:
256,288,183891,1,8,0:0:0:0:
352,256,184057,1,0,0:0:0:0:
288,288,184224,1,0,0:0:0:0:
320,288,184391,1,8,0:0:0:0:
192,224,184557,1,0,0:0:0:0:
352,192,184724,1,0,0:0:0:0:
192,256,184891,1,8,0:0:0:0:
224,256,185057,1,8,0:0:0:0:
256,256,185141,1,0,0:0:0:0:
224,256,185224,1,0,0:0:0:0:
352,256,185391,1,4,0:0:0:0:
320,192,185724,1,8,0:0:0:0:
224,224,185891,1,0,0:0:0:0:
256,160,186057,1,8,0:0:0:0:
224,192,186224,1,0,0:0:0:0:
288,64,186391,1,8,0:0:0:0:
192,128,186474,1,0,0:0:0:0:
256,96,186557,1,0,0:0:0:0:
320,192,186641,1,0,0:0:0:0:
256,224,186724,1,8,0:0:0:0:
320,192,186891,1,8,0:0:0:0:
256,192,187057,1,0,0:0:0:0:
192,160,187141,1,0,0:0:0:0:
384,224,187224,1,0,0:0:0:0:
256,256,187391,1,8,0:0:0:0:
320,256,187557,1,8,0:0:0:0:
192,160,187641,1,0,0:0:0:0:
352,256,187724,1,0,0:0:0:0:
192,288,187891,1,0,0:0:0:0:
192,160,187974,1,0,0:0:0:0:
128,192,188057,1,8,0:0:0:0:
224,192,188224,1,0,0:0:0:0:
160,224,188391,1,8,0:0:0:0:
288,256,188557,1,0,0:0:0:0:
224,256,188724,1,8,0:0:0:0:
224,288,188891,1,8,0:0:0:0:
352,256,189057,1,0,0:0:0:0:
288,288,189224,1,8,0:0:0:0:
224,288,189391,1,0,0:0:0:0:
160,192,189724,1,0,0:0:0:0:
256,224,190057,1,0,0:0:0:0:
224,192,190391,1,0,0:0:0:0:
256,224,190724,1,12,0:0:0:0:
288,128,191057,1,0,0:0:0:0:
128,224,191391,1,0,0:0:0:0:
256,192,191557,1,8,0:0:0:0:
192,224,191724,1,0,0:0:0:0:
224,160,192057,1,0,0:0:0:0:
224,160,192224,1,8,0:0:0:0:
256,192,192391,1,0,0:0:0:0:
352,224,192557,1,0,0:0:0:0:
352,160,192724,1,8,0:0:0:0:
288,192,192891,1,8,0:0:0:0:
288,192,193057,1,8,0:0:0:0:
160,128,193224,1,8,0:0:0:0:
192,192,193391,1,0,0:0:0:0:
256,256,193724,1,0,0:0:0:0:
352,288,193891,1,8,0:0:0:0:
288,256,193974,1,0,0:0:0:0:
256,288,194057,1,0,0:0:0:0:
352,224,194224,1,8,0:0:0:0:
256,224,194557,1,8,0:0:0:0:
320,96,194724,1,8,0:0:0:0:
64,224,194891,1,8,0:0:0:0:
288,96,194974,1,8,0:0:0:0:
160,128,195058,1,0,0:0:0:0:
192,224,195224,1,0,0:0:0:0:
256,256,195391,1,8,0:0:0:0:
224,288,195557,1,8,0:0:0:0:
320,288,195724,1,0,0:0:0:0:
288,288,195891,1,0,0:0:0:0:
320,288,196057,1,0,0:0:0:0:
256,192,196391,1,12,0:0:0:0:
320,192,196557,1,8,0:0:0:0:
320,192,196641,1,0,0:0:0:0:
224,192,196724,1,0,0:0:0:0:
256,96,196891,1,8,0:0:0:0:
192,160,197224,1,0,0:0:0:0:
160,224,197391,1,8,0:0:0:0:
320,192,197557,1,8,0:0:0:0:
288,192,197641,1,8,0:0:0:0:
288,224,197724,1,0,0:0:0:0:
288,128,197891,1,0,0:0:0:0:
192,160,198057,1,8,0:0:0:0:
256,224,198141,1,0,0:0:0:0:
320,256,198224,1,8,0:0:0:0:
224,256,198307,1,0,0:0:0:0:
352,288,198391,1,8,0:0:0:0:
384,128,198557,1,0,0:0:0:0:
352,160,198641,1,0,0:0:0:0:
256,288,198724,1,8,0:0:0:0:
256,192,199057,1,8,0:0:0:0:
416,224,199224,1,0,0:0:0:0:
384,224,199307,1,0,0:0:0:0:
256,160,199391,1,8,0:0:0:0:
256,192,199474,1,8,0:0:0:0:
224,224,199557,1,0,0:0:0:0:
352,256,199891,1,8,0:0:0:0:
256,96,200224,1,8,0:0:0:0:
224,96,200307,1,8,0:0:0:0:
192,128,200391,1,8,0:0:0:0:
288,128,200557,1,0,0:0:0:0:
224,128,200724,1,8,0:0:0:0:
320,160,200891,1,0,0:0:0:0:
320,224,201057,1,8,0:0:0:0:
320,224,201224,1,8,0:0:0:0:
192,224,201391,1,0,0:0:0:0:
288,224,201724,1,12,0:0:0:0:
224,160,201891,1,8,0:0:0:0:
160,192,201974,1,8,0:0:0:0:
160,224,202057,1,0,0:0:0:0:
256,224,202224,1,8,0:0:0:0:
352,160,202391,1,8,0:0:0:0:
352,160,202474,1,0,0:0:0:0:
320,192,202557,1,8,0:0:0:0:
320,224,202641,1,0,0:0:0:0:
320,224,202724,1,8,0:0:0:0:
256,192,202891,12,8,203891,0:0:0:0:
160,192,204057,5,8,0:0:0:0:
192,128,204391,1,8,0:0:0:0:
320,128,204557,1,8,0:0:0:0:
320,192,204641,1,8,0:0:0:0:
320,192,204724,1,0,0:0:0:0:
288,224,204891,1,8,0:0:0:0:
224,128,205224,1,0,0:0:0:0:
352,128,205557,1,0,0:0:0:0:
288,160,205641,1,0,0:0:0:0:
288,160,205724,1,8,0:0:0:0:
288,128,205891,1,0,0:0:0:0:
192,192,206057,1,8,0:0:0:0:
256,224,206224,1,0,0:0:0:0:
320,224,206391,1,0,0:0:0:0:
320,224,206557,1,0,0:0:0:0:
320,224,206724,1,8,0:0:0:0:
256,160,207057,1,12,0:0:0:0:
256,160,207224,1,8,0:0:0:0:
224,160,207307,1,8,0:0:0:0:
192,192,207390,1,0,0:0:0:0:
288,96,207557,1,8,0:0:0:0:
192,160,207724,1,0,0:0:0:0:
288,192,207891,1,0,0:0:0:0:
256,160,208057,1,8,0:0:0:0:
384,192,208224,1,8,0:0:0:0:
384,192,208391,1,0,0:0:0:0:
320,192,208557,1,0,0:0:0:0:
320,192,208724,1,0,0:0:0:0:
320,224,208807,1,8,0:0:0:0:
320,224,208891,1,0,0:0:0:0:
320,224,208974,1,8,0:0:0:0:
288,224,209057,1,0,0:0:0:0:
288,192,209224,1,0,0:0:0:0:
288,192,209307,1,0,0:0:0:0:
256,224,209391,1,8,0:0:0:0:
192,192,209724,1,8,0:0:0:0:
256,192,209891,1,8,0:0:0:0:
224,224,209974,1,8,0:0:0:0:
256,224,210057,1,0,0:0:0:0:
320,160,210224,1,8,0:0:0:0:
288,256,210557,1,8,0:0:0:0:
320,96,210724,1,0,0:0:0:0:
320,160,210807,1,0,0:0:0:0:
288,256,210891,1,8,0:0:0:0:
352,192,210974,1,0,0:0:0:0:
320,224,211057,1,8,0:0:0:0:
192,256,211224,1,0,0:0:0:0:
320,256,211391,1,8,0:0:0:0:
416,288,211557,1,0,0:0:0:0:
416,288,211724,1,8,0:0:0:0:
352,288,211891,1,8,0:0:0:0:
288,288,212057,1,0,0:0:0:0:
256,192,212224,12,0,214391,0:0:0:0:
