osu file format v13

[General]
AudioFilename: Reol.mp3
AudioLeadIn: 1500
PreviewTime: 56057
Countdown: 0
SampleSet: None
StackLeniency: 0.7
Mode: 3
LetterboxInBreaks: 0
SpecialStyle: 0
WidescreenStoryboard: 1

[Editor]
DistanceSpacing: 1
BeatDivisor: 4
GridSize: 16
TimelineZoom: 1

[Metadata]
Title:+Danshi
TitleUnicode:+Danshi
Artist:Reol
ArtistUnicode:れをる
Creator:lZenxl
Version:Fullerene's 4K MX
Source:
Tags:GigaP neonat Tagre Plus Boy Hinsvar Fort Papcio [I]MMoRTal[S] mike91lau Player_X Soldsaga_KunG Okoratu
BeatmapID:480591
BeatmapSetID:165991

[Difficulty]
HPDrainRate:8
CircleSize:4
OverallDifficulty:9
ApproachRate:9
SliderMultiplier:1.4
SliderTickRate:1

[Events]
//Background and Video events
0,0,"BG.png",0,0
//Break Periods
2,46924,55457
2,166924,167624
//Storyboard Layer 0 (Background)
//Storyboard Layer 1 (Fail)
//Storyboard Layer 2 (Pass)
//Storyboard Layer 3 (Foreground)
//Storyboard Sound Samples
//Background Colour Transformations
3,100,163,162,255

[TimingPoints]
12058,333.333333333333,4,1,1,50,1,0
13391,-100,4,1,1,18,0,0
14474,-100,4,1,1,50,0,0
14724,-100,4,1,1,80,0,0
56891,-100,4,1,1,30,0,0
57057,-100,4,1,1,50,0,0
57224,-100,4,1,1,70,0,0
57391,-100,4,1,1,80,0,1
67391,-100,4,1,1,80,0,0
68057,-100,4,1,1,80,0,1
78724,-100,4,1,1,80,0,0
112891,-100,4,1,1,30,0,0
113057,-100,4,1,1,50,0,0
113224,-100,4,1,1,70,0,0
113391,-100,4,1,1,80,0,1
123391,-100,4,1,1,80,0,0
124057,-100,4,1,1,80,0,1
134724,-100,4,1,1,80,0,0
145391,-100,4,1,1,80,0,1
145412,-100,4,1,1,80,0,0
166724,-100,4,1,1,30,0,0
168557,-100,4,1,1,40,0,0
168724,-100,4,1,1,50,0,0
168891,-100,4,1,1,60,0,0
169057,-100,4,1,1,70,0,0
169224,-100,4,1,1,80,0,0
169391,-100,4,1,1,80,0,1
179391,-100,4,1,1,80,0,0
180057,-100,4,1,1,80,0,1
190724,-100,4,1,1,80,0,0

[HitObjects]
64,192,13391,5,0,0:0:0:0:
320,192,13557,1,0,0:0:0:0:
448,192,13613,1,0,0:0:0:0:
192,192,13669,1,0,0:0:0:0:
64,192,13724,1,0,0:0:0:0:
320,192,13891,1,0,0:0:0:0:
448,192,13946,1,0,0:0:0:0:
192,192,14002,1,0,0:0:0:0:
64,192,14057,1,0,0:0:0:0:
64,192,14224,1,0,0:0:0:0:
192,192,14391,1,0,0:0:0:0:
320,192,14391,1,0,0:0:0:0:
64,192,14724,1,0,0:0:0:0:
320,192,14724,1,0,0:0:0:0:
448,192,14724,1,0,0:0:0:0:
192,192,14891,1,0,0:0:0:0:
320,192,14891,1,0,0:0:0:0:
64,192,15057,1,0,0:0:0:0:
448,192,15057,1,0,0:0:0:0:
64,192,15224,1,0,0:0:0:0:
320,192,15224,1,0,0:0:0:0:
192,192,15307,1,0,0:0:0:0:
448,192,15307,1,0,0:0:0:0:
64,192,15391,1,0,0:0:0:0:
320,192,15391,1,0,0:0:0:0:
192,192,15557,1,0,0:0:0:0:
448,192,15557,1,0,0:0:0:0:
64,192,15724,1,0,0:0:0:0:
320,192,15724,1,0,0:0:0:0:
192,192,15807,1,0,0:0:0:0:
64,192,15891,1,0,0:0:0:0:
320,192,15891,1,0,0:0:0:0:
192,192,16057,1,0,0:0:0:0:
448,192,16057,1,0,0:0:0:0:
64,192,16224,1,0,0:0:0:0:
448,192,16224,1,0,0:0:0:0:
192,192,16307,1,0,0:0:0:0:
320,192,16307,1,0,0:0:0:0:
64,192,16391,1,0,0:0:0:0:
448,192,16391,1,0,0:0:0:0:
192,192,16557,1,0,0:0:0:0:
320,192,16557,1,0,0:0:0:0:
192,192,16724,1,0,0:0:0:0:
448,192,16724,1,0,0:0:0:0:
64,192,16891,1,0,0:0:0:0:
320,192,16891,1,0,0:0:0:0:
192,192,17057,1,0,0:0:0:0:
448,192,17057,1,0,0:0:0:0:
192,192,17224,1,0,0:0:0:0:
320,192,17224,1,0,0:0:0:0:
64,192,17391,1,0,0:0:0:0:
448,192,17391,1,0,0:0:0:0:
192,192,17557,1,0,0:0:0:0:
320,192,17557,1,0,0:0:0:0:
64,192,17724,1,0,0:0:0:0:
320,192,17724,1,0,0:0:0:0:
448,192,17724,1,0,0:0:0:0:
64,192,17891,1,0,0:0:0:0:
192,192,17891,1,0,0:0:0:0:
320,192,18057,1,0,0:0:0:0:
448,192,18057,1,0,0:0:0:0:
64,192,18141,1,0,0:0:0:0:
192,192,18141,1,0,0:0:0:0:
320,192,18224,1,0,0:0:0:0:
448,192,18224,1,0,0:0:0:0:
64,192,18391,1,0,0:0:0:0:
192,192,18391,1,0,0:0:0:0:
192,192,18557,1,0,0:0:0:0:
320,192,18557,1,0,0:0:0:0:
64,192,18641,1,0,0:0:0:0:
448,192,18641,1,0,0:0:0:0:
192,192,18724,1,0,0:0:0:0:
320,192,18724,1,0,0:0:0:0:
64,192,18891,1,0,0:0:0:0:
448,192,18891,1,0,0:0:0:0:
192,192,19057,1,0,0:0:0:0:
320,192,19057,1,0,0:0:0:0:
64,192,19224,1,0,0:0:0:0:
192,192,19224,1,0,0:0:0:0:
320,192,19391,1,0,0:0:0:0:
448,192,19391,1,0,0:0:0:0:
64,192,19474,1,0,0:0:0:0:
192,192,19474,1,0,0:0:0:0:
320,192,19557,1,0,0:0:0:0:
448,192,19557,1,0,0:0:0:0:
64,192,19641,1,0,0:0:0:0:
192,192,19641,1,0,0:0:0:0:
320,192,19724,1,0,0:0:0:0:
448,192,19724,1,0,0:0:0:0:
64,192,19891,1,0,0:0:0:0:
192,192,19946,1,0,0:0:0:0:
320,192,20002,1,0,0:0:0:0:
64,192,20057,1,0,0:0:0:0:
448,192,20057,1,0,0:0:0:0:
192,192,20224,1,0,0:0:0:0:
320,192,20224,1,0,0:0:0:0:
64,192,20391,1,0,0:0:0:0:
320,192,20391,1,0,0:0:0:0:
192,192,20557,1,0,0:0:0:0:
448,192,20557,1,0,0:0:0:0:
64,192,20641,1,0,0:0:0:0:
320,192,20641,1,0,0:0:0:0:
192,192,20724,1,0,0:0:0:0:
448,192,20724,1,0,0:0:0:0:
64,192,20891,1,0,0:0:0:0:
320,192,20891,1,0,0:0:0:0:
192,192,21057,1,0,0:0:0:0:
448,192,21057,1,0,0:0:0:0:
320,192,21141,1,0,0:0:0:0:
192,192,21224,1,0,0:0:0:0:
448,192,21224,1,0,0:0:0:0:
64,192,21391,1,0,0:0:0:0:
320,192,21391,1,0,0:0:0:0:
64,192,21557,1,0,0:0:0:0:
192,192,21557,1,0,0:0:0:0:
320,192,21641,1,0,0:0:0:0:
448,192,21641,1,0,0:0:0:0:
64,192,21724,1,0,0:0:0:0:
192,192,21724,1,0,0:0:0:0:
192,192,21891,1,0,0:0:0:0:
320,192,21891,1,0,0:0:0:0:
320,192,22057,1,0,0:0:0:0:
448,192,22057,1,0,0:0:0:0:
192,192,22224,1,0,0:0:0:0:
448,192,22224,1,0,0:0:0:0:
64,192,22391,1,0,0:0:0:0:
320,192,22391,1,0,0:0:0:0:
64,192,22557,1,0,0:0:0:0:
448,192,22557,1,0,0:0:0:0:
192,192,22724,1,0,0:0:0:0:
320,192,22724,1,0,0:0:0:0:
64,192,22891,1,0,0:0:0:0:
448,192,22891,1,0,0:0:0:0:
192,192,23057,1,0,0:0:0:0:
320,192,23057,1,0,0:0:0:0:
64,192,23224,1,0,0:0:0:0:
320,192,23224,1,0,0:0:0:0:
64,192,23391,1,0,0:0:0:0:
192,192,23391,1,0,0:0:0:0:
320,192,23557,1,0,0:0:0:0:
448,0,23557,128,0,23724:0:0:0:0:
64,192,23724,1,0,0:0:0:0:
192,192,23724,1,0,0:0:0:0:
64,192,23807,1,0,0:0:0:0:
192,192,23807,1,0,0:0:0:0:
320,192,23891,1,0,0:0:0:0:
448,192,23891,1,0,0:0:0:0:
320,192,23974,1,0,0:0:0:0:
448,192,23974,1,0,0:0:0:0:
64,192,24057,1,0,0:0:0:0:
192,192,24057,1,0,0:0:0:0:
448,192,24224,1,0,0:0:0:0:
192,0,24391,128,0,24474:0:0:0:0:
192,0,24557,128,0,24641:0:0:0:0:
320,192,24724,1,0,0:0:0:0:
448,192,24766,1,0,0:0:0:0:
64,192,24870,1,0,0:0:0:0:
192,192,24891,1,0,0:0:0:0:
64,192,25037,1,0,0:0:0:0:
192,192,25057,1,0,0:0:0:0:
64,192,25203,1,0,0:0:0:0:
192,192,25224,1,0,0:0:0:0:
448,192,25370,1,0,0:0:0:0:
64,192,25370,1,0,0:0:0:0:
192,192,25391,1,0,0:0:0:0:
320,192,25446,1,0,0:0:0:0:
448,192,25557,1,0,0:0:0:0:
320,192,25641,1,0,0:0:0:0:
64,192,25724,1,0,0:0:0:0:
192,192,25724,1,0,0:0:0:0:
320,192,25891,1,0,0:0:0:0:
192,192,26057,1,0,0:0:0:0:
448,192,26057,1,0,0:0:0:0:
64,192,26224,1,0,0:0:0:0:
320,192,26391,1,0,0:0:0:0:
448,192,26391,1,0,0:0:0:0:
64,192,26557,1,0,0:0:0:0:
320,192,26724,1,0,0:0:0:0:
448,192,26724,1,0,0:0:0:0:
320,192,26891,1,0,0:0:0:0:
192,192,26974,1,0,0:0:0:0:
64,192,27057,1,0,0:0:0:0:
448,192,27057,1,0,0:0:0:0:
192,192,27224,1,0,0:0:0:0:
64,192,27391,1,0,0:0:0:0:
320,192,27391,1,0,0:0:0:0:
192,192,27474,1,0,0:0:0:0:
320,192,27557,1,0,0:0:0:0:
448,192,27557,1,0,0:0:0:0:
192,192,27641,1,0,0:0:0:0:
64,192,27724,1,0,0:0:0:0:
320,192,27724,1,0,0:0:0:0:
448,192,27807,1,0,0:0:0:0:
64,192,27891,1,0,0:0:0:0:
192,192,28057,1,0,0:0:0:0:
320,192,28057,1,0,0:0:0:0:
448,0,28224,128,0,28307:0:0:0:0:
192,192,28307,1,0,0:0:0:0:
64,192,28391,1,0,0:0:0:0:
320,192,28391,1,0,0:0:0:0:
192,192,28557,1,0,0:0:0:0:
320,192,28724,1,0,0:0:0:0:
448,192,28724,1,0,0:0:0:0:
64,192,28891,1,0,0:0:0:0:
192,192,29057,1,0,0:0:0:0:
448,192,29057,1,0,0:0:0:0:
320,192,29224,1,0,0:0:0:0:
64,192,29391,1,0,0:0:0:0:
192,192,29391,1,0,0:0:0:0:
320,0,29557,128,0,29724:0:0:0:0:
64,0,29557,128,0,29891:0:0:0:0:
192,192,29724,1,0,0:0:0:0:
448,0,29724,128,0,30057:0:0:0:0:
192,192,29891,1,0,0:0:0:0:
64,192,30057,1,0,0:0:0:0:
320,0,30057,128,0,30224:0:0:0:0:
192,192,30141,1,0,0:0:0:0:
448,192,30224,1,0,0:0:0:0:
192,192,30307,1,0,0:0:0:0:
64,192,30391,1,0,0:0:0:0:
448,192,30391,1,0,0:0:0:0:
320,192,30474,1,0,0:0:0:0:
192,192,30557,1,0,0:0:0:0:
64,192,30724,1,0,0:0:0:0:
192,192,30724,1,0,0:0:0:0:
320,192,30828,1,0,0:0:0:0:
320,192,30953,1,0,0:0:0:0:
192,192,31057,1,0,0:0:0:0:
448,192,31057,1,0,0:0:0:0:
64,192,31182,1,0,0:0:0:0:
64,192,31391,1,0,0:0:0:0:
192,192,31391,1,0,0:0:0:0:
320,192,31516,1,0,0:0:0:0:
448,192,31557,1,0,0:0:0:0:
64,192,31724,1,0,0:0:0:0:
320,192,31724,1,0,0:0:0:0:
192,192,31807,1,0,0:0:0:0:
448,192,31863,1,0,0:0:0:0:
64,192,31974,1,0,0:0:0:0:
192,192,32057,1,0,0:0:0:0:
448,192,32057,1,0,0:0:0:0:
320,192,32224,1,0,0:0:0:0:
192,192,32307,1,0,0:0:0:0:
64,192,32391,1,0,0:0:0:0:
448,192,32391,1,0,0:0:0:0:
320,192,32557,1,0,0:0:0:0:
64,192,32724,1,0,0:0:0:0:
192,192,32724,1,0,0:0:0:0:
320,192,32807,1,0,0:0:0:0:
192,192,32891,1,0,0:0:0:0:
448,192,32891,1,0,0:0:0:0:
64,192,32974,1,0,0:0:0:0:
192,192,33057,1,0,0:0:0:0:
320,192,33057,1,0,0:0:0:0:
448,192,33141,1,0,0:0:0:0:
320,192,33224,1,0,0:0:0:0:
64,192,33391,1,0,0:0:0:0:
192,192,33391,1,0,0:0:0:0:
448,192,33391,1,0,0:0:0:0:
192,192,33557,1,0,0:0:0:0:
320,192,33557,1,0,0:0:0:0:
192,192,33641,1,0,0:0:0:0:
64,192,33724,1,0,0:0:0:0:
320,192,33724,1,0,0:0:0:0:
448,192,33724,1,0,0:0:0:0:
192,192,33891,1,0,0:0:0:0:
320,192,33891,1,0,0:0:0:0:
64,192,34057,1,0,0:0:0:0:
320,192,34057,1,0,0:0:0:0:
448,192,34057,1,0,0:0:0:0:
192,192,34224,1,0,0:0:0:0:
448,192,34224,1,0,0:0:0:0:
192,192,34391,1,0,0:0:0:0:
320,192,34391,1,0,0:0:0:0:
64,192,34474,1,0,0:0:0:0:
320,192,34557,1,0,0:0:0:0:
64,192,34724,1,0,0:0:0:0:
192,192,34724,1,0,0:0:0:0:
448,192,34835,1,0,0:0:0:0:
320,192,34891,1,0,0:0:0:0:
64,192,35057,1,0,0:0:0:0:
448,192,35057,1,0,0:0:0:0:
192,192,35224,1,0,0:0:0:0:
64,192,35391,1,0,0:0:0:0:
320,192,35391,1,0,0:0:0:0:
320,192,35557,1,0,0:0:0:0:
192,192,35641,1,0,0:0:0:0:
64,192,35724,1,0,0:0:0:0:
448,192,35724,1,0,0:0:0:0:
192,192,35807,1,0,0:0:0:0:
320,192,35891,1,0,0:0:0:0:
64,192,36057,1,0,0:0:0:0:
192,192,36057,1,0,0:0:0:0:
448,192,36057,1,0,0:0:0:0:
192,192,36224,1,0,0:0:0:0:
64,192,36307,1,0,0:0:0:0:
320,192,36391,1,0,0:0:0:0:
448,192,36391,1,0,0:0:0:0:
64,192,36557,1,0,0:0:0:0:
192,192,36724,1,0,0:0:0:0:
448,192,36724,1,0,0:0:0:0:
320,192,36891,1,0,0:0:0:0:
64,192,37057,1,0,0:0:0:0:
448,192,37057,1,0,0:0:0:0:
192,192,37224,1,0,0:0:0:0:
64,192,37391,1,0,0:0:0:0:
320,192,37391,1,0,0:0:0:0:
192,192,37557,1,0,0:0:0:0:
64,192,37641,1,0,0:0:0:0:
320,192,37724,1,0,0:0:0:0:
448,192,37724,1,0,0:0:0:0:
192,192,37891,1,0,0:0:0:0:
64,192,38057,1,0,0:0:0:0:
448,192,38057,1,0,0:0:0:0:
192,192,38141,1,0,0:0:0:0:
320,192,38224,1,0,0:0:0:0:
448,192,38307,1,0,0:0:0:0:
64,192,38391,1,0,0:0:0:0:
192,192,38391,1,0,0:0:0:0:
320,192,38474,1,0,0:0:0:0:
192,192,38557,1,0,0:0:0:0:
320,192,38724,1,0,0:0:0:0:
448,192,38724,1,0,0:0:0:0:
320,192,38891,1,0,0:0:0:0:
448,192,38974,1,0,0:0:0:0:
64,192,39057,1,0,0:0:0:0:
192,192,39057,1,0,0:0:0:0:
320,192,39224,1,0,0:0:0:0:
64,192,39391,1,0,0:0:0:0:
448,192,39391,1,0,0:0:0:0:
192,192,39502,1,0,0:0:0:0:
320,192,39613,1,0,0:0:0:0:
192,192,39724,1,0,0:0:0:0:
448,192,39724,1,0,0:0:0:0:
320,192,39891,1,0,0:0:0:0:
64,192,40057,1,0,0:0:0:0:
192,192,40057,1,0,0:0:0:0:
448,192,40141,1,0,0:0:0:0:
192,192,40224,1,0,0:0:0:0:
448,192,40307,1,0,0:0:0:0:
64,192,40391,1,0,0:0:0:0:
320,192,40391,1,0,0:0:0:0:
192,192,40557,1,0,0:0:0:0:
320,0,40724,128,0,40891:0:0:0:0:
448,0,40724,128,0,40974:0:0:0:0:
64,192,40807,1,0,0:0:0:0:
192,192,40891,1,0,0:0:0:0:
320,192,40974,1,0,0:0:0:0:
64,192,41057,1,0,0:0:0:0:
448,192,41057,1,0,0:0:0:0:
320,192,41141,1,0,0:0:0:0:
192,192,41224,1,0,0:0:0:0:
64,192,41391,1,0,0:0:0:0:
320,192,41391,1,0,0:0:0:0:
192,192,41557,1,0,0:0:0:0:
64,192,41724,1,0,0:0:0:0:
448,192,41724,1,0,0:0:0:0:
448,192,41891,1,0,0:0:0:0:
192,0,42057,128,0,42141:0:0:0:0:
320,0,42057,128,0,42141:0:0:0:0:
448,192,42224,1,0,0:0:0:0:
64,0,42224,128,0,42307:0:0:0:0:
192,192,42391,1,0,0:0:0:0:
320,0,42391,128,0,42641:0:0:0:0:
192,192,42557,1,0,0:0:0:0:
448,192,42557,1,0,0:0:0:0:
64,192,42724,1,0,0:0:0:0:
448,192,42724,1,0,0:0:0:0:
320,192,42891,1,0,0:0:0:0:
192,192,42974,1,0,0:0:0:0:
448,192,42974,1,0,0:0:0:0:
64,192,43057,1,0,0:0:0:0:
320,192,43057,1,0,0:0:0:0:
64,192,43224,1,0,0:0:0:0:
448,192,43224,1,0,0:0:0:0:
192,192,43391,1,0,0:0:0:0:
320,0,43391,128,0,43557:0:0:0:0:
64,192,43557,1,0,0:0:0:0:
448,192,43557,1,0,0:0:0:0:
192,192,43641,1,0,0:0:0:0:
320,192,43724,1,0,0:0:0:0:
448,0,43724,128,0,43891:0:0:0:0:
192,192,43807,1,0,0:0:0:0:
64,192,43891,1,0,0:0:0:0:
320,192,43891,1,0,0:0:0:0:
64,192,44057,1,0,0:0:0:0:
192,192,44057,1,0,0:0:0:0:
448,192,44224,1,0,0:0:0:0:
192,192,44266,1,0,0:0:0:0:
64,192,44391,1,0,0:0:0:0:
320,192,44391,1,0,0:0:0:0:
448,192,44446,1,0,0:0:0:0:
192,192,44557,1,0,0:0:0:0:
64,192,44613,1,0,0:0:0:0:
320,192,44724,1,0,0:0:0:0:
448,192,44724,1,0,0:0:0:0:
64,192,44807,1,0,0:0:0:0:
192,192,44863,1,0,0:0:0:0:
320,192,44953,1,0,0:0:0:0:
64,192,45057,1,0,0:0:0:0:
448,192,45057,1,0,0:0:0:0:
320,192,45141,1,0,0:0:0:0:
192,192,45224,1,0,0:0:0:0:
64,192,45391,1,0,0:0:0:0:
320,192,45391,1,0,0:0:0:0:
192,192,45474,1,0,0:0:0:0:
320,192,45557,1,0,0:0:0:0:
448,192,45641,1,0,0:0:0:0:
64,192,45724,1,0,0:0:0:0:
192,192,45724,1,0,0:0:0:0:
320,192,45807,1,0,0:0:0:0:
64,192,45891,1,0,0:0:0:0:
320,192,45974,1,0,0:0:0:0:
192,192,46057,1,0,0:0:0:0:
448,192,46057,1,0,0:0:0:0:
64,192,46162,1,0,0:0:0:0:
448,192,46224,1,0,0:0:0:0:
320,192,46307,1,0,0:0:0:0:
64,192,46391,1,0,0:0:0:0:
192,192,46391,1,0,0:0:0:0:
320,192,46474,1,0,0:0:0:0:
64,0,46557,128,0,46641:0:0:0:0:
64,192,46724,1,0,0:0:0:0:
192,192,46724,1,0,0:0:0:0:
320,192,46724,1,0,0:0:0:0:
448,192,46724,1,0,0:0:0:0:
192,192,56057,5,0,0:0:0:0:
320,192,56057,1,0,0:0:0:0:
64,192,56891,1,0,0:0:0:0:
448,192,56891,1,0,0:0:0:0:
64,192,57057,1,0,0:0:0:0:
448,192,57057,1,0,0:0:0:0:
64,192,57224,1,0,0:0:0:0:
448,192,57224,1,0,0:0:0:0:
64,192,57391,1,0,0:0:0:0:
192,192,57391,1,0,0:0:0:0:
320,192,57391,1,0,0:0:0:0:
448,192,57391,1,0,0:0:0:0:
192,192,57557,1,0,0:0:0:0:
320,192,57557,1,0,0:0:0:0:
64,192,57724,1,0,0:0:0:0:
192,192,57724,1,0,0:0:0:0:
448,192,57724,1,0,0:0:0:0:
192,192,57891,1,0,0:0:0:0:
320,192,57891,1,0,0:0:0:0:
64,192,58057,1,0,0:0:0:0:
320,192,58057,1,0,0:0:0:0:
192,192,58224,1,0,0:0:0:0:
448,192,58224,1,0,0:0:0:0:
64,192,58307,1,0,0:0:0:0:
320,192,58307,1,0,0:0:0:0:
64,192,58391,1,0,0:0:0:0:
192,192,58391,1,0,0:0:0:0:
448,192,58391,1,0,0:0:0:0:
192,192,58557,1,0,0:0:0:0:
320,192,58557,1,0,0:0:0:0:
320,192,58724,1,0,0:0:0:0:
448,192,58724,1,0,0:0:0:0:
64,192,58891,1,0,0:0:0:0:
192,192,58891,1,0,0:0:0:0:
320,192,58974,1,0,0:0:0:0:
448,192,58974,1,0,0:0:0:0:
64,192,59057,1,0,0:0:0:0:
192,192,59057,1,0,0:0:0:0:
448,192,59057,1,0,0:0:0:0:
192,192,59224,1,0,0:0:0:0:
320,192,59224,1,0,0:0:0:0:
320,192,59391,1,0,0:0:0:0:
448,192,59391,1,0,0:0:0:0:
192,192,59557,1,0,0:0:0:0:
320,192,59557,1,0,0:0:0:0:
64,192,59724,1,0,0:0:0:0:
192,192,59724,1,0,0:0:0:0:
448,192,59724,1,0,0:0:0:0:
192,192,59891,1,0,0:0:0:0:
320,192,59891,1,0,0:0:0:0:
64,192,60057,1,0,0:0:0:0:
320,192,60057,1,0,0:0:0:0:
192,192,60224,1,0,0:0:0:0:
448,192,60224,1,0,0:0:0:0:
64,192,60391,1,0,0:0:0:0:
192,192,60391,1,0,0:0:0:0:
320,192,60391,1,0,0:0:0:0:
64,192,60557,1,0,0:0:0:0:
448,192,60557,1,0,0:0:0:0:
192,192,60641,1,0,0:0:0:0:
320,192,60641,1,0,0:0:0:0:
64,192,60724,1,0,0:0:0:0:
448,192,60724,1,0,0:0:0:0:
192,192,60891,1,0,0:0:0:0:
320,192,60891,1,0,0:0:0:0:
64,192,61057,1,0,0:0:0:0:
192,192,61057,1,0,0:0:0:0:
448,192,61057,1,0,0:0:0:0:
64,192,61224,1,0,0:0:0:0:
320,192,61224,1,0,0:0:0:0:
192,192,61391,1,0,0:0:0:0:
448,192,61391,1,0,0:0:0:0:
64,192,61557,1,0,0:0:0:0:
320,192,61557,1,0,0:0:0:0:
64,192,61724,1,0,0:0:0:0:
192,192,61724,1,0,0:0:0:0:
448,192,61724,1,0,0:0:0:0:
320,192,61891,1,0,0:0:0:0:
448,192,61891,1,0,0:0:0:0:
192,192,62057,1,0,0:0:0:0:
320,192,62057,1,0,0:0:0:0:
64,192,62224,1,0,0:0:0:0:
448,192,62224,1,0,0:0:0:0:
192,192,62391,1,0,0:0:0:0:
320,192,62391,1,0,0:0:0:0:
448,192,62391,1,0,0:0:0:0:
64,192,62557,1,0,0:0:0:0:
320,192,62557,1,0,0:0:0:0:
64,192,62724,1,0,0:0:0:0:
192,192,62724,1,0,0:0:0:0:
448,192,62724,1,0,0:0:0:0:
192,192,62891,1,0,0:0:0:0:
320,192,62891,1,0,0:0:0:0:
64,192,63057,1,0,0:0:0:0:
192,192,63057,1,0,0:0:0:0:
448,192,63057,1,0,0:0:0:0:
192,192,63224,1,0,0:0:0:0:
320,192,63224,1,0,0:0:0:0:
64,192,63391,1,0,0:0:0:0:
192,192,63391,1,0,0:0:0:0:
448,192,63391,1,0,0:0:0:0:
192,192,63557,1,0,0:0:0:0:
320,192,63557,1,0,0:0:0:0:
64,192,63724,1,0,0:0:0:0:
192,192,63724,1,0,0:0:0:0:
448,192,63724,1,0,0:0:0:0:
192,192,63891,1,0,0:0:0:0:
320,192,63891,1,0,0:0:0:0:
64,192,64057,1,0,0:0:0:0:
192,192,64057,1,0,0:0:0:0:
448,192,64057,1,0,0:0:0:0:
320,192,64224,1,0,0:0:0:0:
448,192,64224,1,0,0:0:0:0:
64,192,64391,1,0,0:0:0:0:
192,192,64391,1,0,0:0:0:0:
320,192,64391,1,0,0:0:0:0:
192,192,64557,1,0,0:0:0:0:
448,192,64557,1,0,0:0:0:0:
64,192,64724,1,0,0:0:0:0:
320,192,64724,1,0,0:0:0:0:
64,192,64891,1,0,0:0:0:0:
192,192,64891,1,0,0:0:0:0:
192,192,65057,1,0,0:0:0:0:
320,192,65057,1,0,0:0:0:0:
448,192,65057,1,0,0:0:0:0:
64,192,65224,1,0,0:0:0:0:
320,192,65224,1,0,0:0:0:0:
192,192,65391,1,0,0:0:0:0:
448,192,65391,1,0,0:0:0:0:
192,192,65557,1,0,0:0:0:0:
320,192,65557,1,0,0:0:0:0:
64,192,65724,1,0,0:0:0:0:
320,192,65724,1,0,0:0:0:0:
448,192,65724,1,0,0:0:0:0:
192,192,65891,1,0,0:0:0:0:
320,192,65891,1,0,0:0:0:0:
64,192,66057,1,0,0:0:0:0:
192,192,66057,1,0,0:0:0:0:
192,192,66224,1,0,0:0:0:0:
320,192,66224,1,0,0:0:0:0:
64,192,66391,1,0,0:0:0:0:
320,192,66391,1,0,0:0:0:0:
448,192,66391,1,0,0:0:0:0:
192,192,66557,1,0,0:0:0:0:
320,192,66557,1,0,0:0:0:0:
64,192,66724,1,0,0:0:0:0:
192,192,66724,1,0,0:0:0:0:
448,192,66724,1,0,0:0:0:0:
320,192,66807,1,0,0:0:0:0:
64,192,66891,1,0,0:0:0:0:
448,192,66891,1,0,0:0:0:0:
192,192,66974,1,0,0:0:0:0:
64,192,67057,1,0,0:0:0:0:
320,192,67057,1,0,0:0:0:0:
448,192,67057,1,0,0:0:0:0:
192,192,67141,1,0,0:0:0:0:
64,192,67224,1,0,0:0:0:0:
448,192,67224,1,0,0:0:0:0:
320,192,67307,1,0,0:0:0:0:
448,0,67391,128,0,67474:0:0:0:0:
64,0,67391,128,0,67557:0:0:0:0:
192,0,67391,128,0,67557:0:0:0:0:
320,0,67724,128,0,67974:0:0:0:0:
448,0,67724,128,0,67974:0:0:0:0:
64,192,68057,1,0,0:0:0:0:
192,192,68057,1,0,0:0:0:0:
320,192,68057,1,0,0:0:0:0:
448,192,68057,1,0,0:0:0:0:
64,192,68224,1,0,0:0:0:0:
192,192,68224,1,0,0:0:0:0:
64,192,68391,1,0,0:0:0:0:
192,192,68391,1,0,0:0:0:0:
320,192,68391,1,0,0:0:0:0:
192,192,68557,1,0,0:0:0:0:
320,192,68557,1,0,0:0:0:0:
448,192,68557,1,0,0:0:0:0:
320,192,68724,1,0,0:0:0:0:
448,192,68724,1,0,0:0:0:0:
64,192,68891,1,0,0:0:0:0:
192,192,68891,1,0,0:0:0:0:
320,192,68891,1,0,0:0:0:0:
64,192,69057,1,0,0:0:0:0:
192,192,69057,1,0,0:0:0:0:
448,192,69057,1,0,0:0:0:0:
192,192,69224,1,0,0:0:0:0:
320,192,69224,1,0,0:0:0:0:
64,192,69391,1,0,0:0:0:0:
320,192,69391,1,0,0:0:0:0:
448,192,69391,1,0,0:0:0:0:
320,192,69557,1,0,0:0:0:0:
448,192,69557,1,0,0:0:0:0:
64,192,69724,1,0,0:0:0:0:
192,192,69724,1,0,0:0:0:0:
448,192,69724,1,0,0:0:0:0:
64,192,69891,1,0,0:0:0:0:
192,192,69891,1,0,0:0:0:0:
320,192,69891,1,0,0:0:0:0:
192,192,70057,1,0,0:0:0:0:
320,192,70057,1,0,0:0:0:0:
64,192,70224,1,0,0:0:0:0:
320,192,70224,1,0,0:0:0:0:
448,192,70224,1,0,0:0:0:0:
192,192,70391,1,0,0:0:0:0:
320,192,70391,1,0,0:0:0:0:
448,192,70391,1,0,0:0:0:0:
192,192,70557,1,0,0:0:0:0:
320,192,70557,1,0,0:0:0:0:
64,192,70724,1,0,0:0:0:0:
192,192,70724,1,0,0:0:0:0:
448,192,70724,1,0,0:0:0:0:
64,192,70891,1,0,0:0:0:0:
192,192,70891,1,0,0:0:0:0:
64,192,71057,1,0,0:0:0:0:
192,192,71057,1,0,0:0:0:0:
320,192,71057,1,0,0:0:0:0:
192,192,71224,1,0,0:0:0:0:
320,192,71224,1,0,0:0:0:0:
448,192,71224,1,0,0:0:0:0:
320,192,71391,1,0,0:0:0:0:
448,192,71391,1,0,0:0:0:0:
64,192,71557,1,0,0:0:0:0:
192,192,71557,1,0,0:0:0:0:
320,192,71557,1,0,0:0:0:0:
64,192,71724,1,0,0:0:0:0:
192,192,71724,1,0,0:0:0:0:
448,192,71724,1,0,0:0:0:0:
192,192,71891,1,0,0:0:0:0:
320,192,71891,1,0,0:0:0:0:
64,192,72057,1,0,0:0:0:0:
320,192,72057,1,0,0:0:0:0:
448,192,72057,1,0,0:0:0:0:
320,192,72224,1,0,0:0:0:0:
448,192,72224,1,0,0:0:0:0:
64,192,72391,1,0,0:0:0:0:
192,192,72391,1,0,0:0:0:0:
448,192,72391,1,0,0:0:0:0:
64,192,72557,1,0,0:0:0:0:
192,192,72557,1,0,0:0:0:0:
320,192,72557,1,0,0:0:0:0:
192,192,72724,1,0,0:0:0:0:
320,192,72724,1,0,0:0:0:0:
64,192,72891,1,0,0:0:0:0:
320,192,72891,1,0,0:0:0:0:
448,192,72891,1,0,0:0:0:0:
192,192,73057,1,0,0:0:0:0:
320,192,73057,1,0,0:0:0:0:
448,192,73057,1,0,0:0:0:0:
192,192,73224,1,0,0:0:0:0:
320,192,73224,1,0,0:0:0:0:
64,192,73391,1,0,0:0:0:0:
192,192,73391,1,0,0:0:0:0:
448,192,73391,1,0,0:0:0:0:
320,192,73557,1,0,0:0:0:0:
448,192,73557,1,0,0:0:0:0:
64,192,73641,1,0,0:0:0:0:
192,192,73641,1,0,0:0:0:0:
64,192,73724,1,0,0:0:0:0:
320,192,73724,1,0,0:0:0:0:
448,192,73724,1,0,0:0:0:0:
64,192,73891,1,0,0:0:0:0:
192,192,73891,1,0,0:0:0:0:
320,192,74057,1,0,0:0:0:0:
448,192,74057,1,0,0:0:0:0:
64,192,74224,1,0,0:0:0:0:
192,192,74224,1,0,0:0:0:0:
320,192,74307,1,0,0:0:0:0:
448,192,74307,1,0,0:0:0:0:
64,192,74391,1,0,0:0:0:0:
192,192,74391,1,0,0:0:0:0:
448,192,74391,1,0,0:0:0:0:
192,192,74557,1,0,0:0:0:0:
320,192,74557,1,0,0:0:0:0:
64,192,74724,1,0,0:0:0:0:
448,192,74724,1,0,0:0:0:0:
192,192,74891,1,0,0:0:0:0:
448,192,74891,1,0,0:0:0:0:
64,192,74974,1,0,0:0:0:0:
320,192,74974,1,0,0:0:0:0:
64,192,75057,1,0,0:0:0:0:
192,192,75057,1,0,0:0:0:0:
448,192,75057,1,0,0:0:0:0:
192,192,75224,1,0,0:0:0:0:
320,192,75224,1,0,0:0:0:0:
64,192,75391,1,0,0:0:0:0:
448,192,75391,1,0,0:0:0:0:
64,192,75557,1,0,0:0:0:0:
320,192,75557,1,0,0:0:0:0:
192,192,75724,1,0,0:0:0:0:
320,192,75724,1,0,0:0:0:0:
448,192,75724,1,0,0:0:0:0:
64,192,75891,1,0,0:0:0:0:
192,192,75891,1,0,0:0:0:0:
64,192,76057,1,0,0:0:0:0:
448,192,76057,1,0,0:0:0:0:
192,192,76224,1,0,0:0:0:0:
320,192,76224,1,0,0:0:0:0:
64,192,76391,1,0,0:0:0:0:
192,192,76391,1,0,0:0:0:0:
448,192,76391,1,0,0:0:0:0:
192,192,76557,1,0,0:0:0:0:
320,192,76557,1,0,0:0:0:0:
64,192,76724,1,0,0:0:0:0:
448,192,76724,1,0,0:0:0:0:
64,192,76891,1,0,0:0:0:0:
192,192,76891,1,0,0:0:0:0:
192,192,77057,1,0,0:0:0:0:
320,192,77057,1,0,0:0:0:0:
448,192,77057,1,0,0:0:0:0:
64,192,77224,1,0,0:0:0:0:
320,192,77224,1,0,0:0:0:0:
64,192,77391,1,0,0:0:0:0:
192,192,77391,1,0,0:0:0:0:
448,192,77391,1,0,0:0:0:0:
64,192,77557,1,0,0:0:0:0:
448,192,77557,1,0,0:0:0:0:
192,192,77641,1,0,0:0:0:0:
64,192,77724,1,0,0:0:0:0:
320,192,77724,1,0,0:0:0:0:
448,192,77724,1,0,0:0:0:0:
320,192,77891,1,0,0:0:0:0:
448,192,77891,1,0,0:0:0:0:
192,192,77974,1,0,0:0:0:0:
64,192,78057,1,0,0:0:0:0:
320,192,78057,1,0,0:0:0:0:
448,192,78057,1,0,0:0:0:0:
64,192,78224,1,0,0:0:0:0:
192,192,78224,1,0,0:0:0:0:
320,192,78307,1,0,0:0:0:0:
64,192,78391,1,0,0:0:0:0:
192,192,78391,1,0,0:0:0:0:
448,192,78391,1,0,0:0:0:0:
320,192,78474,1,0,0:0:0:0:
64,192,78557,1,0,0:0:0:0:
448,192,78557,1,0,0:0:0:0:
192,192,78641,1,0,0:0:0:0:
64,192,78724,1,0,0:0:0:0:
320,192,78724,1,0,0:0:0:0:
448,192,78724,1,0,0:0:0:0:
320,192,79057,1,0,0:0:0:0:
448,192,79057,1,0,0:0:0:0:
64,192,79391,1,0,0:0:0:0:
192,192,79391,1,0,0:0:0:0:
64,192,79557,1,0,0:0:0:0:
192,192,79557,1,0,0:0:0:0:
448,0,79724,128,0,80057:0:0:0:0:
192,192,79891,1,0,0:0:0:0:
320,192,79891,1,0,0:0:0:0:
64,192,80057,1,0,0:0:0:0:
192,192,80057,1,0,0:0:0:0:
320,192,80224,1,0,0:0:0:0:
448,192,80224,1,0,0:0:0:0:
64,192,80307,1,0,0:0:0:0:
192,192,80307,1,0,0:0:0:0:
320,192,80391,1,0,0:0:0:0:
448,192,80391,1,0,0:0:0:0:
64,192,80557,1,0,0:0:0:0:
192,192,80557,1,0,0:0:0:0:
64,192,80724,1,0,0:0:0:0:
448,192,80724,1,0,0:0:0:0:
320,192,80828,1,0,0:0:0:0:
64,192,80891,1,0,0:0:0:0:
192,192,80891,1,0,0:0:0:0:
320,192,80995,1,0,0:0:0:0:
64,192,81057,1,0,0:0:0:0:
192,192,81057,1,0,0:0:0:0:
320,192,81162,1,0,0:0:0:0:
64,192,81224,1,0,0:0:0:0:
192,192,81224,1,0,0:0:0:0:
320,192,81328,1,0,0:0:0:0:
64,192,81391,1,0,0:0:0:0:
192,192,81391,1,0,0:0:0:0:
448,192,81391,1,0,0:0:0:0:
320,192,81557,1,0,0:0:0:0:
192,192,81641,1,0,0:0:0:0:
320,192,81669,1,0,0:0:0:0:
64,192,81724,1,0,0:0:0:0:
448,192,81724,1,0,0:0:0:0:
192,192,81891,1,0,0:0:0:0:
64,192,82057,1,0,0:0:0:0:
320,192,82057,1,0,0:0:0:0:
448,192,82141,1,0,0:0:0:0:
192,192,82307,1,0,0:0:0:0:
320,192,82391,1,0,0:0:0:0:
448,192,82391,1,0,0:0:0:0:
192,192,82474,1,0,0:0:0:0:
64,192,82557,1,0,0:0:0:0:
192,192,82641,1,0,0:0:0:0:
64,192,82724,1,0,0:0:0:0:
320,192,82724,1,0,0:0:0:0:
192,192,82891,1,0,0:0:0:0:
320,192,82974,1,0,0:0:0:0:
64,192,83057,1,0,0:0:0:0:
448,192,83057,1,0,0:0:0:0:
64,0,83224,128,0,83391:0:0:0:0:
192,192,83391,1,0,0:0:0:0:
320,192,83391,1,0,0:0:0:0:
448,192,83474,1,0,0:0:0:0:
64,192,83557,1,0,0:0:0:0:
448,192,83641,1,0,0:0:0:0:
192,192,83724,1,0,0:0:0:0:
320,192,83724,1,0,0:0:0:0:
64,192,83807,1,0,0:0:0:0:
448,0,83891,128,0,84057:0:0:0:0:
64,192,84057,1,0,0:0:0:0:
192,192,84057,1,0,0:0:0:0:
320,192,84224,1,0,0:0:0:0:
448,192,84307,1,0,0:0:0:0:
192,192,84391,1,0,0:0:0:0:
320,192,84391,1,0,0:0:0:0:
448,192,84557,1,0,0:0:0:0:
64,192,84641,1,0,0:0:0:0:
192,192,84724,1,0,0:0:0:0:
448,192,84724,1,0,0:0:0:0:
320,192,84807,1,0,0:0:0:0:
192,192,84891,1,0,0:0:0:0:
64,192,84946,1,0,0:0:0:0:
192,192,85057,1,0,0:0:0:0:
320,192,85057,1,0,0:0:0:0:
448,192,85224,1,0,0:0:0:0:
64,192,85391,1,0,0:0:0:0:
192,192,85391,1,0,0:0:0:0:
320,192,85474,1,0,0:0:0:0:
448,192,85557,1,0,0:0:0:0:
320,192,85641,1,0,0:0:0:0:
192,192,85724,1,0,0:0:0:0:
448,192,85724,1,0,0:0:0:0:
64,192,85807,1,0,0:0:0:0:
192,192,85891,1,0,0:0:0:0:
320,192,85974,1,0,0:0:0:0:
64,192,86057,1,0,0:0:0:0:
448,192,86057,1,0,0:0:0:0:
192,192,86141,1,0,0:0:0:0:
320,192,86224,1,0,0:0:0:0:
192,192,86307,1,0,0:0:0:0:
320,192,86391,1,0,0:0:0:0:
64,0,86391,128,0,86724:0:0:0:0:
448,192,86474,1,0,0:0:0:0:
320,192,86557,1,0,0:0:0:0:
192,192,86724,1,0,0:0:0:0:
448,192,86724,1,0,0:0:0:0:
320,192,86891,1,0,0:0:0:0:
192,192,86974,1,0,0:0:0:0:
64,192,87057,1,0,0:0:0:0:
320,192,87057,1,0,0:0:0:0:
192,192,87141,1,0,0:0:0:0:
320,192,87224,1,0,0:0:0:0:
64,192,87391,1,0,0:0:0:0:
192,192,87391,1,0,0:0:0:0:
448,192,87516,1,0,0:0:0:0:
320,192,87613,1,0,0:0:0:0:
192,192,87682,1,0,0:0:0:0:
64,192,87724,1,0,0:0:0:0:
448,192,87724,1,0,0:0:0:0:
320,192,87780,1,0,0:0:0:0:
192,192,87891,1,0,0:0:0:0:
320,192,88057,1,0,0:0:0:0:
448,192,88057,1,0,0:0:0:0:
64,192,88169,1,0,0:0:0:0:
320,192,88224,1,0,0:0:0:0:
192,192,88307,1,0,0:0:0:0:
448,192,88335,1,0,0:0:0:0:
64,192,88391,1,0,0:0:0:0:
320,192,88391,1,0,0:0:0:0:
192,192,88474,1,0,0:0:0:0:
448,192,88530,1,0,0:0:0:0:
320,192,88669,1,0,0:0:0:0:
64,192,88724,1,0,0:0:0:0:
192,192,88724,1,0,0:0:0:0:
320,192,88891,1,0,0:0:0:0:
192,192,88974,1,0,0:0:0:0:
64,192,89057,1,0,0:0:0:0:
448,192,89057,1,0,0:0:0:0:
192,192,89141,1,0,0:0:0:0:
320,192,89224,1,0,0:0:0:0:
192,192,89391,1,0,0:0:0:0:
448,192,89391,1,0,0:0:0:0:
320,192,89474,1,0,0:0:0:0:
320,192,89641,1,0,0:0:0:0:
64,192,89724,1,0,0:0:0:0:
192,192,89724,1,0,0:0:0:0:
320,192,89835,1,0,0:0:0:0:
448,192,89891,1,0,0:0:0:0:
64,192,90030,1,0,0:0:0:0:
192,0,90030,128,0,90224:0:0:0:0:
320,192,90057,1,0,0:0:0:0:
448,192,90057,1,0,0:0:0:0:
64,192,90224,1,0,0:0:0:0:
448,192,90307,1,0,0:0:0:0:
192,192,90391,1,0,0:0:0:0:
320,192,90391,1,0,0:0:0:0:
64,192,90557,1,0,0:0:0:0:
192,192,90669,1,0,0:0:0:0:
320,192,90724,1,0,0:0:0:0:
448,192,90724,1,0,0:0:0:0:
64,192,90807,1,0,0:0:0:0:
192,192,90849,1,0,0:0:0:0:
320,192,90891,1,0,0:0:0:0:
448,192,90891,1,0,0:0:0:0:
192,192,90974,1,0,0:0:0:0:
64,192,91057,1,0,0:0:0:0:
320,192,91057,1,0,0:0:0:0:
192,192,91141,1,0,0:0:0:0:
320,192,91224,1,0,0:0:0:0:
448,192,91224,1,0,0:0:0:0:
320,192,91391,1,0,0:0:0:0:
448,192,91391,1,0,0:0:0:0:
192,192,91474,1,0,0:0:0:0:
64,192,91557,1,0,0:0:0:0:
320,192,91641,1,0,0:0:0:0:
64,192,91724,1,0,0:0:0:0:
448,192,91724,1,0,0:0:0:0:
320,192,91807,1,0,0:0:0:0:
192,192,91891,1,0,0:0:0:0:
64,192,91974,1,0,0:0:0:0:
192,192,92057,1,0,0:0:0:0:
320,192,92057,1,0,0:0:0:0:
448,192,92141,1,0,0:0:0:0:
320,192,92224,1,0,0:0:0:0:
64,192,92307,1,0,0:0:0:0:
192,192,92391,1,0,0:0:0:0:
448,192,92391,1,0,0:0:0:0:
64,192,92474,1,0,0:0:0:0:
64,192,92557,1,0,0:0:0:0:
320,192,92682,1,0,0:0:0:0:
64,192,92724,1,0,0:0:0:0:
192,192,92724,1,0,0:0:0:0:
192,192,92891,1,0,0:0:0:0:
320,192,92891,1,0,0:0:0:0:
320,192,93057,1,0,0:0:0:0:
448,0,93057,128,0,93141:0:0:0:0:
192,192,93141,1,0,0:0:0:0:
320,192,93224,1,0,0:0:0:0:
448,0,93224,128,0,93307:0:0:0:0:
64,192,93391,1,0,0:0:0:0:
192,192,93391,1,0,0:0:0:0:
320,192,93474,1,0,0:0:0:0:
192,192,93557,1,0,0:0:0:0:
64,192,93641,1,0,0:0:0:0:
448,192,93682,1,0,0:0:0:0:
192,192,93724,1,0,0:0:0:0:
320,192,93724,1,0,0:0:0:0:
64,192,93891,1,0,0:0:0:0:
192,192,93891,1,0,0:0:0:0:
320,192,94057,1,0,0:0:0:0:
448,192,94057,1,0,0:0:0:0:
64,192,94224,1,0,0:0:0:0:
448,192,94224,1,0,0:0:0:0:
320,192,94307,1,0,0:0:0:0:
192,192,94391,1,0,0:0:0:0:
64,0,94391,128,0,94474:0:0:0:0:
320,192,94474,1,0,0:0:0:0:
192,192,94557,1,0,0:0:0:0:
64,0,94557,128,0,94641:0:0:0:0:
320,192,94724,1,0,0:0:0:0:
448,192,94724,1,0,0:0:0:0:
64,192,94891,1,0,0:0:0:0:
192,192,94891,1,0,0:0:0:0:
320,192,95057,1,0,0:0:0:0:
448,192,95057,1,0,0:0:0:0:
64,192,95169,1,0,0:0:0:0:
192,192,95224,1,0,0:0:0:0:
320,192,95307,1,0,0:0:0:0:
64,192,95391,1,0,0:0:0:0:
192,192,95391,1,0,0:0:0:0:
320,192,95557,1,0,0:0:0:0:
448,0,95557,128,0,95724:0:0:0:0:
192,192,95724,1,0,0:0:0:0:
320,192,95724,1,0,0:0:0:0:
192,192,95891,1,0,0:0:0:0:
64,0,95891,128,0,96057:0:0:0:0:
320,192,96057,1,0,0:0:0:0:
448,192,96057,1,0,0:0:0:0:
192,192,96224,1,0,0:0:0:0:
64,192,96391,1,0,0:0:0:0:
448,192,96391,1,0,0:0:0:0:
320,192,96557,1,0,0:0:0:0:
192,192,96669,1,0,0:0:0:0:
64,192,96724,1,0,0:0:0:0:
320,192,96724,1,0,0:0:0:0:
448,192,96891,1,0,0:0:0:0:
320,192,96974,1,0,0:0:0:0:
192,192,97016,1,0,0:0:0:0:
64,0,97057,128,0,97391:0:0:0:0:
448,0,97057,128,0,97391:0:0:0:0:
320,192,97141,1,0,0:0:0:0:
192,192,97224,1,0,0:0:0:0:
192,192,97391,1,0,0:0:0:0:
320,192,97391,1,0,0:0:0:0:
320,192,97557,1,0,0:0:0:0:
192,192,97641,1,0,0:0:0:0:
64,192,97724,1,0,0:0:0:0:
448,192,97724,1,0,0:0:0:0:
192,192,97891,1,0,0:0:0:0:
64,192,97974,1,0,0:0:0:0:
320,192,98057,1,0,0:0:0:0:
448,192,98057,1,0,0:0:0:0:
64,192,98224,1,0,0:0:0:0:
192,192,98224,1,0,0:0:0:0:
320,192,98391,1,0,0:0:0:0:
448,192,98391,1,0,0:0:0:0:
192,192,98474,1,0,0:0:0:0:
320,192,98557,1,0,0:0:0:0:
448,192,98557,1,0,0:0:0:0:
64,192,98724,1,0,0:0:0:0:
192,192,98724,1,0,0:0:0:0:
320,192,98891,1,0,0:0:0:0:
192,192,98974,1,0,0:0:0:0:
448,192,98974,1,0,0:0:0:0:
64,192,99057,1,0,0:0:0:0:
320,192,99057,1,0,0:0:0:0:
64,192,99224,1,0,0:0:0:0:
192,192,99224,1,0,0:0:0:0:
320,192,99391,1,0,0:0:0:0:
448,192,99391,1,0,0:0:0:0:
192,192,99474,1,0,0:0:0:0:
64,192,99557,1,0,0:0:0:0:
320,192,99557,1,0,0:0:0:0:
448,192,99641,1,0,0:0:0:0:
64,192,99724,1,0,0:0:0:0:
192,192,99724,1,0,0:0:0:0:
320,192,99807,1,0,0:0:0:0:
192,192,99891,1,0,0:0:0:0:
448,192,99891,1,0,0:0:0:0:
64,192,100057,1,0,0:0:0:0:
448,192,100057,1,0,0:0:0:0:
192,192,100141,1,0,0:0:0:0:
320,192,100224,1,0,0:0:0:0:
192,192,100391,1,0,0:0:0:0:
448,192,100391,1,0,0:0:0:0:
320,192,100557,1,0,0:0:0:0:
448,192,100557,1,0,0:0:0:0:
64,192,100724,1,0,0:0:0:0:
192,192,100724,1,0,0:0:0:0:
64,192,100891,1,0,0:0:0:0:
320,192,100974,1,0,0:0:0:0:
448,192,100974,1,0,0:0:0:0:
64,192,101057,1,0,0:0:0:0:
192,192,101057,1,0,0:0:0:0:
192,192,101224,1,0,0:0:0:0:
320,192,101391,1,0,0:0:0:0:
448,192,101391,1,0,0:0:0:0:
192,192,101557,1,0,0:0:0:0:
320,192,101724,1,0,0:0:0:0:
448,192,101724,1,0,0:0:0:0:
192,192,101891,1,0,0:0:0:0:
64,192,102057,1,0,0:0:0:0:
448,192,102057,1,0,0:0:0:0:
64,192,102391,1,0,0:0:0:0:
192,192,102391,1,0,0:0:0:0:
64,192,102724,1,0,0:0:0:0:
192,192,102724,1,0,0:0:0:0:
320,192,102724,1,0,0:0:0:0:
448,192,102724,1,0,0:0:0:0:
64,192,103057,1,0,0:0:0:0:
192,192,103057,1,0,0:0:0:0:
320,192,103307,1,0,0:0:0:0:
448,192,103391,1,0,0:0:0:0:
320,192,103641,1,0,0:0:0:0:
192,192,103724,1,0,0:0:0:0:
448,192,103724,1,0,0:0:0:0:
64,192,103974,1,0,0:0:0:0:
192,192,104057,1,0,0:0:0:0:
320,192,104057,1,0,0:0:0:0:
192,192,104307,1,0,0:0:0:0:
448,192,104307,1,0,0:0:0:0:
64,192,104391,1,0,0:0:0:0:
320,192,104391,1,0,0:0:0:0:
64,192,104641,1,0,0:0:0:0:
320,192,104641,1,0,0:0:0:0:
448,192,104724,1,0,0:0:0:0:
320,192,104974,1,0,0:0:0:0:
64,192,105057,1,0,0:0:0:0:
192,192,105057,1,0,0:0:0:0:
192,192,105307,1,0,0:0:0:0:
64,192,105391,1,0,0:0:0:0:
320,192,105391,1,0,0:0:0:0:
448,192,105391,1,0,0:0:0:0:
64,192,105724,1,0,0:0:0:0:
192,192,105724,1,0,0:0:0:0:
320,192,105974,1,0,0:0:0:0:
448,192,106057,1,0,0:0:0:0:
320,192,106307,1,0,0:0:0:0:
448,192,106307,1,0,0:0:0:0:
192,192,106391,1,0,0:0:0:0:
192,192,106641,1,0,0:0:0:0:
448,192,106641,1,0,0:0:0:0:
64,192,106724,1,0,0:0:0:0:
320,192,106724,1,0,0:0:0:0:
64,192,106835,1,0,0:0:0:0:
64,192,106946,1,0,0:0:0:0:
64,192,107057,1,0,0:0:0:0:
448,192,107057,1,0,0:0:0:0:
64,192,107169,1,0,0:0:0:0:
64,192,107280,1,0,0:0:0:0:
64,192,107391,1,0,0:0:0:0:
192,192,107391,1,0,0:0:0:0:
448,192,107641,1,0,0:0:0:0:
320,192,107724,1,0,0:0:0:0:
448,192,107974,1,0,0:0:0:0:
64,192,108057,1,0,0:0:0:0:
192,192,108057,1,0,0:0:0:0:
320,192,108057,1,0,0:0:0:0:
64,192,108391,1,0,0:0:0:0:
192,192,108391,1,0,0:0:0:0:
320,192,108641,1,0,0:0:0:0:
448,192,108724,1,0,0:0:0:0:
320,192,108974,1,0,0:0:0:0:
192,192,109057,1,0,0:0:0:0:
448,192,109057,1,0,0:0:0:0:
64,192,109307,1,0,0:0:0:0:
192,192,109391,1,0,0:0:0:0:
320,192,109391,1,0,0:0:0:0:
64,192,109641,1,0,0:0:0:0:
192,192,109641,1,0,0:0:0:0:
320,192,109724,1,0,0:0:0:0:
448,192,109724,1,0,0:0:0:0:
192,192,109974,1,0,0:0:0:0:
320,192,109974,1,0,0:0:0:0:
448,192,110057,1,0,0:0:0:0:
320,192,110307,1,0,0:0:0:0:
64,192,110391,1,0,0:0:0:0:
192,192,110391,1,0,0:0:0:0:
64,192,110641,1,0,0:0:0:0:
192,192,110724,1,0,0:0:0:0:
320,192,110724,1,0,0:0:0:0:
448,192,110724,1,0,0:0:0:0:
64,192,111057,1,0,0:0:0:0:
320,192,111057,1,0,0:0:0:0:
320,192,111307,1,0,0:0:0:0:
448,192,111391,1,0,0:0:0:0:
64,192,111641,1,0,0:0:0:0:
320,192,111641,1,0,0:0:0:0:
192,192,111724,1,0,0:0:0:0:
64,192,111974,1,0,0:0:0:0:
448,192,111974,1,0,0:0:0:0:
192,192,112057,1,0,0:0:0:0:
320,192,112057,1,0,0:0:0:0:
192,192,112724,1,0,0:0:0:0:
320,192,112724,1,0,0:0:0:0:
64,192,112891,1,0,0:0:0:0:
448,192,112891,1,0,0:0:0:0:
64,192,113057,1,0,0:0:0:0:
448,192,113057,1,0,0:0:0:0:
64,192,113224,1,0,0:0:0:0:
448,192,113224,1,0,0:0:0:0:
64,192,113391,1,0,0:0:0:0:
192,192,113391,1,0,0:0:0:0:
320,192,113391,1,0,0:0:0:0:
448,192,113391,1,0,0:0:0:0:
192,192,113557,1,0,0:0:0:0:
320,192,113557,1,0,0:0:0:0:
64,192,113724,1,0,0:0:0:0:
320,192,113724,1,0,0:0:0:0:
448,192,113724,1,0,0:0:0:0:
192,192,113891,1,0,0:0:0:0:
320,192,113891,1,0,0:0:0:0:
192,192,114057,1,0,0:0:0:0:
448,192,114057,1,0,0:0:0:0:
64,192,114224,1,0,0:0:0:0:
320,192,114224,1,0,0:0:0:0:
192,192,114307,1,0,0:0:0:0:
448,192,114307,1,0,0:0:0:0:
64,192,114391,1,0,0:0:0:0:
320,192,114391,1,0,0:0:0:0:
448,192,114391,1,0,0:0:0:0:
192,192,114557,1,0,0:0:0:0:
320,192,114557,1,0,0:0:0:0:
64,192,114724,1,0,0:0:0:0:
192,192,114724,1,0,0:0:0:0:
320,192,114891,1,0,0:0:0:0:
448,192,114891,1,0,0:0:0:0:
64,192,114974,1,0,0:0:0:0:
192,192,114974,1,0,0:0:0:0:
64,192,115057,1,0,0:0:0:0:
320,192,115057,1,0,0:0:0:0:
448,192,115057,1,0,0:0:0:0:
192,192,115224,1,0,0:0:0:0:
320,192,115224,1,0,0:0:0:0:
64,192,115391,1,0,0:0:0:0:
192,192,115391,1,0,0:0:0:0:
192,192,115557,1,0,0:0:0:0:
320,192,115557,1,0,0:0:0:0:
64,192,115724,1,0,0:0:0:0:
320,192,115724,1,0,0:0:0:0:
448,192,115724,1,0,0:0:0:0:
192,192,115891,1,0,0:0:0:0:
320,192,115891,1,0,0:0:0:0:
192,192,116057,1,0,0:0:0:0:
448,192,116057,1,0,0:0:0:0:
64,192,116224,1,0,0:0:0:0:
320,192,116224,1,0,0:0:0:0:
192,192,116391,1,0,0:0:0:0:
320,192,116391,1,0,0:0:0:0:
448,192,116391,1,0,0:0:0:0:
64,192,116557,1,0,0:0:0:0:
448,192,116557,1,0,0:0:0:0:
192,192,116641,1,0,0:0:0:0:
320,192,116641,1,0,0:0:0:0:
64,192,116724,1,0,0:0:0:0:
448,192,116724,1,0,0:0:0:0:
64,192,116891,1,0,0:0:0:0:
192,192,116891,1,0,0:0:0:0:
448,192,116932,1,0,0:0:0:0:
320,192,116974,1,0,0:0:0:0:
192,192,117016,1,0,0:0:0:0:
64,192,117057,1,0,0:0:0:0:
448,192,117057,1,0,0:0:0:0:
192,192,117224,1,0,0:0:0:0:
448,192,117224,1,0,0:0:0:0:
64,192,117391,1,0,0:0:0:0:
320,192,117391,1,0,0:0:0:0:
192,192,117557,1,0,0:0:0:0:
448,192,117557,1,0,0:0:0:0:
64,192,117724,1,0,0:0:0:0:
320,192,117724,1,0,0:0:0:0:
448,192,117724,1,0,0:0:0:0:
64,192,117891,1,0,0:0:0:0:
192,192,117891,1,0,0:0:0:0:
192,192,118057,1,0,0:0:0:0:
320,192,118057,1,0,0:0:0:0:
64,192,118224,1,0,0:0:0:0:
448,192,118224,1,0,0:0:0:0:
64,192,118391,1,0,0:0:0:0:
192,192,118391,1,0,0:0:0:0:
320,192,118391,1,0,0:0:0:0:
192,192,118557,1,0,0:0:0:0:
448,192,118557,1,0,0:0:0:0:
64,192,118724,1,0,0:0:0:0:
320,192,118724,1,0,0:0:0:0:
448,192,118724,1,0,0:0:0:0:
192,192,118891,1,0,0:0:0:0:
320,192,118891,1,0,0:0:0:0:
64,192,119057,1,0,0:0:0:0:
320,192,119057,1,0,0:0:0:0:
448,192,119057,1,0,0:0:0:0:
192,192,119224,1,0,0:0:0:0:
320,192,119224,1,0,0:0:0:0:
64,192,119391,1,0,0:0:0:0:
320,192,119391,1,0,0:0:0:0:
448,192,119391,1,0,0:0:0:0:
192,192,119557,1,0,0:0:0:0:
320,192,119557,1,0,0:0:0:0:
64,192,119724,1,0,0:0:0:0:
320,192,119724,1,0,0:0:0:0:
448,192,119724,1,0,0:0:0:0:
192,192,119891,1,0,0:0:0:0:
320,192,119891,1,0,0:0:0:0:
64,192,120057,1,0,0:0:0:0:
320,192,120057,1,0,0:0:0:0:
448,192,120057,1,0,0:0:0:0:
64,192,120224,1,0,0:0:0:0:
192,192,120224,1,0,0:0:0:0:
192,192,120391,1,0,0:0:0:0:
320,192,120391,1,0,0:0:0:0:
448,192,120391,1,0,0:0:0:0:
64,192,120557,1,0,0:0:0:0:
320,192,120557,1,0,0:0:0:0:
192,192,120724,1,0,0:0:0:0:
448,192,120724,1,0,0:0:0:0:
320,192,120891,1,0,0:0:0:0:
448,192,120891,1,0,0:0:0:0:
64,192,121057,1,0,0:0:0:0:
192,192,121057,1,0,0:0:0:0:
320,192,121057,1,0,0:0:0:0:
192,192,121224,1,0,0:0:0:0:
448,192,121224,1,0,0:0:0:0:
64,192,121391,1,0,0:0:0:0:
320,192,121391,1,0,0:0:0:0:
192,192,121557,1,0,0:0:0:0:
320,192,121557,1,0,0:0:0:0:
64,192,121724,1,0,0:0:0:0:
192,192,121724,1,0,0:0:0:0:
448,192,121724,1,0,0:0:0:0:
192,192,121891,1,0,0:0:0:0:
320,192,121891,1,0,0:0:0:0:
320,192,122057,1,0,0:0:0:0:
448,192,122057,1,0,0:0:0:0:
192,192,122224,1,0,0:0:0:0:
320,192,122224,1,0,0:0:0:0:
64,192,122391,1,0,0:0:0:0:
192,192,122391,1,0,0:0:0:0:
448,192,122391,1,0,0:0:0:0:
192,192,122557,1,0,0:0:0:0:
320,192,122557,1,0,0:0:0:0:
64,192,122724,1,0,0:0:0:0:
320,192,122724,1,0,0:0:0:0:
448,192,122724,1,0,0:0:0:0:
192,192,122807,1,0,0:0:0:0:
64,192,122891,1,0,0:0:0:0:
448,192,122891,1,0,0:0:0:0:
320,192,122974,1,0,0:0:0:0:
64,192,123057,1,0,0:0:0:0:
192,192,123057,1,0,0:0:0:0:
448,192,123057,1,0,0:0:0:0:
320,192,123141,1,0,0:0:0:0:
64,192,123224,1,0,0:0:0:0:
448,192,123224,1,0,0:0:0:0:
192,192,123307,1,0,0:0:0:0:
64,0,123391,128,0,123474:0:0:0:0:
320,0,123391,128,0,123557:0:0:0:0:
448,0,123391,128,0,123557:0:0:0:0:
64,0,123724,128,0,123974:0:0:0:0:
192,0,123724,128,0,123974:0:0:0:0:
64,192,124057,1,0,0:0:0:0:
192,192,124057,1,0,0:0:0:0:
320,192,124057,1,0,0:0:0:0:
448,192,124057,1,0,0:0:0:0:
320,192,124224,1,0,0:0:0:0:
448,192,124224,1,0,0:0:0:0:
192,192,124391,1,0,0:0:0:0:
320,192,124391,1,0,0:0:0:0:
448,192,124391,1,0,0:0:0:0:
64,192,124557,1,0,0:0:0:0:
192,192,124557,1,0,0:0:0:0:
320,192,124557,1,0,0:0:0:0:
64,192,124724,1,0,0:0:0:0:
192,192,124724,1,0,0:0:0:0:
192,192,124891,1,0,0:0:0:0:
320,192,124891,1,0,0:0:0:0:
448,192,124891,1,0,0:0:0:0:
64,192,125057,1,0,0:0:0:0:
320,192,125057,1,0,0:0:0:0:
448,192,125057,1,0,0:0:0:0:
192,192,125224,1,0,0:0:0:0:
320,192,125224,1,0,0:0:0:0:
64,192,125391,1,0,0:0:0:0:
192,192,125391,1,0,0:0:0:0:
448,192,125391,1,0,0:0:0:0:
64,192,125557,1,0,0:0:0:0:
192,192,125557,1,0,0:0:0:0:
64,192,125724,1,0,0:0:0:0:
320,192,125724,1,0,0:0:0:0:
448,192,125724,1,0,0:0:0:0:
192,192,125891,1,0,0:0:0:0:
320,192,125891,1,0,0:0:0:0:
448,192,125891,1,0,0:0:0:0:
192,192,126057,1,0,0:0:0:0:
320,192,126057,1,0,0:0:0:0:
64,192,126224,1,0,0:0:0:0:
192,192,126224,1,0,0:0:0:0:
448,192,126224,1,0,0:0:0:0:
64,192,126391,1,0,0:0:0:0:
192,192,126391,1,0,0:0:0:0:
320,192,126391,1,0,0:0:0:0:
192,192,126557,1,0,0:0:0:0:
320,192,126557,1,0,0:0:0:0:
64,192,126724,1,0,0:0:0:0:
320,192,126724,1,0,0:0:0:0:
448,192,126724,1,0,0:0:0:0:
320,192,126891,1,0,0:0:0:0:
448,192,126891,1,0,0:0:0:0:
192,192,127057,1,0,0:0:0:0:
320,192,127057,1,0,0:0:0:0:
448,192,127057,1,0,0:0:0:0:
64,192,127224,1,0,0:0:0:0:
192,192,127224,1,0,0:0:0:0:
320,192,127224,1,0,0:0:0:0:
64,192,127391,1,0,0:0:0:0:
192,192,127391,1,0,0:0:0:0:
192,192,127557,1,0,0:0:0:0:
320,192,127557,1,0,0:0:0:0:
448,192,127557,1,0,0:0:0:0:
64,192,127724,1,0,0:0:0:0:
320,192,127724,1,0,0:0:0:0:
448,192,127724,1,0,0:0:0:0:
192,192,127891,1,0,0:0:0:0:
320,192,127891,1,0,0:0:0:0:
64,192,128057,1,0,0:0:0:0:
192,192,128057,1,0,0:0:0:0:
448,192,128057,1,0,0:0:0:0:
64,192,128224,1,0,0:0:0:0:
192,192,128224,1,0,0:0:0:0:
64,192,128391,1,0,0:0:0:0:
320,192,128391,1,0,0:0:0:0:
448,192,128391,1,0,0:0:0:0:
192,192,128557,1,0,0:0:0:0:
320,192,128557,1,0,0:0:0:0:
448,192,128557,1,0,0:0:0:0:
192,192,128724,1,0,0:0:0:0:
320,192,128724,1,0,0:0:0:0:
64,192,128891,1,0,0:0:0:0:
192,192,128891,1,0,0:0:0:0:
448,192,128891,1,0,0:0:0:0:
64,192,129057,1,0,0:0:0:0:
192,192,129057,1,0,0:0:0:0:
320,192,129057,1,0,0:0:0:0:
192,192,129224,1,0,0:0:0:0:
320,192,129224,1,0,0:0:0:0:
64,192,129391,1,0,0:0:0:0:
320,192,129391,1,0,0:0:0:0:
448,192,129391,1,0,0:0:0:0:
64,192,129557,1,0,0:0:0:0:
192,192,129557,1,0,0:0:0:0:
320,192,129641,1,0,0:0:0:0:
448,192,129641,1,0,0:0:0:0:
64,192,129724,1,0,0:0:0:0:
192,192,129724,1,0,0:0:0:0:
448,192,129724,1,0,0:0:0:0:
320,192,129891,1,0,0:0:0:0:
448,192,129891,1,0,0:0:0:0:
64,192,130057,1,0,0:0:0:0:
192,192,130057,1,0,0:0:0:0:
320,192,130224,1,0,0:0:0:0:
448,192,130224,1,0,0:0:0:0:
64,192,130307,1,0,0:0:0:0:
192,192,130307,1,0,0:0:0:0:
64,192,130391,1,0,0:0:0:0:
320,192,130391,1,0,0:0:0:0:
448,192,130391,1,0,0:0:0:0:
192,192,130557,1,0,0:0:0:0:
320,192,130557,1,0,0:0:0:0:
64,192,130724,1,0,0:0:0:0:
448,192,130724,1,0,0:0:0:0:
64,192,130891,1,0,0:0:0:0:
320,192,130891,1,0,0:0:0:0:
192,192,130974,1,0,0:0:0:0:
448,192,130974,1,0,0:0:0:0:
64,192,131057,1,0,0:0:0:0:
320,192,131057,1,0,0:0:0:0:
448,192,131057,1,0,0:0:0:0:
192,192,131224,1,0,0:0:0:0:
320,192,131224,1,0,0:0:0:0:
64,192,131391,1,0,0:0:0:0:
448,192,131391,1,0,0:0:0:0:
192,192,131557,1,0,0:0:0:0:
448,192,131557,1,0,0:0:0:0:
64,192,131724,1,0,0:0:0:0:
192,192,131724,1,0,0:0:0:0:
320,192,131724,1,0,0:0:0:0:
320,192,131891,1,0,0:0:0:0:
448,192,131891,1,0,0:0:0:0:
64,192,132057,1,0,0:0:0:0:
448,192,132057,1,0,0:0:0:0:
192,192,132224,1,0,0:0:0:0:
320,192,132224,1,0,0:0:0:0:
64,192,132391,1,0,0:0:0:0:
320,192,132391,1,0,0:0:0:0:
448,192,132391,1,0,0:0:0:0:
192,192,132557,1,0,0:0:0:0:
320,192,132557,1,0,0:0:0:0:
64,192,132724,1,0,0:0:0:0:
448,192,132724,1,0,0:0:0:0:
320,192,132891,1,0,0:0:0:0:
448,192,132891,1,0,0:0:0:0:
64,192,133057,1,0,0:0:0:0:
192,192,133057,1,0,0:0:0:0:
320,192,133057,1,0,0:0:0:0:
192,192,133224,1,0,0:0:0:0:
448,192,133224,1,0,0:0:0:0:
64,192,133391,1,0,0:0:0:0:
320,192,133391,1,0,0:0:0:0:
448,192,133391,1,0,0:0:0:0:
64,192,133557,1,0,0:0:0:0:
448,192,133557,1,0,0:0:0:0:
320,192,133641,1,0,0:0:0:0:
64,192,133724,1,0,0:0:0:0:
192,192,133724,1,0,0:0:0:0:
448,192,133724,1,0,0:0:0:0:
64,192,133891,1,0,0:0:0:0:
192,192,133891,1,0,0:0:0:0:
320,192,133974,1,0,0:0:0:0:
64,192,134057,1,0,0:0:0:0:
192,192,134057,1,0,0:0:0:0:
448,192,134057,1,0,0:0:0:0:
320,192,134224,1,0,0:0:0:0:
448,192,134224,1,0,0:0:0:0:
192,192,134307,1,0,0:0:0:0:
64,192,134391,1,0,0:0:0:0:
320,192,134391,1,0,0:0:0:0:
448,192,134391,1,0,0:0:0:0:
192,192,134474,1,0,0:0:0:0:
64,192,134557,1,0,0:0:0:0:
448,192,134557,1,0,0:0:0:0:
320,192,134641,1,0,0:0:0:0:
64,192,134724,1,0,0:0:0:0:
192,192,134724,1,0,0:0:0:0:
448,192,134724,1,0,0:0:0:0:
320,192,135057,1,0,0:0:0:0:
320,192,135224,1,0,0:0:0:0:
192,192,135307,1,0,0:0:0:0:
64,192,135391,1,0,0:0:0:0:
320,192,135391,1,0,0:0:0:0:
448,192,135391,1,0,0:0:0:0:
320,192,135724,1,0,0:0:0:0:
448,192,135807,1,0,0:0:0:0:
192,192,135891,1,0,0:0:0:0:
320,192,135974,1,0,0:0:0:0:
64,192,136057,1,0,0:0:0:0:
192,192,136057,1,0,0:0:0:0:
448,192,136057,1,0,0:0:0:0:
192,192,136224,1,0,0:0:0:0:
320,192,136307,1,0,0:0:0:0:
64,192,136391,1,0,0:0:0:0:
192,192,136391,1,0,0:0:0:0:
448,192,136391,1,0,0:0:0:0:
320,192,136557,1,0,0:0:0:0:
64,192,136724,1,0,0:0:0:0:
192,192,136724,1,0,0:0:0:0:
448,192,136724,1,0,0:0:0:0:
320,192,136891,1,0,0:0:0:0:
320,192,136974,1,0,0:0:0:0:
192,192,137057,1,0,0:0:0:0:
64,192,137224,1,0,0:0:0:0:
64,192,137391,1,0,0:0:0:0:
320,192,137391,1,0,0:0:0:0:
448,192,137391,1,0,0:0:0:0:
64,192,137724,1,0,0:0:0:0:
64,192,137891,1,0,0:0:0:0:
64,192,138057,1,0,0:0:0:0:
320,192,138057,1,0,0:0:0:0:
448,192,138057,1,0,0:0:0:0:
64,192,138391,1,0,0:0:0:0:
448,192,138474,1,0,0:0:0:0:
320,192,138557,1,0,0:0:0:0:
192,192,138641,1,0,0:0:0:0:
64,192,138724,1,0,0:0:0:0:
320,192,138724,1,0,0:0:0:0:
448,192,138724,1,0,0:0:0:0:
64,192,138891,1,0,0:0:0:0:
192,192,138891,1,0,0:0:0:0:
64,192,139057,1,0,0:0:0:0:
320,192,139057,1,0,0:0:0:0:
448,192,139057,1,0,0:0:0:0:
192,192,139224,1,0,0:0:0:0:
320,192,139224,1,0,0:0:0:0:
64,192,139391,1,0,0:0:0:0:
320,192,139391,1,0,0:0:0:0:
448,192,139391,1,0,0:0:0:0:
192,192,139557,1,0,0:0:0:0:
64,192,139724,1,0,0:0:0:0:
320,192,139724,1,0,0:0:0:0:
448,192,139724,1,0,0:0:0:0:
64,192,140057,1,0,0:0:0:0:
192,192,140057,1,0,0:0:0:0:
320,192,140057,1,0,0:0:0:0:
448,192,140391,1,0,0:0:0:0:
320,192,140557,1,0,0:0:0:0:
448,192,140641,1,0,0:0:0:0:
64,192,140724,1,0,0:0:0:0:
192,192,140724,1,0,0:0:0:0:
320,192,140724,1,0,0:0:0:0:
320,192,141057,1,0,0:0:0:0:
448,192,141224,1,0,0:0:0:0:
64,192,141391,1,0,0:0:0:0:
192,192,141391,1,0,0:0:0:0:
320,192,141391,1,0,0:0:0:0:
320,192,141557,1,0,0:0:0:0:
448,192,141641,1,0,0:0:0:0:
64,192,141724,1,0,0:0:0:0:
192,192,141724,1,0,0:0:0:0:
320,192,141724,1,0,0:0:0:0:
448,192,141891,1,0,0:0:0:0:
64,192,142057,1,0,0:0:0:0:
192,192,142057,1,0,0:0:0:0:
320,192,142057,1,0,0:0:0:0:
448,192,142224,1,0,0:0:0:0:
320,192,142307,1,0,0:0:0:0:
192,192,142391,1,0,0:0:0:0:
64,192,142557,1,0,0:0:0:0:
192,192,142724,1,0,0:0:0:0:
320,192,142724,1,0,0:0:0:0:
448,192,142724,1,0,0:0:0:0:
64,192,143057,1,0,0:0:0:0:
192,192,143224,1,0,0:0:0:0:
64,192,143307,1,0,0:0:0:0:
192,192,143391,1,0,0:0:0:0:
320,192,143391,1,0,0:0:0:0:
448,192,143391,1,0,0:0:0:0:
192,192,143557,1,0,0:0:0:0:
320,192,143724,1,0,0:0:0:0:
64,192,143891,1,0,0:0:0:0:
192,192,144057,1,0,0:0:0:0:
320,192,144057,1,0,0:0:0:0:
448,192,144057,1,0,0:0:0:0:
64,192,144224,1,0,0:0:0:0:
192,192,144224,1,0,0:0:0:0:
192,192,144391,1,0,0:0:0:0:
320,192,144391,1,0,0:0:0:0:
448,192,144391,1,0,0:0:0:0:
64,192,144557,1,0,0:0:0:0:
192,192,144557,1,0,0:0:0:0:
192,192,144724,1,0,0:0:0:0:
320,192,144724,1,0,0:0:0:0:
448,192,144724,1,0,0:0:0:0:
192,192,145057,1,0,0:0:0:0:
320,192,145057,1,0,0:0:0:0:
64,192,145391,1,0,0:0:0:0:
192,192,145391,1,0,0:0:0:0:
320,192,145391,1,0,0:0:0:0:
448,192,145391,1,0,0:0:0:0:
320,192,145474,1,0,0:0:0:0:
448,192,145474,1,0,0:0:0:0:
64,192,145557,1,0,0:0:0:0:
192,192,145557,1,0,0:0:0:0:
64,192,145724,1,0,0:0:0:0:
320,192,145724,1,0,0:0:0:0:
448,192,145724,1,0,0:0:0:0:
192,192,145891,1,0,0:0:0:0:
320,192,145891,1,0,0:0:0:0:
64,192,146057,1,0,0:0:0:0:
192,192,146057,1,0,0:0:0:0:
448,192,146057,1,0,0:0:0:0:
192,192,146224,1,0,0:0:0:0:
320,192,146224,1,0,0:0:0:0:
64,192,146391,1,0,0:0:0:0:
192,192,146391,1,0,0:0:0:0:
448,192,146391,1,0,0:0:0:0:
192,192,146557,1,0,0:0:0:0:
320,192,146557,1,0,0:0:0:0:
64,192,146724,1,0,0:0:0:0:
192,192,146724,1,0,0:0:0:0:
448,192,146724,1,0,0:0:0:0:
64,192,146807,1,0,0:0:0:0:
192,192,146807,1,0,0:0:0:0:
320,192,146891,1,0,0:0:0:0:
448,192,146891,1,0,0:0:0:0:
64,192,147057,1,0,0:0:0:0:
192,192,147057,1,0,0:0:0:0:
320,192,147057,1,0,0:0:0:0:
320,192,147224,1,0,0:0:0:0:
448,192,147224,1,0,0:0:0:0:
320,192,147307,1,0,0:0:0:0:
448,192,147307,1,0,0:0:0:0:
64,192,147391,1,0,0:0:0:0:
192,192,147391,1,0,0:0:0:0:
192,192,147557,1,0,0:0:0:0:
320,192,147557,1,0,0:0:0:0:
64,192,147724,1,0,0:0:0:0:
192,192,147724,1,0,0:0:0:0:
448,192,147724,1,0,0:0:0:0:
320,192,147891,1,0,0:0:0:0:
448,192,147891,1,0,0:0:0:0:
320,192,147974,1,0,0:0:0:0:
448,192,147974,1,0,0:0:0:0:
64,192,148057,1,0,0:0:0:0:
192,192,148057,1,0,0:0:0:0:
64,192,148141,1,0,0:0:0:0:
192,192,148141,1,0,0:0:0:0:
320,192,148224,1,0,0:0:0:0:
448,192,148224,1,0,0:0:0:0:
192,192,148391,1,0,0:0:0:0:
320,192,148391,1,0,0:0:0:0:
448,192,148391,1,0,0:0:0:0:
64,192,148557,1,0,0:0:0:0:
192,192,148557,1,0,0:0:0:0:
64,192,148724,1,0,0:0:0:0:
320,192,148724,1,0,0:0:0:0:
448,192,148724,1,0,0:0:0:0:
192,192,148891,1,0,0:0:0:0:
320,192,148891,1,0,0:0:0:0:
64,192,149057,1,0,0:0:0:0:
320,192,149057,1,0,0:0:0:0:
448,192,149057,1,0,0:0:0:0:
192,192,149224,1,0,0:0:0:0:
320,192,149224,1,0,0:0:0:0:
64,192,149391,1,0,0:0:0:0:
192,192,149391,1,0,0:0:0:0:
448,192,149391,1,0,0:0:0:0:
64,192,149557,1,0,0:0:0:0:
320,192,149557,1,0,0:0:0:0:
192,192,149724,1,0,0:0:0:0:
320,192,149724,1,0,0:0:0:0:
448,192,149724,1,0,0:0:0:0:
64,192,149891,1,0,0:0:0:0:
192,192,149891,1,0,0:0:0:0:
448,192,149974,1,0,0:0:0:0:
320,192,150016,1,0,0:0:0:0:
64,192,150057,1,0,0:0:0:0:
192,192,150057,1,0,0:0:0:0:
320,192,150224,1,0,0:0:0:0:
448,192,150224,1,0,0:0:0:0:
64,192,150391,1,0,0:0:0:0:
192,192,150391,1,0,0:0:0:0:
448,192,150391,1,0,0:0:0:0:
64,192,150557,1,0,0:0:0:0:
192,192,150557,1,0,0:0:0:0:
64,192,150724,1,0,0:0:0:0:
192,192,150724,1,0,0:0:0:0:
320,192,150724,1,0,0:0:0:0:
64,192,150891,1,0,0:0:0:0:
448,192,150891,1,0,0:0:0:0:
192,192,151057,1,0,0:0:0:0:
320,192,151057,1,0,0:0:0:0:
448,192,151057,1,0,0:0:0:0:
64,192,151224,1,0,0:0:0:0:
192,192,151224,1,0,0:0:0:0:
64,192,151391,1,0,0:0:0:0:
320,192,151391,1,0,0:0:0:0:
448,192,151391,1,0,0:0:0:0:
192,192,151557,1,0,0:0:0:0:
320,192,151557,1,0,0:0:0:0:
64,192,151724,1,0,0:0:0:0:
320,192,151724,1,0,0:0:0:0:
448,192,151724,1,0,0:0:0:0:
192,192,151891,1,0,0:0:0:0:
320,192,151891,1,0,0:0:0:0:
64,192,152057,1,0,0:0:0:0:
192,192,152057,1,0,0:0:0:0:
448,192,152057,1,0,0:0:0:0:
320,192,152224,1,0,0:0:0:0:
448,192,152224,1,0,0:0:0:0:
64,192,152391,1,0,0:0:0:0:
192,192,152391,1,0,0:0:0:0:
320,192,152391,1,0,0:0:0:0:
192,192,152557,1,0,0:0:0:0:
448,192,152557,1,0,0:0:0:0:
64,192,152724,1,0,0:0:0:0:
320,192,152724,1,0,0:0:0:0:
448,192,152724,1,0,0:0:0:0:
192,192,152891,1,0,0:0:0:0:
320,192,152891,1,0,0:0:0:0:
64,192,153057,1,0,0:0:0:0:
192,192,153057,1,0,0:0:0:0:
448,192,153057,1,0,0:0:0:0:
64,192,153224,1,0,0:0:0:0:
320,192,153224,1,0,0:0:0:0:
192,192,153391,1,0,0:0:0:0:
320,192,153391,1,0,0:0:0:0:
448,192,153391,1,0,0:0:0:0:
64,192,153557,1,0,0:0:0:0:
448,192,153557,1,0,0:0:0:0:
64,192,153724,1,0,0:0:0:0:
192,192,153724,1,0,0:0:0:0:
320,192,153724,1,0,0:0:0:0:
64,192,153807,1,0,0:0:0:0:
192,192,153807,1,0,0:0:0:0:
320,192,153891,1,0,0:0:0:0:
448,192,153891,1,0,0:0:0:0:
64,192,154057,1,0,0:0:0:0:
192,192,154057,1,0,0:0:0:0:
448,192,154057,1,0,0:0:0:0:
192,192,154224,1,0,0:0:0:0:
320,192,154224,1,0,0:0:0:0:
64,192,154391,1,0,0:0:0:0:
192,192,154391,1,0,0:0:0:0:
448,192,154391,1,0,0:0:0:0:
192,192,154557,1,0,0:0:0:0:
320,192,154557,1,0,0:0:0:0:
64,192,154724,1,0,0:0:0:0:
320,192,154724,1,0,0:0:0:0:
448,192,154724,1,0,0:0:0:0:
64,192,154891,1,0,0:0:0:0:
320,192,154891,1,0,0:0:0:0:
448,192,154891,1,0,0:0:0:0:
192,192,154974,1,0,0:0:0:0:
64,192,155057,1,0,0:0:0:0:
320,192,155057,1,0,0:0:0:0:
448,192,155057,1,0,0:0:0:0:
64,192,155224,1,0,0:0:0:0:
192,192,155224,1,0,0:0:0:0:
448,192,155224,1,0,0:0:0:0:
320,192,155307,1,0,0:0:0:0:
64,192,155391,1,0,0:0:0:0:
192,192,155391,1,0,0:0:0:0:
448,192,155391,1,0,0:0:0:0:
320,192,155557,1,0,0:0:0:0:
448,192,155557,1,0,0:0:0:0:
192,192,155641,1,0,0:0:0:0:
64,192,155724,1,0,0:0:0:0:
320,192,155724,1,0,0:0:0:0:
448,192,155724,1,0,0:0:0:0:
320,192,155807,1,0,0:0:0:0:
448,192,155807,1,0,0:0:0:0:
64,192,155891,1,0,0:0:0:0:
192,192,155974,1,0,0:0:0:0:
64,192,156057,1,0,0:0:0:0:
320,192,156057,1,0,0:0:0:0:
448,192,156057,1,0,0:0:0:0:
64,192,156224,1,0,0:0:0:0:
192,192,156224,1,0,0:0:0:0:
64,192,156307,1,0,0:0:0:0:
192,192,156307,1,0,0:0:0:0:
320,192,156391,1,0,0:0:0:0:
448,192,156391,1,0,0:0:0:0:
320,192,156474,1,0,0:0:0:0:
448,192,156474,1,0,0:0:0:0:
64,192,156557,1,0,0:0:0:0:
192,192,156557,1,0,0:0:0:0:
64,192,156641,1,0,0:0:0:0:
192,192,156641,1,0,0:0:0:0:
320,192,156724,1,0,0:0:0:0:
448,192,156724,1,0,0:0:0:0:
192,192,156891,1,0,0:0:0:0:
320,192,156891,1,0,0:0:0:0:
64,192,157057,1,0,0:0:0:0:
192,192,157057,1,0,0:0:0:0:
448,192,157057,1,0,0:0:0:0:
192,192,157224,1,0,0:0:0:0:
320,192,157224,1,0,0:0:0:0:
64,192,157391,1,0,0:0:0:0:
320,192,157391,1,0,0:0:0:0:
448,192,157391,1,0,0:0:0:0:
192,192,157557,1,0,0:0:0:0:
448,192,157557,1,0,0:0:0:0:
64,192,157724,1,0,0:0:0:0:
192,192,157724,1,0,0:0:0:0:
320,192,157724,1,0,0:0:0:0:
64,192,157891,1,0,0:0:0:0:
448,192,157891,1,0,0:0:0:0:
192,192,158057,1,0,0:0:0:0:
320,192,158057,1,0,0:0:0:0:
448,192,158057,1,0,0:0:0:0:
64,192,158224,1,0,0:0:0:0:
320,192,158224,1,0,0:0:0:0:
64,192,158391,1,0,0:0:0:0:
192,192,158391,1,0,0:0:0:0:
448,192,158391,1,0,0:0:0:0:
320,192,158557,1,0,0:0:0:0:
448,192,158557,1,0,0:0:0:0:
64,192,158724,1,0,0:0:0:0:
192,192,158724,1,0,0:0:0:0:
320,192,158724,1,0,0:0:0:0:
320,192,158891,1,0,0:0:0:0:
448,192,158891,1,0,0:0:0:0:
64,192,159057,1,0,0:0:0:0:
192,192,159057,1,0,0:0:0:0:
448,192,159057,1,0,0:0:0:0:
192,192,159224,1,0,0:0:0:0:
320,192,159224,1,0,0:0:0:0:
64,192,159391,1,0,0:0:0:0:
320,192,159391,1,0,0:0:0:0:
448,192,159391,1,0,0:0:0:0:
64,192,159557,1,0,0:0:0:0:
192,192,159557,1,0,0:0:0:0:
192,192,159724,1,0,0:0:0:0:
320,192,159724,1,0,0:0:0:0:
448,192,159724,1,0,0:0:0:0:
64,192,159891,1,0,0:0:0:0:
448,192,159891,1,0,0:0:0:0:
64,192,160057,1,0,0:0:0:0:
192,192,160057,1,0,0:0:0:0:
320,192,160057,1,0,0:0:0:0:
320,192,160224,1,0,0:0:0:0:
448,192,160224,1,0,0:0:0:0:
64,192,160391,1,0,0:0:0:0:
192,192,160391,1,0,0:0:0:0:
320,192,160391,1,0,0:0:0:0:
320,192,160557,1,0,0:0:0:0:
448,192,160557,1,0,0:0:0:0:
64,192,160724,1,0,0:0:0:0:
192,192,160724,1,0,0:0:0:0:
320,192,160724,1,0,0:0:0:0:
320,192,160891,1,0,0:0:0:0:
448,192,160891,1,0,0:0:0:0:
64,192,161057,1,0,0:0:0:0:
448,192,161057,1,0,0:0:0:0:
192,192,161099,1,0,0:0:0:0:
320,192,161141,1,0,0:0:0:0:
448,192,161182,1,0,0:0:0:0:
64,192,161224,1,0,0:0:0:0:
192,192,161266,1,0,0:0:0:0:
320,192,161307,1,0,0:0:0:0:
448,192,161349,1,0,0:0:0:0:
64,192,161391,1,0,0:0:0:0:
192,192,161391,1,0,0:0:0:0:
320,192,161557,1,0,0:0:0:0:
448,192,161557,1,0,0:0:0:0:
64,192,161724,1,0,0:0:0:0:
192,192,161724,1,0,0:0:0:0:
448,192,161724,1,0,0:0:0:0:
192,192,161891,1,0,0:0:0:0:
320,192,161891,1,0,0:0:0:0:
64,192,162057,1,0,0:0:0:0:
320,192,162057,1,0,0:0:0:0:
448,192,162057,1,0,0:0:0:0:
64,192,162224,1,0,0:0:0:0:
192,192,162224,1,0,0:0:0:0:
192,192,162391,1,0,0:0:0:0:
320,192,162391,1,0,0:0:0:0:
448,192,162391,1,0,0:0:0:0:
64,192,162557,1,0,0:0:0:0:
320,192,162557,1,0,0:0:0:0:
448,192,162557,1,0,0:0:0:0:
64,192,162724,1,0,0:0:0:0:
192,192,162724,1,0,0:0:0:0:
64,192,162891,1,0,0:0:0:0:
320,192,162891,1,0,0:0:0:0:
448,192,162891,1,0,0:0:0:0:
192,192,163057,1,0,0:0:0:0:
320,192,163057,1,0,0:0:0:0:
64,192,163224,1,0,0:0:0:0:
320,192,163224,1,0,0:0:0:0:
448,192,163224,1,0,0:0:0:0:
64,192,163391,1,0,0:0:0:0:
192,192,163391,1,0,0:0:0:0:
448,192,163391,1,0,0:0:0:0:
64,192,163557,1,0,0:0:0:0:
192,192,163557,1,0,0:0:0:0:
320,192,163557,1,0,0:0:0:0:
192,192,163724,1,0,0:0:0:0:
320,192,163724,1,0,0:0:0:0:
448,192,163724,1,0,0:0:0:0:
64,192,163891,1,0,0:0:0:0:
448,192,163891,1,0,0:0:0:0:
64,192,164057,1,0,0:0:0:0:
192,192,164057,1,0,0:0:0:0:
320,192,164057,1,0,0:0:0:0:
192,192,164224,1,0,0:0:0:0:
448,192,164224,1,0,0:0:0:0:
64,192,164391,1,0,0:0:0:0:
320,192,164391,1,0,0:0:0:0:
448,192,164391,1,0,0:0:0:0:
64,192,164557,1,0,0:0:0:0:
192,192,164557,1,0,0:0:0:0:
192,192,164724,1,0,0:0:0:0:
320,192,164724,1,0,0:0:0:0:
448,192,164724,1,0,0:0:0:0:
64,192,164891,1,0,0:0:0:0:
320,192,164891,1,0,0:0:0:0:
448,192,164891,1,0,0:0:0:0:
64,192,165057,1,0,0:0:0:0:
192,192,165057,1,0,0:0:0:0:
448,192,165057,1,0,0:0:0:0:
192,192,165224,1,0,0:0:0:0:
320,192,165224,1,0,0:0:0:0:
64,192,165391,1,0,0:0:0:0:
320,192,165391,1,0,0:0:0:0:
448,192,165391,1,0,0:0:0:0:
64,192,165557,1,0,0:0:0:0:
448,192,165557,1,0,0:0:0:0:
320,192,165641,1,0,0:0:0:0:
64,192,165724,1,0,0:0:0:0:
192,192,165724,1,0,0:0:0:0:
448,192,165724,1,0,0:0:0:0:
64,192,165891,1,0,0:0:0:0:
448,192,165891,1,0,0:0:0:0:
192,192,165974,1,0,0:0:0:0:
64,192,166057,1,0,0:0:0:0:
320,192,166057,1,0,0:0:0:0:
448,192,166057,1,0,0:0:0:0:
64,192,166224,1,0,0:0:0:0:
448,192,166224,1,0,0:0:0:0:
320,192,166307,1,0,0:0:0:0:
64,192,166391,1,0,0:0:0:0:
192,192,166391,1,0,0:0:0:0:
448,192,166391,1,0,0:0:0:0:
320,192,166474,1,0,0:0:0:0:
64,192,166557,1,0,0:0:0:0:
448,192,166557,1,0,0:0:0:0:
192,192,166641,1,0,0:0:0:0:
64,192,166724,1,0,0:0:0:0:
448,192,166724,1,0,0:0:0:0:
64,192,168224,5,0,0:0:0:0:
448,192,168224,1,0,0:0:0:0:
64,192,168391,1,0,0:0:0:0:
448,192,168391,1,0,0:0:0:0:
64,192,168557,1,0,0:0:0:0:
448,192,168557,1,0,0:0:0:0:
64,192,168724,1,0,0:0:0:0:
448,192,168724,1,0,0:0:0:0:
64,192,168891,1,0,0:0:0:0:
448,192,168891,1,0,0:0:0:0:
64,192,169057,1,0,0:0:0:0:
448,192,169057,1,0,0:0:0:0:
64,192,169224,1,0,0:0:0:0:
448,192,169224,1,0,0:0:0:0:
64,192,169391,1,0,0:0:0:0:
192,192,169391,1,0,0:0:0:0:
320,192,169391,1,0,0:0:0:0:
448,192,169391,1,0,0:0:0:0:
192,192,169557,1,0,0:0:0:0:
320,192,169557,1,0,0:0:0:0:
64,192,169724,1,0,0:0:0:0:
192,192,169724,1,0,0:0:0:0:
448,192,169724,1,0,0:0:0:0:
192,192,169891,1,0,0:0:0:0:
320,192,169891,1,0,0:0:0:0:
64,192,170057,1,0,0:0:0:0:
320,192,170057,1,0,0:0:0:0:
448,192,170057,1,0,0:0:0:0:
192,192,170224,1,0,0:0:0:0:
448,192,170224,1,0,0:0:0:0:
64,192,170307,1,0,0:0:0:0:
320,192,170307,1,0,0:0:0:0:
64,192,170391,1,0,0:0:0:0:
192,192,170391,1,0,0:0:0:0:
448,192,170391,1,0,0:0:0:0:
192,192,170557,1,0,0:0:0:0:
320,192,170557,1,0,0:0:0:0:
64,192,170724,1,0,0:0:0:0:
320,192,170724,1,0,0:0:0:0:
448,192,170724,1,0,0:0:0:0:
64,192,170891,1,0,0:0:0:0:
192,192,170891,1,0,0:0:0:0:
320,192,170974,1,0,0:0:0:0:
448,192,170974,1,0,0:0:0:0:
64,192,171057,1,0,0:0:0:0:
192,192,171057,1,0,0:0:0:0:
448,192,171057,1,0,0:0:0:0:
192,192,171224,1,0,0:0:0:0:
320,192,171224,1,0,0:0:0:0:
64,192,171391,1,0,0:0:0:0:
320,192,171391,1,0,0:0:0:0:
448,192,171391,1,0,0:0:0:0:
192,192,171557,1,0,0:0:0:0:
320,192,171557,1,0,0:0:0:0:
64,192,171724,1,0,0:0:0:0:
192,192,171724,1,0,0:0:0:0:
448,192,171724,1,0,0:0:0:0:
192,192,171891,1,0,0:0:0:0:
320,192,171891,1,0,0:0:0:0:
64,192,172057,1,0,0:0:0:0:
320,192,172057,1,0,0:0:0:0:
448,192,172057,1,0,0:0:0:0:
192,192,172224,1,0,0:0:0:0:
448,192,172224,1,0,0:0:0:0:
64,192,172391,1,0,0:0:0:0:
192,192,172391,1,0,0:0:0:0:
320,192,172391,1,0,0:0:0:0:
64,192,172557,1,0,0:0:0:0:
448,192,172557,1,0,0:0:0:0:
192,192,172641,1,0,0:0:0:0:
320,192,172641,1,0,0:0:0:0:
64,192,172724,1,0,0:0:0:0:
320,192,172724,1,0,0:0:0:0:
448,192,172724,1,0,0:0:0:0:
192,192,172891,1,0,0:0:0:0:
320,192,172891,1,0,0:0:0:0:
64,192,173057,1,0,0:0:0:0:
192,192,173057,1,0,0:0:0:0:
448,192,173057,1,0,0:0:0:0:
64,192,173224,1,0,0:0:0:0:
320,192,173224,1,0,0:0:0:0:
192,192,173391,1,0,0:0:0:0:
320,192,173391,1,0,0:0:0:0:
448,192,173391,1,0,0:0:0:0:
64,192,173557,1,0,0:0:0:0:
320,192,173557,1,0,0:0:0:0:
64,192,173724,1,0,0:0:0:0:
192,192,173724,1,0,0:0:0:0:
448,192,173724,1,0,0:0:0:0:
320,192,173891,1,0,0:0:0:0:
448,192,173891,1,0,0:0:0:0:
64,192,174057,1,0,0:0:0:0:
192,192,174057,1,0,0:0:0:0:
320,192,174057,1,0,0:0:0:0:
64,192,174224,1,0,0:0:0:0:
448,192,174224,1,0,0:0:0:0:
192,192,174391,1,0,0:0:0:0:
320,192,174391,1,0,0:0:0:0:
448,192,174391,1,0,0:0:0:0:
64,192,174557,1,0,0:0:0:0:
320,192,174557,1,0,0:0:0:0:
64,192,174724,1,0,0:0:0:0:
192,192,174724,1,0,0:0:0:0:
448,192,174724,1,0,0:0:0:0:
64,192,174891,1,0,0:0:0:0:
192,192,174891,1,0,0:0:0:0:
320,192,174891,1,0,0:0:0:0:
64,192,175057,1,0,0:0:0:0:
192,192,175057,1,0,0:0:0:0:
448,192,175057,1,0,0:0:0:0:
64,192,175224,1,0,0:0:0:0:
192,192,175224,1,0,0:0:0:0:
320,192,175224,1,0,0:0:0:0:
64,192,175391,1,0,0:0:0:0:
192,192,175391,1,0,0:0:0:0:
448,192,175391,1,0,0:0:0:0:
192,192,175557,1,0,0:0:0:0:
320,192,175557,1,0,0:0:0:0:
448,192,175557,1,0,0:0:0:0:
64,192,175724,1,0,0:0:0:0:
320,192,175724,1,0,0:0:0:0:
448,192,175724,1,0,0:0:0:0:
192,192,175891,1,0,0:0:0:0:
320,192,175891,1,0,0:0:0:0:
448,192,175891,1,0,0:0:0:0:
64,192,176057,1,0,0:0:0:0:
320,192,176057,1,0,0:0:0:0:
448,192,176057,1,0,0:0:0:0:
64,192,176224,1,0,0:0:0:0:
192,192,176224,1,0,0:0:0:0:
64,192,176391,1,0,0:0:0:0:
320,192,176391,1,0,0:0:0:0:
448,192,176391,1,0,0:0:0:0:
192,192,176557,1,0,0:0:0:0:
448,192,176557,1,0,0:0:0:0:
64,192,176724,1,0,0:0:0:0:
192,192,176724,1,0,0:0:0:0:
320,192,176724,1,0,0:0:0:0:
64,192,176891,1,0,0:0:0:0:
448,192,176891,1,0,0:0:0:0:
192,192,177057,1,0,0:0:0:0:
320,192,177057,1,0,0:0:0:0:
448,192,177057,1,0,0:0:0:0:
64,192,177224,1,0,0:0:0:0:
320,192,177224,1,0,0:0:0:0:
64,192,177391,1,0,0:0:0:0:
192,192,177391,1,0,0:0:0:0:
448,192,177391,1,0,0:0:0:0:
192,192,177557,1,0,0:0:0:0:
320,192,177557,1,0,0:0:0:0:
64,192,177724,1,0,0:0:0:0:
320,192,177724,1,0,0:0:0:0:
448,192,177724,1,0,0:0:0:0:
192,192,177891,1,0,0:0:0:0:
320,192,177891,1,0,0:0:0:0:
64,192,178057,1,0,0:0:0:0:
192,192,178057,1,0,0:0:0:0:
448,192,178057,1,0,0:0:0:0:
192,192,178224,1,0,0:0:0:0:
320,192,178224,1,0,0:0:0:0:
64,192,178391,1,0,0:0:0:0:
320,192,178391,1,0,0:0:0:0:
448,192,178391,1,0,0:0:0:0:
192,192,178557,1,0,0:0:0:0:
320,192,178557,1,0,0:0:0:0:
64,192,178724,1,0,0:0:0:0:
192,192,178724,1,0,0:0:0:0:
448,192,178724,1,0,0:0:0:0:
320,192,178807,1,0,0:0:0:0:
64,192,178891,1,0,0:0:0:0:
448,192,178891,1,0,0:0:0:0:
192,192,178974,1,0,0:0:0:0:
64,192,179057,1,0,0:0:0:0:
320,192,179057,1,0,0:0:0:0:
448,192,179057,1,0,0:0:0:0:
192,192,179141,1,0,0:0:0:0:
64,192,179224,1,0,0:0:0:0:
448,192,179224,1,0,0:0:0:0:
320,192,179307,1,0,0:0:0:0:
448,0,179391,128,0,179474:0:0:0:0:
64,0,179391,128,0,179557:0:0:0:0:
192,0,179391,128,0,179557:0:0:0:0:
64,0,179724,128,0,179974:0:0:0:0:
192,0,179724,128,0,179974:0:0:0:0:
320,0,179807,128,0,179974:0:0:0:0:
448,0,179807,128,0,179974:0:0:0:0:
64,192,180057,1,0,0:0:0:0:
192,192,180057,1,0,0:0:0:0:
320,192,180057,1,0,0:0:0:0:
448,192,180057,1,0,0:0:0:0:
64,192,180224,1,0,0:0:0:0:
192,192,180224,1,0,0:0:0:0:
64,192,180391,1,0,0:0:0:0:
192,192,180391,1,0,0:0:0:0:
320,192,180391,1,0,0:0:0:0:
192,192,180557,1,0,0:0:0:0:
320,192,180557,1,0,0:0:0:0:
448,192,180557,1,0,0:0:0:0:
320,192,180724,1,0,0:0:0:0:
448,192,180724,1,0,0:0:0:0:
64,192,180891,1,0,0:0:0:0:
192,192,180891,1,0,0:0:0:0:
320,192,180891,1,0,0:0:0:0:
64,192,181057,1,0,0:0:0:0:
192,192,181057,1,0,0:0:0:0:
448,192,181057,1,0,0:0:0:0:
192,192,181224,1,0,0:0:0:0:
320,192,181224,1,0,0:0:0:0:
448,192,181224,1,0,0:0:0:0:
64,192,181391,1,0,0:0:0:0:
320,192,181391,1,0,0:0:0:0:
448,192,181391,1,0,0:0:0:0:
320,192,181557,1,0,0:0:0:0:
448,192,181557,1,0,0:0:0:0:
64,192,181724,1,0,0:0:0:0:
192,192,181724,1,0,0:0:0:0:
448,192,181724,1,0,0:0:0:0:
64,192,181891,1,0,0:0:0:0:
192,192,181891,1,0,0:0:0:0:
320,192,181891,1,0,0:0:0:0:
192,192,182057,1,0,0:0:0:0:
320,192,182057,1,0,0:0:0:0:
64,192,182224,1,0,0:0:0:0:
320,192,182224,1,0,0:0:0:0:
448,192,182224,1,0,0:0:0:0:
192,192,182391,1,0,0:0:0:0:
320,192,182391,1,0,0:0:0:0:
448,192,182391,1,0,0:0:0:0:
64,192,182557,1,0,0:0:0:0:
192,192,182557,1,0,0:0:0:0:
320,192,182557,1,0,0:0:0:0:
64,192,182724,1,0,0:0:0:0:
192,192,182724,1,0,0:0:0:0:
448,192,182724,1,0,0:0:0:0:
64,192,182891,1,0,0:0:0:0:
192,192,182891,1,0,0:0:0:0:
64,192,183057,1,0,0:0:0:0:
192,192,183057,1,0,0:0:0:0:
320,192,183057,1,0,0:0:0:0:
192,192,183224,1,0,0:0:0:0:
320,192,183224,1,0,0:0:0:0:
448,192,183224,1,0,0:0:0:0:
320,192,183391,1,0,0:0:0:0:
448,192,183391,1,0,0:0:0:0:
64,192,183557,1,0,0:0:0:0:
192,192,183557,1,0,0:0:0:0:
320,192,183557,1,0,0:0:0:0:
64,192,183724,1,0,0:0:0:0:
192,192,183724,1,0,0:0:0:0:
448,192,183724,1,0,0:0:0:0:
192,192,183891,1,0,0:0:0:0:
320,192,183891,1,0,0:0:0:0:
64,192,184057,1,0,0:0:0:0:
320,192,184057,1,0,0:0:0:0:
448,192,184057,1,0,0:0:0:0:
320,192,184224,1,0,0:0:0:0:
448,192,184224,1,0,0:0:0:0:
64,192,184391,1,0,0:0:0:0:
192,192,184391,1,0,0:0:0:0:
448,192,184391,1,0,0:0:0:0:
64,192,184557,1,0,0:0:0:0:
192,192,184557,1,0,0:0:0:0:
320,192,184557,1,0,0:0:0:0:
192,192,184724,1,0,0:0:0:0:
320,192,184724,1,0,0:0:0:0:
64,192,184891,1,0,0:0:0:0:
320,192,184891,1,0,0:0:0:0:
448,192,184891,1,0,0:0:0:0:
192,192,185057,1,0,0:0:0:0:
320,192,185057,1,0,0:0:0:0:
448,192,185057,1,0,0:0:0:0:
192,192,185224,1,0,0:0:0:0:
320,192,185224,1,0,0:0:0:0:
64,192,185391,1,0,0:0:0:0:
192,192,185391,1,0,0:0:0:0:
448,192,185391,1,0,0:0:0:0:
320,192,185557,1,0,0:0:0:0:
448,192,185557,1,0,0:0:0:0:
64,192,185641,1,0,0:0:0:0:
192,192,185641,1,0,0:0:0:0:
64,192,185724,1,0,0:0:0:0:
320,192,185724,1,0,0:0:0:0:
448,192,185724,1,0,0:0:0:0:
64,192,185891,1,0,0:0:0:0:
192,192,185891,1,0,0:0:0:0:
192,192,186057,1,0,0:0:0:0:
320,192,186057,1,0,0:0:0:0:
448,192,186057,1,0,0:0:0:0:
64,192,186224,1,0,0:0:0:0:
192,192,186224,1,0,0:0:0:0:
320,192,186307,1,0,0:0:0:0:
448,192,186307,1,0,0:0:0:0:
64,192,186391,1,0,0:0:0:0:
192,192,186391,1,0,0:0:0:0:
448,192,186391,1,0,0:0:0:0:
192,192,186557,1,0,0:0:0:0:
320,192,186557,1,0,0:0:0:0:
64,192,186724,1,0,0:0:0:0:
320,192,186724,1,0,0:0:0:0:
448,192,186724,1,0,0:0:0:0:
192,192,186891,1,0,0:0:0:0:
448,192,186891,1,0,0:0:0:0:
64,192,186974,1,0,0:0:0:0:
320,192,186974,1,0,0:0:0:0:
64,192,187057,1,0,0:0:0:0:
192,192,187057,1,0,0:0:0:0:
448,192,187057,1,0,0:0:0:0:
192,192,187224,1,0,0:0:0:0:
320,192,187224,1,0,0:0:0:0:
64,192,187391,1,0,0:0:0:0:
192,192,187391,1,0,0:0:0:0:
448,192,187391,1,0,0:0:0:0:
64,192,187557,1,0,0:0:0:0:
320,192,187557,1,0,0:0:0:0:
192,192,187724,1,0,0:0:0:0:
320,192,187724,1,0,0:0:0:0:
448,192,187724,1,0,0:0:0:0:
64,192,187891,1,0,0:0:0:0:
192,192,187891,1,0,0:0:0:0:
64,192,188057,1,0,0:0:0:0:
320,192,188057,1,0,0:0:0:0:
448,192,188057,1,0,0:0:0:0:
192,192,188224,1,0,0:0:0:0:
320,192,188224,1,0,0:0:0:0:
64,192,188391,1,0,0:0:0:0:
192,192,188391,1,0,0:0:0:0:
448,192,188391,1,0,0:0:0:0:
192,192,188557,1,0,0:0:0:0:
320,192,188557,1,0,0:0:0:0:
64,192,188724,1,0,0:0:0:0:
320,192,188724,1,0,0:0:0:0:
448,192,188724,1,0,0:0:0:0:
64,192,188891,1,0,0:0:0:0:
192,192,188891,1,0,0:0:0:0:
192,192,189057,1,0,0:0:0:0:
320,192,189057,1,0,0:0:0:0:
448,192,189057,1,0,0:0:0:0:
64,192,189224,1,0,0:0:0:0:
320,192,189224,1,0,0:0:0:0:
64,192,189391,1,0,0:0:0:0:
192,192,189391,1,0,0:0:0:0:
448,192,189391,1,0,0:0:0:0:
64,192,189557,1,0,0:0:0:0:
448,192,189557,1,0,0:0:0:0:
192,192,189641,1,0,0:0:0:0:
64,192,189724,1,0,0:0:0:0:
320,192,189724,1,0,0:0:0:0:
448,192,189724,1,0,0:0:0:0:
320,192,189891,1,0,0:0:0:0:
448,192,189891,1,0,0:0:0:0:
192,192,189974,1,0,0:0:0:0:
64,192,190057,1,0,0:0:0:0:
320,192,190057,1,0,0:0:0:0:
448,192,190057,1,0,0:0:0:0:
64,192,190224,1,0,0:0:0:0:
192,192,190224,1,0,0:0:0:0:
320,192,190307,1,0,0:0:0:0:
64,192,190391,1,0,0:0:0:0:
192,192,190391,1,0,0:0:0:0:
448,192,190391,1,0,0:0:0:0:
320,192,190474,1,0,0:0:0:0:
64,192,190557,1,0,0:0:0:0:
448,192,190557,1,0,0:0:0:0:
192,192,190641,1,0,0:0:0:0:
64,192,190724,1,0,0:0:0:0:
320,192,190724,1,0,0:0:0:0:
448,192,190724,1,0,0:0:0:0:
64,192,190891,1,0,0:0:0:0:
192,192,190891,1,0,0:0:0:0:
320,192,191057,1,0,0:0:0:0:
448,192,191057,1,0,0:0:0:0:
192,192,191391,1,0,0:0:0:0:
320,192,191391,1,0,0:0:0:0:
192,192,191557,1,0,0:0:0:0:
320,192,191557,1,0,0:0:0:0:
64,192,191724,1,0,0:0:0:0:
448,0,191724,128,0,192057:0:0:0:0:
192,192,191891,1,0,0:0:0:0:
320,192,191891,1,0,0:0:0:0:
64,192,192057,1,0,0:0:0:0:
192,192,192057,1,0,0:0:0:0:
320,192,192224,1,0,0:0:0:0:
448,192,192224,1,0,0:0:0:0:
64,192,192307,1,0,0:0:0:0:
192,192,192307,1,0,0:0:0:0:
320,192,192391,1,0,0:0:0:0:
448,192,192391,1,0,0:0:0:0:
64,192,192557,1,0,0:0:0:0:
192,192,192557,1,0,0:0:0:0:
320,192,192724,1,0,0:0:0:0:
448,192,192724,1,0,0:0:0:0:
64,192,192891,1,0,0:0:0:0:
192,192,192891,1,0,0:0:0:0:
320,192,192891,1,0,0:0:0:0:
448,192,192891,1,0,0:0:0:0:
64,192,193057,1,0,0:0:0:0:
192,192,193057,1,0,0:0:0:0:
320,192,193057,1,0,0:0:0:0:
448,192,193057,1,0,0:0:0:0:
64,192,193224,1,0,0:0:0:0:
192,192,193224,1,0,0:0:0:0:
320,192,193224,1,0,0:0:0:0:
448,192,193224,1,0,0:0:0:0:
64,192,193391,1,0,0:0:0:0:
192,192,193391,1,0,0:0:0:0:
320,192,193391,1,0,0:0:0:0:
448,192,193391,1,0,0:0:0:0:
192,192,193557,1,0,0:0:0:0:
320,192,193557,1,0,0:0:0:0:
64,192,193724,1,0,0:0:0:0:
192,192,193724,1,0,0:0:0:0:
448,192,193724,1,0,0:0:0:0:
64,192,193891,1,0,0:0:0:0:
320,192,193891,1,0,0:0:0:0:
192,192,193974,1,0,0:0:0:0:
448,192,193974,1,0,0:0:0:0:
64,192,194057,1,0,0:0:0:0:
320,192,194057,1,0,0:0:0:0:
448,192,194057,1,0,0:0:0:0:
192,192,194224,1,0,0:0:0:0:
448,192,194224,1,0,0:0:0:0:
64,192,194391,1,0,0:0:0:0:
320,192,194391,1,0,0:0:0:0:
448,192,194391,1,0,0:0:0:0:
192,192,194474,1,0,0:0:0:0:
64,192,194557,1,0,0:0:0:0:
320,192,194557,1,0,0:0:0:0:
192,192,194724,1,0,0:0:0:0:
320,192,194724,1,0,0:0:0:0:
448,192,194724,1,0,0:0:0:0:
64,192,194891,1,0,0:0:0:0:
448,192,194891,1,0,0:0:0:0:
192,192,194974,1,0,0:0:0:0:
320,192,194974,1,0,0:0:0:0:
64,192,195057,1,0,0:0:0:0:
192,192,195057,1,0,0:0:0:0:
448,192,195057,1,0,0:0:0:0:
192,192,195224,1,0,0:0:0:0:
320,192,195224,1,0,0:0:0:0:
64,192,195391,1,0,0:0:0:0:
192,192,195391,1,0,0:0:0:0:
448,192,195391,1,0,0:0:0:0:
64,192,195557,1,0,0:0:0:0:
320,192,195557,1,0,0:0:0:0:
192,192,195724,1,0,0:0:0:0:
320,192,195724,1,0,0:0:0:0:
448,192,195724,1,0,0:0:0:0:
64,192,195891,1,0,0:0:0:0:
192,192,195891,1,0,0:0:0:0:
64,192,196057,1,0,0:0:0:0:
320,192,196057,1,0,0:0:0:0:
448,192,196057,1,0,0:0:0:0:
192,192,196224,1,0,0:0:0:0:
320,192,196224,1,0,0:0:0:0:
64,192,196391,1,0,0:0:0:0:
320,192,196391,1,0,0:0:0:0:
448,192,196391,1,0,0:0:0:0:
64,192,196557,1,0,0:0:0:0:
192,192,196557,1,0,0:0:0:0:
320,192,196641,1,0,0:0:0:0:
448,192,196641,1,0,0:0:0:0:
64,192,196724,1,0,0:0:0:0:
192,192,196724,1,0,0:0:0:0:
448,192,196724,1,0,0:0:0:0:
320,192,196807,1,0,0:0:0:0:
64,192,196891,1,0,0:0:0:0:
192,192,196891,1,0,0:0:0:0:
192,192,197057,1,0,0:0:0:0:
320,192,197057,1,0,0:0:0:0:
448,192,197057,1,0,0:0:0:0:
64,192,197141,1,0,0:0:0:0:
320,192,197224,1,0,0:0:0:0:
448,192,197224,1,0,0:0:0:0:
64,192,197307,1,0,0:0:0:0:
192,192,197307,1,0,0:0:0:0:
64,192,197391,1,0,0:0:0:0:
320,192,197391,1,0,0:0:0:0:
448,192,197391,1,0,0:0:0:0:
192,192,197557,1,0,0:0:0:0:
320,192,197557,1,0,0:0:0:0:
64,192,197724,1,0,0:0:0:0:
192,192,197724,1,0,0:0:0:0:
448,192,197724,1,0,0:0:0:0:
64,192,197891,1,0,0:0:0:0:
320,192,197891,1,0,0:0:0:0:
320,192,198057,1,0,0:0:0:0:
448,192,198057,1,0,0:0:0:0:
64,192,198141,1,0,0:0:0:0:
192,192,198141,1,0,0:0:0:0:
320,192,198224,1,0,0:0:0:0:
448,192,198224,1,0,0:0:0:0:
64,192,198307,1,0,0:0:0:0:
192,192,198307,1,0,0:0:0:0:
320,192,198391,1,0,0:0:0:0:
448,192,198391,1,0,0:0:0:0:
64,192,198557,1,0,0:0:0:0:
192,192,198613,1,0,0:0:0:0:
320,192,198669,1,0,0:0:0:0:
64,192,198724,1,0,0:0:0:0:
448,192,198724,1,0,0:0:0:0:
192,192,198891,1,0,0:0:0:0:
320,192,198891,1,0,0:0:0:0:
64,192,199057,1,0,0:0:0:0:
320,192,199057,1,0,0:0:0:0:
448,192,199057,1,0,0:0:0:0:
192,192,199224,1,0,0:0:0:0:
448,192,199224,1,0,0:0:0:0:
64,192,199307,1,0,0:0:0:0:
320,192,199307,1,0,0:0:0:0:
64,192,199391,1,0,0:0:0:0:
192,192,199391,1,0,0:0:0:0:
448,192,199391,1,0,0:0:0:0:
64,192,199557,1,0,0:0:0:0:
320,192,199557,1,0,0:0:0:0:
64,192,199724,1,0,0:0:0:0:
192,192,199724,1,0,0:0:0:0:
448,192,199724,1,0,0:0:0:0:
320,192,199807,1,0,0:0:0:0:
192,192,199891,1,0,0:0:0:0:
448,192,199891,1,0,0:0:0:0:
64,192,200057,1,0,0:0:0:0:
320,192,200057,1,0,0:0:0:0:
448,192,200057,1,0,0:0:0:0:
64,192,200224,1,0,0:0:0:0:
192,192,200224,1,0,0:0:0:0:
320,192,200307,1,0,0:0:0:0:
448,192,200307,1,0,0:0:0:0:
64,192,200391,1,0,0:0:0:0:
192,192,200391,1,0,0:0:0:0:
448,192,200391,1,0,0:0:0:0:
192,192,200557,1,0,0:0:0:0:
320,192,200557,1,0,0:0:0:0:
64,192,200724,1,0,0:0:0:0:
320,192,200724,1,0,0:0:0:0:
448,192,200724,1,0,0:0:0:0:
192,192,200891,1,0,0:0:0:0:
448,192,200891,1,0,0:0:0:0:
64,192,201057,1,0,0:0:0:0:
192,192,201057,1,0,0:0:0:0:
320,192,201057,1,0,0:0:0:0:
64,192,201224,1,0,0:0:0:0:
448,192,201224,1,0,0:0:0:0:
192,192,201391,1,0,0:0:0:0:
320,192,201391,1,0,0:0:0:0:
448,192,201391,1,0,0:0:0:0:
64,192,201557,1,0,0:0:0:0:
320,192,201557,1,0,0:0:0:0:
64,192,201724,1,0,0:0:0:0:
192,192,201724,1,0,0:0:0:0:
448,192,201724,1,0,0:0:0:0:
320,192,201891,1,0,0:0:0:0:
448,192,201891,1,0,0:0:0:0:
64,192,201974,1,0,0:0:0:0:
192,192,201974,1,0,0:0:0:0:
64,192,202057,1,0,0:0:0:0:
320,192,202057,1,0,0:0:0:0:
448,192,202057,1,0,0:0:0:0:
192,192,202224,1,0,0:0:0:0:
320,192,202224,1,0,0:0:0:0:
64,192,202391,1,0,0:0:0:0:
192,192,202391,1,0,0:0:0:0:
448,192,202391,1,0,0:0:0:0:
320,192,202557,1,0,0:0:0:0:
448,192,202557,1,0,0:0:0:0:
64,192,202724,1,0,0:0:0:0:
192,192,202724,1,0,0:0:0:0:
320,192,202807,1,0,0:0:0:0:
448,192,202807,1,0,0:0:0:0:
64,192,202891,1,0,0:0:0:0:
192,192,202891,1,0,0:0:0:0:
320,192,202974,1,0,0:0:0:0:
448,192,202974,1,0,0:0:0:0:
64,192,203057,1,0,0:0:0:0:
192,192,203057,1,0,0:0:0:0:
192,192,203224,1,0,0:0:0:0:
320,192,203224,1,0,0:0:0:0:
320,192,203391,1,0,0:0:0:0:
448,192,203391,1,0,0:0:0:0:
64,192,203474,1,0,0:0:0:0:
192,192,203474,1,0,0:0:0:0:
320,192,203613,1,0,0:0:0:0:
448,192,203613,1,0,0:0:0:0:
64,192,203724,1,0,0:0:0:0:
192,192,203724,1,0,0:0:0:0:
320,192,203780,1,0,0:0:0:0:
448,192,203780,1,0,0:0:0:0:
64,192,203835,1,0,0:0:0:0:
192,192,203835,1,0,0:0:0:0:
320,192,203891,1,0,0:0:0:0:
448,192,203891,1,0,0:0:0:0:
64,192,203974,1,0,0:0:0:0:
192,192,203974,1,0,0:0:0:0:
320,192,204057,1,0,0:0:0:0:
448,192,204057,1,0,0:0:0:0:
64,192,204224,1,0,0:0:0:0:
320,192,204224,1,0,0:0:0:0:
192,192,204307,1,0,0:0:0:0:
64,192,204391,1,0,0:0:0:0:
320,192,204391,1,0,0:0:0:0:
448,192,204391,1,0,0:0:0:0:
192,192,204557,1,0,0:0:0:0:
448,192,204557,1,0,0:0:0:0:
64,192,204641,1,0,0:0:0:0:
320,192,204641,1,0,0:0:0:0:
64,192,204724,1,0,0:0:0:0:
192,192,204724,1,0,0:0:0:0:
448,192,204724,1,0,0:0:0:0:
64,192,204891,1,0,0:0:0:0:
320,192,204891,1,0,0:0:0:0:
64,192,205057,1,0,0:0:0:0:
192,192,205057,1,0,0:0:0:0:
448,192,205057,1,0,0:0:0:0:
320,192,205141,1,0,0:0:0:0:
192,192,205224,1,0,0:0:0:0:
448,192,205224,1,0,0:0:0:0:
64,192,205391,1,0,0:0:0:0:
192,192,205391,1,0,0:0:0:0:
320,192,205391,1,0,0:0:0:0:
64,192,205557,1,0,0:0:0:0:
448,192,205557,1,0,0:0:0:0:
192,192,205641,1,0,0:0:0:0:
320,192,205641,1,0,0:0:0:0:
64,192,205724,1,0,0:0:0:0:
320,192,205724,1,0,0:0:0:0:
448,192,205724,1,0,0:0:0:0:
192,192,205891,1,0,0:0:0:0:
320,192,205891,1,0,0:0:0:0:
64,192,206057,1,0,0:0:0:0:
320,192,206057,1,0,0:0:0:0:
448,192,206057,1,0,0:0:0:0:
192,192,206224,1,0,0:0:0:0:
448,192,206224,1,0,0:0:0:0:
64,192,206391,1,0,0:0:0:0:
192,192,206391,1,0,0:0:0:0:
320,192,206391,1,0,0:0:0:0:
320,192,206557,1,0,0:0:0:0:
448,192,206557,1,0,0:0:0:0:
64,192,206724,1,0,0:0:0:0:
192,192,206724,1,0,0:0:0:0:
448,192,206724,1,0,0:0:0:0:
192,192,206891,1,0,0:0:0:0:
320,192,206891,1,0,0:0:0:0:
64,192,207057,1,0,0:0:0:0:
192,192,207057,1,0,0:0:0:0:
448,192,207057,1,0,0:0:0:0:
320,192,207224,1,0,0:0:0:0:
448,192,207224,1,0,0:0:0:0:
64,192,207307,1,0,0:0:0:0:
192,192,207307,1,0,0:0:0:0:
64,192,207391,1,0,0:0:0:0:
320,192,207391,1,0,0:0:0:0:
448,192,207391,1,0,0:0:0:0:
192,192,207474,1,0,0:0:0:0:
320,192,207557,1,0,0:0:0:0:
448,192,207557,1,0,0:0:0:0:
64,192,207724,1,0,0:0:0:0:
192,192,207724,1,0,0:0:0:0:
320,192,207724,1,0,0:0:0:0:
448,192,207807,1,0,0:0:0:0:
64,192,207891,1,0,0:0:0:0:
192,192,207891,1,0,0:0:0:0:
320,192,207974,1,0,0:0:0:0:
448,192,207974,1,0,0:0:0:0:
64,192,208057,1,0,0:0:0:0:
192,192,208057,1,0,0:0:0:0:
448,192,208057,1,0,0:0:0:0:
192,192,208224,1,0,0:0:0:0:
320,192,208224,1,0,0:0:0:0:
64,192,208391,1,0,0:0:0:0:
320,192,208391,1,0,0:0:0:0:
448,192,208391,1,0,0:0:0:0:
192,192,208557,1,0,0:0:0:0:
448,192,208557,1,0,0:0:0:0:
64,192,208724,1,0,0:0:0:0:
192,192,208724,1,0,0:0:0:0:
320,192,208807,1,0,0:0:0:0:
448,192,208807,1,0,0:0:0:0:
64,192,208891,1,0,0:0:0:0:
192,192,208891,1,0,0:0:0:0:
320,192,208974,1,0,0:0:0:0:
448,192,208974,1,0,0:0:0:0:
64,192,209057,1,0,0:0:0:0:
192,192,209057,1,0,0:0:0:0:
448,192,209224,1,0,0:0:0:0:
320,192,209280,1,0,0:0:0:0:
192,192,209335,1,0,0:0:0:0:
64,192,209391,1,0,0:0:0:0:
448,192,209391,1,0,0:0:0:0:
64,192,209557,1,0,0:0:0:0:
192,192,209557,1,0,0:0:0:0:
320,192,209641,1,0,0:0:0:0:
64,192,209724,1,0,0:0:0:0:
192,192,209724,1,0,0:0:0:0:
448,192,209724,1,0,0:0:0:0:
64,192,209891,1,0,0:0:0:0:
320,192,209891,1,0,0:0:0:0:
192,192,209974,1,0,0:0:0:0:
448,192,209974,1,0,0:0:0:0:
64,192,210057,1,0,0:0:0:0:
320,192,210057,1,0,0:0:0:0:
448,192,210057,1,0,0:0:0:0:
192,192,210224,1,0,0:0:0:0:
448,192,210224,1,0,0:0:0:0:
64,192,210391,1,0,0:0:0:0:
320,192,210391,1,0,0:0:0:0:
448,192,210391,1,0,0:0:0:0:
192,192,210474,1,0,0:0:0:0:
64,192,210557,1,0,0:0:0:0:
320,192,210557,1,0,0:0:0:0:
64,192,210724,1,0,0:0:0:0:
192,192,210724,1,0,0:0:0:0:
448,192,210724,1,0,0:0:0:0:
320,192,210891,1,0,0:0:0:0:
448,192,210891,1,0,0:0:0:0:
64,192,210974,1,0,0:0:0:0:
192,192,210974,1,0,0:0:0:0:
64,192,211057,1,0,0:0:0:0:
320,192,211057,1,0,0:0:0:0:
448,192,211057,1,0,0:0:0:0:
192,192,211224,1,0,0:0:0:0:
320,192,211224,1,0,0:0:0:0:
64,192,211391,1,0,0:0:0:0:
192,192,211391,1,0,0:0:0:0:
448,192,211391,1,0,0:0:0:0:
64,192,211557,1,0,0:0:0:0:
320,192,211557,1,0,0:0:0:0:
192,192,211724,1,0,0:0:0:0:
320,192,211724,1,0,0:0:0:0:
448,192,211724,1,0,0:0:0:0:
64,192,211891,1,0,0:0:0:0:
448,192,211891,1,0,0:0:0:0:
64,192,212057,1,0,0:0:0:0:
192,192,212057,1,0,0:0:0:0:
320,192,212057,1,0,0:0:0:0:
320,192,212224,1,0,0:0:0:0:
448,192,212224,1,0,0:0:0:0:
192,192,212307,1,0,0:0:0:0:
64,192,212391,1,0,0:0:0:0:
320,192,212391,1,0,0:0:0:0:
448,192,212391,1,0,0:0:0:0:
64,192,212557,1,0,0:0:0:0:
192,192,212557,1,0,0:0:0:0:
320,192,212641,1,0,0:0:0:0:
448,192,212641,1,0,0:0:0:0:
64,192,212724,1,0,0:0:0:0:
192,192,212724,1,0,0:0:0:0:
448,192,212724,1,0,0:0:0:0:
64,192,212891,1,0,0:0:0:0:
320,192,212891,1,0,0:0:0:0:
64,192,213057,1,0,0:0:0:0:
192,192,213057,1,0,0:0:0:0:
448,192,213057,1,0,0:0:0:0:
320,192,213224,1,0,0:0:0:0:
448,192,213224,1,0,0:0:0:0:
192,192,213391,1,0,0:0:0:0:
64,0,213391,128,0,214391:0:0:0:0:
448,192,213557,1,0,0:0:0:0:
192,0,213724,128,0,213807:0:0:0:0:
192,0,213891,128,0,213974:0:0:0:0:
320,192,214057,1,0,0:0:0:0:
448,192,214099,1,0,0:0:0:0:
448,192,214391,1,0,0:0:0:0:
