osu file format v13

[General]
AudioFilename: Reol.mp3
AudioLeadIn: 0
PreviewTime: 56000
Countdown: 0
SampleSet: None
StackLeniency: 0.7
Mode: 0
LetterboxInBreaks: 0
WidescreenStoryboard: 1

[Editor]
Bookmarks: 156057
DistanceSpacing: 1.2
BeatDivisor: 4
GridSize: 4
TimelineZoom: 3.399999

[Metadata]
Title:+Danshi
TitleUnicode:+Danshi
Artist:Reol
ArtistUnicode:れをる
Creator:lZenxl
Version:Fort's Another
Source:
Tags:GigaP neonat Tagre Plus Boy Hinsvar Fort Papcio [I]MMoRTal[S] mike91lau Player_X Soldsaga_KunG Okoratu
BeatmapID:433925
BeatmapSetID:165991

[Difficulty]
HPDrainRate:6
CircleSize:4
OverallDifficulty:7
ApproachRate:9
SliderMultiplier:2.5
SliderTickRate:1

[Events]
//Background and Video events
0,0,"BG.png",0,0
Video,0,"new.avi"
//Break Periods
2,48257,54124
2,134924,139457
//Storyboard Layer 0 (Background)
//Storyboard Layer 1 (Fail)
//Storyboard Layer 2 (Pass)
//Storyboard Layer 3 (Foreground)
//Storyboard Sound Samples
//Background Colour Transformations
3,100,163,162,255

[TimingPoints]
12058,333.333333333333,4,1,1,70,1,0
13391,-100,4,3,1,70,0,0
14391,-200,4,1,1,70,0,0
14724,-100,4,1,1,70,0,0
24057,-200,4,1,1,70,0,0
24724,-100,4,1,1,70,0,0
25391,-133.333333333333,4,2,1,70,0,0
56057,-100,4,2,1,40,0,0
56891,-200,4,2,1,40,0,0
57391,-100,4,1,1,80,0,1
58391,-66.6666666666667,4,1,1,80,0,1
58724,-100,4,1,1,80,0,1
67391,-100,4,2,1,80,0,0
67391,-200,4,2,1,80,0,0
67724,-66.6666666666667,4,2,1,80,0,0
68057,-100,4,1,1,80,0,1
73057,-66.6666666666667,4,1,1,80,0,1
73391,-100,4,1,1,80,0,1
78724,-200,4,2,1,80,0,0
80724,-100,4,3,1,60,0,0
80891,-200,4,2,1,60,0,0
81391,-133.333333333333,4,1,1,80,0,0
83391,-200,4,1,1,80,0,0
84057,-133.333333333333,4,1,1,80,0,0
102724,-166.666666666667,4,3,1,60,0,0
112807,-200,4,2,1,60,0,0
113391,-100,4,1,1,80,0,1
114724,-66.6666666666667,4,1,1,80,0,1
115057,-100,4,1,1,80,0,1
123391,-200,4,2,1,80,0,0
123724,-66.6666666666667,4,2,1,80,0,0
124057,-100,4,1,1,80,0,1
129057,-66.6666666666667,4,1,1,80,0,1
129391,-100,4,1,1,80,0,1
134724,-200,4,3,1,60,0,0
145391,-100,4,1,1,100,0,1
145412,-100,4,1,1,80,0,0
166724,-100,4,2,1,30,0,0
169391,-83.3333333333333,4,1,1,80,0,1
173724,-66.6666666666667,4,1,1,80,0,1
174057,-83.3333333333333,4,1,1,80,0,1
179391,-200,4,2,1,80,0,0
179724,-50,4,2,1,80,0,0
180057,-83.3333333333333,4,1,1,80,0,1
190724,-100,4,1,1,80,0,0
193057,-100,4,3,1,80,0,0
193391,-100,4,1,1,80,0,0
196391,-66.6666666666667,4,1,1,80,0,0
196724,-100,4,1,1,80,0,0
213391,-200,4,1,1,80,0,0
214057,-200,4,2,1,80,0,0

[Colours]
Combo1 : 245,167,230
Combo2 : 253,232,113
Combo3 : 245,184,150
Combo4 : 135,186,243

[HitObjects]
256,192,12058,12,0,13391,0:0:0:0:
256,196,13558,21,0,0:0:0:0:
256,196,13641,1,0,0:0:0:0:
256,196,13724,1,0,0:0:0:0:
136,132,13891,2,0,P|60:152|8:140,2,125
404,72,14391,6,0,L|400:192,1,93.75,4|0,0:0|0:0,0:0:0:0:
372,236,14724,6,0,P|448:232|476:180,1,125
324,164,15058,2,0,P|280:220|312:300,1,125,8|4,0:0|0:0,0:0:0:0:
336,328,15308,1,0,0:0:0:0:
336,328,15391,2,0,L|400:336,1,62.5,2|0,0:0|0:0,0:0:0:0:
322,335,15558,2,0,P|266:339|198:183,1,250,2|4,0:0|0:0,0:0:0:0:
256,52,16058,5,8,0:0:0:0:
400,92,16224,2,0,L|460:96,4,31.25,0|0|0|0|8,0:0|0:0|0:0|0:0|0:0,0:0:0:0:
256,52,16558,2,0,L|216:104,1,62.5,2|0,0:0|0:0,0:0:0:0:
120,112,16724,2,0,L|128:180,1,62.5,8|0,0:0|0:0,0:0:0:0:
84,236,16891,2,0,P|128:252|152:252,1,62.5
180,320,17058,2,0,P|216:288|224:256,1,62.5,8|0,0:0|0:0,0:0:0:0:
260,212,17224,2,0,P|224:200|188:212,1,62.5
328,284,17391,38,0,P|352:248|344:164,1,125,2|0,0:0|0:0,0:0:0:0:
300,312,17641,1,0,0:0:0:0:
300,312,17724,2,0,L|448:316,1,125,8|0,0:0|0:0,0:0:0:0:
460,332,17974,1,0,0:0:0:0:
496,344,18058,5,2,0:0:0:0:
476,196,18224,2,0,L|460:128,1,62.5,4|0,0:0|0:0,0:0:0:0:
432,68,18391,2,0,B|456:124|456:124|448:208,1,125,8|0,0:0|0:0,0:0:0:0:
376,188,18641,1,0,0:0:0:0:
376,188,18724,2,0,L|356:124,1,62.5
284,104,18891,2,0,P|308:64|344:52,2,62.5,0|0|8,0:0|0:0|0:0,0:0:0:0:
220,240,19224,1,4,0:0:0:0:
80,188,19391,6,0,L|88:108,1,62.5,0|0,0:0|0:0,0:0:0:0:
220,240,19558,2,0,L|212:320,1,62.5
64,196,19724,22,0,L|80:64,1,125,8|4,0:0|0:0,0:0:0:0:
79,71,19974,1,0,0:0:0:0:
79,71,20058,22,0,P|128:96|204:84,1,125
264,60,20308,1,0,0:0:0:0:
336,80,20391,2,0,B|376:64|376:64|416:96|472:64,1,125,8|0,0:0|0:0,0:0:0:0:
424,4,20641,1,0,0:0:0:0:
424,4,20724,2,0,P|388:32|456:148,1,187.5,2|0,0:0|0:0,0:0:0:0:
500,168,21058,2,0,L|496:304,1,125,8|0,0:0|0:0,0:0:0:0:
276,256,21391,21,0,0:0:0:0:
380,220,21558,1,0,0:0:0:0:
380,220,21641,1,0,0:0:0:0:
380,220,21724,1,8,0:0:0:0:
340,324,21891,1,0,0:0:0:0:
212,188,22058,2,0,P|160:204|84:160,1,125,0|0,0:0|0:0,0:0:0:0:
232,100,22391,2,0,P|276:128|284:220,1,125,8|4,0:0|0:0,0:0:0:0:
160,124,22724,6,0,P|156:72|228:24,1,125,2|0,0:0|0:0,0:0:0:0:
356,52,23057,2,0,L|388:56,7,31.25
456,92,23391,6,0,L|488:88,2,31.25
384,180,23557,2,0,L|396:268,1,62.5,2|0,0:0|0:0,0:0:0:0:
488,304,23724,1,8,0:0:0:0:
456,320,23807,1,0,0:0:0:0:
420,332,23891,1,4,0:0:0:0:
384,348,23974,1,0,0:0:0:0:
348,348,24057,6,0,B|280:332|280:332|240:352|240:352|205:334|205:334|160:352|104:332,1,250,0|0,0:0|0:0,0:0:0:0:
64,232,24891,1,0,0:0:0:0:
124,136,25057,1,0,0:0:0:0:
60,44,25224,1,0,0:0:0:0:
16,148,25391,5,0,0:0:0:0:
124,136,25557,1,0,0:0:0:0:
204,216,25724,2,0,L|264:220,2,46.8750017881394,8|0|0,0:0|0:0|0:0,0:0:0:0:
212,104,26057,2,0,P|196:72|148:40,1,93.7500035762788
284,144,26391,2,0,P|292:108|280:40,1,93.7500035762788,8|0,0:0|0:0,0:0:0:0:
284,52,26724,21,0,0:0:0:0:
124,136,26891,1,0,0:0:0:0:
336,216,27057,2,0,P|360:188|372:128,1,93.7500035762788,8|0,0:0|0:0,0:0:0:0:
204,216,27391,21,0,0:0:0:0:
212,104,27557,1,0,0:0:0:0:
116,248,27724,21,8,0:0:0:0:
124,136,27890,1,0,0:0:0:0:
40,212,28057,22,0,P|32:264|144:328,1,187.500007152558,0|8,0:0|0:0,0:0:0:0:
240,304,28557,1,0,0:0:0:0:
240,304,28641,1,0,0:0:0:0:
240,304,28724,1,0,0:0:0:0:
348,340,28891,1,0,0:0:0:0:
404,244,29057,22,0,L|384:144,1,93.7500035762788,8|0,0:0|0:0,0:0:0:0:
316,60,29391,1,0,0:0:0:0:
296,172,29557,1,0,0:0:0:0:
204,104,29724,2,0,P|156:88|184:172,1,187.500007152558,8|0,0:0|0:0,0:0:0:0:
396,124,30224,1,0,0:0:0:0:
296,172,30391,2,0,B|264:200|264:200|256:232|216:252,1,93.7500035762788,8|0,0:0|0:0,0:0:0:0:
208,248,30641,1,0,0:0:0:0:
180,256,30724,21,0,0:0:0:0:
68,240,30891,1,0,0:0:0:0:
116,344,31057,1,8,0:0:0:0:
128,176,31224,1,0,0:0:0:0:
128,176,31307,1,0,0:0:0:0:
128,176,31391,2,0,B|96:160|52:160|52:160|24:96|56:48,1,187.500007152558,0|8,0:0|0:0,0:0:0:0:
160,92,31891,1,0,0:0:0:0:
264,52,32057,2,0,L|368:56,1,93.7500035762788
492,156,32391,2,0,L|388:152,1,93.7500035762788,8|0,0:0|0:0,0:0:0:0:
288,184,32724,21,0,0:0:0:0:
376,252,32891,2,0,L|384:304,1,46.8750017881394
416,344,33057,2,0,P|348:332|304:336,1,93.7500035762788,8|0,0:0|0:0,0:0:0:0:
268,344,33307,1,0,0:0:0:0:
212,348,33391,2,0,P|160:352|116:336,1,93.7500035762788
104,116,33724,2,0,L|120:216,1,93.7500035762788,8|0,0:0|0:0,0:0:0:0:
300,36,34057,2,0,P|352:32|396:48,1,93.7500035762788
408,268,34390,2,0,L|392:168,1,93.7500035762788,8|0,0:0|0:0,0:0:0:0:
292,128,34724,22,0,P|256:120|216:68,1,93.7500035762788
388,100,35057,2,0,P|388:144|360:192,1,93.7500035762788,8|0,0:0|0:0,0:0:0:0:
260,228,35391,2,0,L|156:224,1,93.7500035762788
140,232,35641,1,0,0:0:0:0:
112,224,35724,1,8,0:0:0:0:
144,116,35891,1,0,0:0:0:0:
220,328,36057,21,0,0:0:0:0:
304,308,36224,1,0,0:0:0:0:
384,336,36391,1,8,0:0:0:0:
440,240,36557,1,0,0:0:0:0:
376,148,36724,1,0,0:0:0:0:
348,228,36891,1,0,0:0:0:0:
460,104,37057,2,0,P|464:52|452:8,1,93.7500035762788,8|0,0:0|0:0,0:0:0:0:
388,64,37391,21,0,0:0:0:0:
440,240,37557,1,0,0:0:0:0:
288,164,37724,2,0,P|236:156|196:168,1,93.7500035762788,8|0,0:0|0:0,0:0:0:0:
172,180,37974,1,0,0:0:0:0:
148,196,38057,2,0,L|236:240,1,93.7500035762788
304,324,38391,1,8,0:0:0:0:
192,316,38557,1,0,0:0:0:0:
164,324,38641,1,0,0:0:0:0:
136,332,38724,21,0,0:0:0:0:
68,244,38891,1,0,0:0:0:0:
88,132,39057,2,0,L|76:40,1,93.7500035762788,8|0,0:0|0:0,0:0:0:0:
56,152,39391,21,0,0:0:0:0:
156,200,39557,1,0,0:0:0:0:
248,136,39724,2,0,L|352:140,1,93.7500035762788,8|0,0:0|0:0,0:0:0:0:
236,100,40057,21,0,0:0:0:0:
172,192,40224,1,0,0:0:0:0:
232,288,40391,2,0,L|240:392,1,93.7500035762788,8|0,0:0|0:0,0:0:0:0:
212,268,40724,21,0,0:0:0:0:
320,228,40891,1,0,0:0:0:0:
432,224,41057,2,0,L|440:328,1,93.7500035762788,8|0,0:0|0:0,0:0:0:0:
400,212,41391,21,0,0:0:0:0:
436,104,41557,2,0,L|408:8,2,93.7500035762788,0|8|0,0:0|0:0|0:0,0:0:0:0:
324,112,42057,22,0,P|264:128|136:112,1,187.500007152558,0|8,0:0|0:0,0:0:0:0:
44,52,42557,1,0,0:0:0:0:
156,36,42724,1,0,0:0:0:0:
60,176,42891,1,0,0:0:0:0:
220,120,43057,1,8,0:0:0:0:
148,272,43224,1,0,0:0:0:0:
152,188,43391,1,0,0:0:0:0:
232,336,43557,1,0,0:0:0:0:
128,288,43724,22,0,L|20:288,1,93.7500035762788,8|0,0:0|0:0,0:0:0:0:
34,288,44057,1,0,0:0:0:0:
152,188,44224,1,0,0:0:0:0:
152,188,44307,1,0,0:0:0:0:
152,188,44391,1,8,0:0:0:0:
252,240,44557,1,0,0:0:0:0:
172,160,44724,2,0,L|76:160,1,93.7500035762788
188,128,45057,2,0,L|284:128,1,93.7500035762788,8|0,0:0|0:0,0:0:0:0:
384,76,45391,21,0,0:0:0:0:
412,84,45474,1,0,0:0:0:0:
428,108,45557,1,0,0:0:0:0:
424,136,45641,1,0,0:0:0:0:
404,156,45724,1,8,0:0:0:0:
388,180,45807,1,0,0:0:0:0:
380,208,45891,1,0,0:0:0:0:
392,232,45974,1,0,0:0:0:0:
412,252,46057,2,0,L|464:260,1,46.8750017881394
432,340,46224,2,0,L|476:368,1,46.8750017881394
336,324,46391,2,0,P|268:332|228:332,1,93.7500035762788,8|0,0:0|0:0,0:0:0:0:
256,192,46724,12,4,48057,0:0:0:0:
256,192,54724,12,2,56057,0:0:0:0:
320,136,56891,38,2,L|384:144,2,62.5
300,140,57391,22,0,B|244:124|244:124|164:136,1,125
108,104,57641,1,0,0:0:0:0:
108,104,57724,2,0,L|36:120,1,62.5,8|0,0:0|0:0,0:0:0:0:
84,224,57891,2,0,L|72:288,1,62.5
180,252,58057,2,0,B|220:288|220:288|296:260|336:332,1,187.5
260,356,58391,2,0,P|244:316|344:232,1,187.500007152558,8|0,0:0|0:0,0:0:0:0:
460,316,58724,2,0,L|432:188,1,125
464,124,58974,1,0,0:0:0:0:
464,124,59057,2,0,L|460:56,1,62.5,8|0,0:0|0:0,0:0:0:0:
384,64,59224,2,0,L|360:0,1,62.5
300,52,59391,6,0,B|236:40|236:40|168:48,1,125
124,100,59641,1,0,0:0:0:0:
80,160,59724,2,0,L|88:240,1,62.5,8|0,0:0|0:0,0:0:0:0:
208,308,59891,2,0,L|200:228,1,62.5
180,172,60057,2,0,B|228:220|228:220|292:216,1,125
432,248,60391,37,8,0:0:0:0:
356,164,60557,2,0,P|336:144|300:128,1,62.5
356,184,60724,2,0,P|408:156|484:172,1,125
432,248,60974,1,0,0:0:0:0:
432,248,61057,2,0,L|452:312,1,62.5,8|0,0:0|0:0,0:0:0:0:
336,312,61224,2,0,L|256:324,1,62.5
252,212,61391,2,0,B|256:152|256:152|236:84,1,125
172,48,61641,1,0,0:0:0:0:
96,52,61724,6,0,L|28:64,1,62.5,8|0,0:0|0:0,0:0:0:0:
140,168,61891,2,0,L|208:156,1,62.5,0|0,0:0|0:0,0:0:0:0:
144,296,62057,2,0,B|80:296|80:296|8:320,1,125,0|0,0:0|0:0,0:0:0:0:
22,315,62307,1,0,0:0:0:0:
22,315,62391,1,8,0:0:0:0:
32,164,62557,1,0,0:0:0:0:
316,64,62724,5,0,0:0:0:0:
364,244,62891,1,0,0:0:0:0:
219,55,63057,5,8,0:0:0:0:
372,162,63224,1,0,0:0:0:0:
140,110,63391,5,0,0:0:0:0:
325,94,63558,1,0,0:0:0:0:
115,204,63724,5,8,0:0:0:0:
247,72,63891,1,0,0:0:0:0:
104,112,64057,1,0,0:0:0:0:
224,200,64224,2,0,P|212:256|40:280,1,250,4|4,0:0|0:0,0:0:0:0:
196,304,64724,21,0,0:0:0:0:
196,304,64891,2,0,B|272:300|272:300|324:316,1,125,0|8,0:0|0:0,0:0:0:0:
468,332,65224,1,0,0:0:0:0:
424,188,65391,2,0,L|440:56,1,125
292,84,65724,1,8,0:0:0:0:
312,232,65891,1,0,0:0:0:0:
312,232,65974,1,0,0:0:0:0:
312,232,66057,1,0,0:0:0:0:
320,44,66224,1,0,0:0:0:0:
228,164,66391,2,0,L|100:172,1,125,8|0,0:0|0:0,0:0:0:0:
68,184,66641,1,0,0:0:0:0:
32,200,66724,6,0,L|48:72,1,125
56,264,67057,6,0,L|72:136,1,125,8|0,0:0|0:0,0:0:0:0:
140,276,67391,6,0,P|120:328|80:344,1,93.75
87,343,67724,6,0,B|152:372|208:332|208:332|256:360|256:360|288:332|372:356,1,281.250010728836,12|0,0:0|0:0,0:0:0:0:
424,372,68057,6,0,P|404:336|416:240,1,125
456,196,68307,1,0,0:0:0:0:
468,120,68391,2,0,B|432:112|400:136|400:136|332:112,1,125,8|0,0:0|0:0,0:0:0:0:
200,120,68724,1,0,0:0:0:0:
296,236,68891,2,0,L|300:312,2,62.5,0|0|8,0:0|0:0|0:0,0:0:0:0:
144,228,69224,1,0,0:0:0:0:
304,132,69391,6,0,P|300:92|176:28,1,187.5
200,120,69724,1,8,0:0:0:0:
200,120,69807,1,0,0:0:0:0:
200,120,69891,2,0,P|144:132|64:120,1,125
60,272,70224,2,0,L|40:352,2,62.5,0|0|8,0:0|0:0|0:0,0:0:0:0:
144,228,70557,1,0,0:0:0:0:
224,308,70724,22,0,P|280:296|364:308,1,125
488,356,71057,1,8,0:0:0:0:
420,220,71224,2,0,P|420:180|440:92,1,125
292,60,71557,2,0,L|224:72,2,62.5,0|0|8,0:0|0:0|0:0,0:0:0:0:
276,212,71891,1,0,0:0:0:0:
152,128,72057,2,0,P|76:140|24:128,1,125
100,40,72391,1,8,0:0:0:0:
188,248,72557,2,0,P|220:296|304:320,2,125
276,212,73057,2,0,P|324:236|304:152,1,187.5,8|0,0:0|0:0,0:0:0:0:
252,96,73307,1,0,0:0:0:0:
252,96,73391,6,0,P|284:80|384:100,1,125
464,208,73724,2,0,L|456:332,1,125,8|0,0:0|0:0,0:0:0:0:
448,184,74057,1,0,0:0:0:0:
300,204,74224,1,0,0:0:0:0:
300,204,74307,1,0,0:0:0:0:
300,204,74391,1,8,0:0:0:0:
384,80,74557,1,0,0:0:0:0:
356,304,74724,2,0,B|328:320|292:304|292:304|264:324|224:320,1,125
108,244,75057,1,8,0:0:0:0:
220,240,75224,1,0,0:0:0:0:
72,224,75391,6,0,L|100:352,1,125
136,124,75724,2,0,L|108:-4,1,125,8|0,0:0|0:0,0:0:0:0:
48,48,75974,1,0,0:0:0:0:
48,48,76057,22,0,P|84:72|176:40,1,125
216,108,76391,2,0,P|264:76|348:84,1,125,8|0,0:0|0:0,0:0:0:0:
392,120,76724,1,0,0:0:0:0:
296,176,76891,1,0,0:0:0:0:
408,76,77057,1,8,0:0:0:0:
316,196,77224,2,0,B|348:228|412:224|412:224|440:260|416:296|416:296|352:288|320:308,1,250
280,332,77724,6,0,P|224:336|156:328,1,125,8|0,0:0|0:0,0:0:0:0:
56,216,78057,1,0,0:0:0:0:
148,96,78224,1,0,0:0:0:0:
284,164,78391,1,8,0:0:0:0:
408,80,78557,1,0,0:0:0:0:
500,200,78724,22,0,L|496:268,1,62.5
408,332,79057,2,0,L|412:264,1,62.5,8|0,0:0|0:0,0:0:0:0:
380,180,79391,1,0,0:0:0:0:
380,180,79557,1,0,0:0:0:0:
380,180,79724,1,8,0:0:0:0:
256,264,80057,5,0,0:0:0:0:
124,188,80224,1,0,0:0:0:0:
124,188,80307,1,0,0:0:0:0:
124,188,80390,1,8,0:0:0:0:
148,300,80557,1,0,0:0:0:0:
212,84,80724,1,0,0:0:0:0:
212,84,80891,38,2,L|144:72,2,62.5,0|0|0,0:0|0:0|0:0,0:0:0:0:
320,52,81391,6,0,L|424:48,1,93.7500035762788,0|0,0:0|0:0,0:0:0:0:
488,132,81724,1,8,0:0:0:0:
288,232,81891,1,0,0:0:0:0:
288,232,81975,1,0,0:0:0:0:
288,232,82058,1,0,0:0:0:0:
376,164,82224,2,0,L|400:272,2,93.7500035762788,0|8|0,0:0|0:0|0:0,0:0:0:0:
152,168,82724,21,0,0:0:0:0:
200,268,82891,1,0,0:0:0:0:
204,44,83057,2,0,L|100:48,1,93.7500035762788,8|0,0:0|0:0,0:0:0:0:
48,140,83391,6,0,L|60:212,1,62.5
124,336,83724,2,0,L|112:264,1,62.5,8|0,0:0|0:0,0:0:0:0:
308,160,84057,5,0,0:0:0:0:
200,268,84224,1,0,0:0:0:0:
200,268,84307,1,0,0:0:0:0:
200,268,84391,1,8,0:0:0:0:
152,168,84557,1,0,0:0:0:0:
154,144,84640,1,0,0:0:0:0:
157,121,84723,1,0,0:0:0:0:
160,98,84806,1,0,0:0:0:0:
163,74,84890,1,0,0:0:0:0:
276,72,85057,2,0,L|372:72,1,93.7500035762788,8|0,0:0|0:0,0:0:0:0:
460,140,85391,22,0,L|472:92,1,46.8750017881394
404,216,85557,2,0,L|384:168,1,46.8750017881394
460,292,85724,2,0,L|488:240,1,46.8750017881394,8|0,0:0|0:0,0:0:0:0:
388,356,85891,2,0,L|364:304,1,46.8750017881394
292,276,86057,21,0,0:0:0:0:
268,279,86140,1,0,0:0:0:0:
245,283,86223,1,0,0:0:0:0:
222,287,86306,1,0,0:0:0:0:
199,290,86390,1,8,0:0:0:0:
96,240,86557,1,0,0:0:0:0:
140,76,86724,22,0,L|160:176,1,93.7500035762788
256,112,87057,2,0,L|240:216,1,93.7500035762788,8|0,0:0|0:0,0:0:0:0:
352,228,87391,2,0,L|260:288,1,93.7500035762788
352,360,87724,2,0,L|244:360,1,93.7500035762788,8|0,0:0|0:0,0:0:0:0:
152,320,88057,1,0,0:0:0:0:
216,228,88224,1,0,0:0:0:0:
112,188,88391,1,8,0:0:0:0:
56,284,88557,1,0,0:0:0:0:
48,60,88724,21,0,0:0:0:0:
120,212,88891,1,0,0:0:0:0:
252,108,89057,21,8,0:0:0:0:
88,148,89224,1,0,0:0:0:0:
244,88,89391,22,0,P|312:116|392:108,1,140.625005364418
424,84,89724,2,0,L|424:188,1,93.7500035762788,8|0,0:0|0:0,0:0:0:0:
352,264,90057,1,0,0:0:0:0:
248,220,90224,1,0,0:0:0:0:
416,208,90391,2,0,P|440:264|424:312,1,93.7500035762788,8|0,0:0|0:0,0:0:0:0:
320,296,90724,21,0,0:0:0:0:
208,320,90891,1,0,0:0:0:0:
108,268,91057,21,8,0:0:0:0:
248,220,91224,1,0,0:0:0:0:
88,60,91391,21,0,0:0:0:0:
140,160,91557,1,0,0:0:0:0:
340,60,91724,22,0,L|276:64,1,46.8750017881394,8|0,0:0|0:0,0:0:0:0:
236,72,91891,1,0,0:0:0:0:
448,152,92057,22,0,B|460:100|460:100|460:40,1,93.7500035762788
372,132,92391,2,0,B|360:156|376:196|376:196|404:232|392:272,1,140.625005364418,8|0,0:0|0:0,0:0:0:0:
376,320,92724,2,0,L|272:312,1,93.7500035762788
176,352,93057,2,0,L|144:264,1,93.7500035762788,8|0,0:0|0:0,0:0:0:0:
36,296,93391,2,0,L|56:192,1,93.7500035762788
48,92,93724,21,8,0:0:0:0:
132,168,93891,1,0,0:0:0:0:
180,64,94057,2,0,L|276:64,1,93.7500035762788
376,112,94391,1,8,0:0:0:0:
268,240,94557,1,0,0:0:0:0:
288,156,94724,21,0,0:0:0:0:
320,324,94891,1,0,0:0:0:0:
208,312,95057,1,8,0:0:0:0:
424,244,95224,1,0,0:0:0:0:
424,244,95307,1,0,0:0:0:0:
424,244,95390,21,0,0:0:0:0:
476,144,95557,1,0,0:0:0:0:
384,80,95724,2,0,B|332:80|332:80|304:72|280:72,1,93.7500035762788,8|0,0:0|0:0,0:0:0:0:
188,120,96057,21,0,0:0:0:0:
80,84,96224,1,0,0:0:0:0:
112,248,96391,2,0,L|104:344,1,93.7500035762788,8|0,0:0|0:0,0:0:0:0:
104,341,96641,1,0,0:0:0:0:
104,341,96724,1,0,0:0:0:0:
92,228,96891,1,0,0:0:0:0:
200,208,97057,2,0,P|240:200|280:152,1,93.7500035762788,8|0,0:0|0:0,0:0:0:0:
272,48,97391,21,0,0:0:0:0:
188,120,97557,1,0,0:0:0:0:
200,232,97724,2,0,P|216:280|256:320,1,93.7500035762788,8|0,0:0|0:0,0:0:0:0:
356,304,98057,1,0,0:0:0:0:
404,200,98224,1,0,0:0:0:0:
312,136,98391,2,0,P|300:188|316:232,1,93.7500035762788,8|0,0:0|0:0,0:0:0:0:
404,84,98724,22,0,B|380:64|380:64|360:0,1,93.7500035762788
488,64,99057,2,0,P|492:104|456:148,1,93.7500035762788,8|0,0:0|0:0,0:0:0:0:
404,200,99391,1,0,0:0:0:0:
312,136,99557,2,0,L|248:132,1,46.8750017881394
296,180,99724,2,0,B|244:184|244:184|188:180,1,93.7500035762788,8|0,0:0|0:0,0:0:0:0:
108,120,100057,21,0,0:0:0:0:
105,143,100140,1,0,0:0:0:0:
102,166,100223,1,0,0:0:0:0:
99,189,100306,1,0,0:0:0:0:
97,213,100390,1,8,0:0:0:0:
156,308,100557,1,0,0:0:0:0:
268,292,100724,2,0,L|380:300,1,93.7500035762788
384,316,100974,1,0,0:0:0:0:
404,336,101057,2,0,P|464:332|500:344,1,93.7500035762788,8|0,0:0|0:0,0:0:0:0:
495,341,101391,21,0,0:0:0:0:
428,128,101557,1,0,0:0:0:0:
436,240,101724,1,8,0:0:0:0:
492,24,101891,1,0,0:0:0:0:
384,48,102057,1,0,0:0:0:0:
492,180,102224,1,0,0:0:0:0:
268,196,102391,1,8,0:0:0:0:
256,192,102724,6,0,P|200:204|144:196,1,99.9999969482423
84,152,103057,2,0,P|64:196|84:248,1,99.9999969482423,4|0,0:0|0:0,0:0:0:0:
148,300,103391,2,0,L|204:288,1,49.9999984741211
280,328,103613,1,0,0:0:0:0:
364,300,103724,2,0,L|368:196,1,99.9999969482423,4|0,0:0|0:0,0:0:0:0:
456,188,104057,22,0,P|440:144|388:120,1,99.9999969482423,2|0,0:0|0:0,0:0:0:0:
308,104,104391,2,0,P|260:112|192:100,1,99.9999969482423,4|0,0:0|0:0,0:0:0:0:
132,56,104724,2,0,L|80:64,2,49.9999984741211,2|0|0,0:0|0:0|0:0,0:0:0:0:
112,144,105057,1,8,0:0:0:0:
124,232,105169,1,8,0:0:0:0:
196,288,105280,1,8,0:0:0:0:
260,224,105391,22,0,L|368:216,1,99.9999969482423,4|0,0:0|0:0,0:0:0:0:
420,284,105724,2,0,P|440:252|440:188,1,99.9999969482423,2|0,0:0|0:0,0:0:0:0:
392,116,106057,2,8,L|324:128,2,49.9999984741211
468,68,106391,2,8,L|524:108,2,49.9999984741211
384,32,106724,2,8,L|328:28,1,49.9999984741211
248,48,106946,1,8,0:0:0:0:
172,96,107057,1,8,0:0:0:0:
84,72,107169,2,0,L|28:76,2,49.9999984741211,8|8|8,0:0|0:0|0:0,0:0:0:0:
100,192,107613,1,4,0:0:0:0:
120,212,107724,2,0,L|120:312,1,99.9999969482423,2|0,0:0|0:0,0:0:0:0:
204,340,108057,22,0,B|248:320|248:320|284:332|316:324,1,99.9999969482423,4|0,0:0|0:0,0:0:0:0:
288,236,108391,1,2,0:0:0:0:
376,260,108502,1,0,0:0:0:0:
392,348,108613,1,0,0:0:0:0:
392,348,108724,2,0,P|444:324|464:272,1,99.9999969482423,4|0,0:0|0:0,0:0:0:0:
452,200,109057,2,0,L|444:136,1,49.9999984741211,2|0,0:0|0:0,0:0:0:0:
380,88,109280,1,0,0:0:0:0:
300,128,109391,22,0,P|256:140|200:124,1,99.9999969482423,4|0,0:0|0:0,0:0:0:0:
120,96,109724,2,0,P|84:100|56:152,1,99.9999969482423,4|0,0:0|0:0,0:0:0:0:
132,204,110057,2,0,P|108:232|40:240,1,99.9999969482423,4|0,0:0|0:0,0:0:0:0:
16,328,110391,2,0,P|56:340|112:332,1,99.9999969482423,2|0,0:0|0:0,0:0:0:0:
196,300,110724,22,0,P|236:296|296:328,1,99.9999969482423,4|0,0:0|0:0,0:0:0:0:
376,344,111057,1,8,0:0:0:0:
404,260,111169,1,8,0:0:0:0:
356,184,111280,1,8,0:0:0:0:
268,180,111391,2,0,P|272:216|312:268,1,99.9999969482423,8|0,0:0|0:0,0:0:0:0:
452,160,111724,2,0,P|436:124|372:96,1,99.9999969482423,8|0,0:0|0:0,0:0:0:0:
304,56,112057,2,0,B|292:96|292:96|248:84|224:100,1,99.9999969482423,8|0,0:0|0:0,0:0:0:0:
160,148,112391,2,0,P|136:132|132:56,1,99.9999969482423,8|0,0:0|0:0,0:0:0:0:
126,65,112724,21,2,0:0:0:0:
104,216,112891,2,2,L|120:288,2,62.5
116,220,113391,22,0,B|152:244|152:244|208:228|244:244,1,125
292,284,113641,1,0,0:0:0:0:
348,332,113724,2,0,P|368:292|360:248,1,62.5,8|0,0:0|0:0,0:0:0:0:
328,212,113891,2,0,P|320:176|328:144,1,62.5
396,172,114057,2,0,P|400:132|328:76,1,125
268,88,114307,1,0,0:0:0:0:
196,60,114391,2,0,B|136:48|136:48|132:128|56:144,1,187.5,8|0,0:0|0:0,0:0:0:0:
56,68,114724,2,0,P|104:76|104:208,1,187.5
80,256,114974,1,0,0:0:0:0:
80,256,115057,2,0,P|124:272|192:236,1,125,8|0,0:0|0:0,0:0:0:0:
228,172,115307,1,0,0:0:0:0:
228,172,115391,6,0,L|292:176,1,62.5
428,240,115557,2,0,L|364:236,1,62.5
260,284,115724,1,8,0:0:0:0:
344,76,115891,1,0,0:0:0:0:
384,336,116057,21,0,0:0:0:0:
228,172,116182,2,0,L|152:188,1,62.5
268,132,116391,2,0,B|304:176|304:176|344:188|376:176,1,125,8|0,0:0|0:0,0:0:0:0:
400,152,116641,1,0,0:0:0:0:
424,124,116724,2,0,L|424:52,1,62.5
344,76,116891,1,0,0:0:0:0:
344,76,116974,1,0,0:0:0:0:
344,76,117057,5,8,0:0:0:0:
472,260,117224,1,0,0:0:0:0:
324,244,117391,1,0,0:0:0:0:
472,356,117557,1,0,0:0:0:0:
212,324,117724,1,8,0:0:0:0:
364,328,117891,1,0,0:0:0:0:
148,260,118057,2,0,P|124:304|144:384,1,125
220,208,118391,2,0,P|184:184|88:184,1,125,8|0,0:0|0:0,0:0:0:0:
104,178,118724,5,0,0:0:0:0:
212,324,118891,1,0,0:0:0:0:
222,43,119057,5,8,0:0:0:0:
116,190,119224,1,0,0:0:0:0:
386,113,119391,5,0,0:0:0:0:
214,59,119558,1,0,0:0:0:0:
370,292,119724,5,8,0:0:0:0:
369,111,119891,1,0,0:0:0:0:
300,244,120057,1,0,0:0:0:0:
436,180,120224,2,0,P|472:136|360:24,1,250,4|0,0:0|0:0,0:0:0:0:
220,60,120724,5,2,0:0:0:0:
220,60,120891,2,0,B|236:104|236:104|224:200,1,125,0|8,0:0|0:0,0:0:0:0:
144,308,121224,1,0,0:0:0:0:
24,216,121391,2,0,B|88:224|88:224|100:184|144:156,1,125
220,60,121724,1,8,0:0:0:0:
172,240,121891,21,0,0:0:0:0:
288,148,122057,1,0,0:0:0:0:
64,128,122224,1,0,0:0:0:0:
344,232,122391,6,0,P|372:192|376:104,1,125,8|0,0:0|0:0,0:0:0:0:
240,60,122724,1,0,0:0:0:0:
172,240,122891,5,0,0:0:0:0:
172,240,122974,1,0,0:0:0:0:
172,240,123057,1,8,0:0:0:0:
296,324,123224,1,0,0:0:0:0:
440,284,123391,6,0,L|464:192,1,93.75
448,204,123724,6,0,B|400:218|400:218|348:194|348:194|312:224|312:224|264:200|264:200|228:228|156:210,1,281.250010728836,12|0,0:0|0:0,0:0:0:0:
172,240,124057,6,0,L|156:116,1,125
8,80,124391,1,8,0:0:0:0:
72,216,124557,1,0,0:0:0:0:
72,216,124641,1,0,0:0:0:0:
72,216,124724,2,0,L|64:288,1,62.5
140,148,124891,2,0,L|148:76,1,62.5
172,236,125057,2,0,L|164:308,1,62.5,8|0,0:0|0:0,0:0:0:0:
240,168,125224,2,0,L|248:96,1,62.5
284,252,125391,6,0,P|296:296|384:320,1,125
424,240,125641,1,0,0:0:0:0:
424,240,125724,2,0,L|388:184,1,62.5,8|0,0:0|0:0,0:0:0:0:
444,136,125891,2,0,L|376:96,1,62.5
388,28,126057,2,0,P|336:48|320:72,1,62.5
260,32,126224,2,0,P|260:68|280:108,1,62.5
204,132,126391,2,0,P|244:168|276:172,1,62.5,8|0,0:0|0:0,0:0:0:0:
324,160,126557,2,0,P|320:200|292:236,1,62.5
240,252,126724,22,0,P|184:264|100:252,1,125
52,216,126974,1,0,0:0:0:0:
52,216,127057,2,0,L|68:92,1,125,8|0,0:0|0:0,0:0:0:0:
67,92,127307,1,0,0:0:0:0:
67,92,127391,6,0,L|4:108,1,62.5
152,148,127557,2,0,L|88:132,1,62.5,0|0,0:0|0:0,0:0:0:0:
236,84,127724,2,0,L|172:99,1,62.5,8|0,0:0|0:0,0:0:0:0:
316,148,127891,2,0,L|252:132,1,62.5,0|0,0:0|0:0,0:0:0:0:
404,100,128057,6,0,L|424:232,1,125
380,288,128307,1,0,0:0:0:0:
380,288,128391,2,0,L|316:272,1,62.5,8|0,0:0|0:0,0:0:0:0:
176,312,128557,2,0,L|240:328,1,62.5
116,240,128724,2,0,L|52:224,1,62.5
204,224,128891,1,0,0:0:0:0:
204,224,128974,1,0,0:0:0:0:
204,224,129057,38,0,P|248:220|160:144,1,281.250010728836,8|0,0:0|0:0,0:0:0:0:
166,130,129391,6,0,P|132:144|60:104,1,125
124,68,129641,1,0,0:0:0:0:
124,68,129724,2,0,P|172:56|240:108,1,125,8|0,0:0|0:0,0:0:0:0:
328,208,129974,1,0,0:0:0:0:
328,208,130057,2,0,P|364:224|432:168,1,125
360,44,130391,21,8,0:0:0:0:
204,224,130557,1,0,0:0:0:0:
316,120,130724,1,0,0:0:0:0:
316,120,131057,5,8,0:0:0:0:
124,68,131224,1,0,0:0:0:0:
204,224,131391,1,0,0:0:0:0:
224,76,131557,1,0,0:0:0:0:
120,184,131724,2,0,P|120:272|152:308,1,125,8|0,0:0|0:0,0:0:0:0:
280,352,132057,5,0,0:0:0:0:
204,224,132224,1,0,0:0:0:0:
424,268,132391,21,8,0:0:0:0:
275,269,132558,1,0,0:0:0:0:
372,152,132724,5,0,0:0:0:0:
364,340,132891,1,0,0:0:0:0:
464,184,133057,1,8,0:0:0:0:
292,108,133224,2,0,B|268:104|240:116|240:116|208:92|208:92|168:112|168:112|104:88|56:120,1,250
44,228,133724,5,8,0:0:0:0:
120,308,133891,1,0,0:0:0:0:
184,216,134057,2,0,L|308:224,1,125
416,264,134391,21,8,0:0:0:0:
392,116,134557,1,0,0:0:0:0:
120,308,134724,1,4,0:0:0:0:
312,260,140057,38,0,P|244:264|184:248,1,125,4|0,0:0|0:0,0:0:0:0:
148,188,140557,1,0,0:0:0:0:
184,120,140724,2,0,B|220:140|224:168|224:168|256:184|288:176,1,125,8|0,0:0|0:0,0:0:0:0:
352,148,141224,1,0,0:0:0:0:
384,80,141391,2,0,P|416:108|424:128,1,62.5,4|0,0:0|0:0,0:0:0:0:
412,200,141724,1,0,0:0:0:0:
424,276,141891,1,0,0:0:0:0:
488,312,142057,2,0,P|460:344|432:352,1,62.5,8|0,0:0|0:0,0:0:0:0:
368,340,142391,2,0,P|320:328|304:332,1,62.5
236,352,142724,38,0,P|192:360|132:344,1,93.75,4|0,0:0|0:0,0:0:0:0:
112,332,143057,2,0,L|128:268,1,62.5,8|0,0:0|0:0,0:0:0:0:
100,200,143391,1,0,0:0:0:0:
156,148,143557,1,0,0:0:0:0:
156,148,143641,1,0,0:0:0:0:
156,148,143724,2,0,P|196:168|220:172,1,62.5,4|0,0:0|0:0,0:0:0:0:
288,152,144057,1,0,0:0:0:0:
256,192,144141,12,0,145057,0:0:0:0:
88,92,145391,38,0,P|124:120|216:116,1,125
268,88,145641,1,0,0:0:0:0:
336,56,145724,2,0,P|348:96|276:160,1,125,8|0,0:0|0:0,0:0:0:0:
168,228,146057,1,0,0:0:0:0:
168,228,146391,1,8,0:0:0:0:
308,280,146557,1,0,0:0:0:0:
308,280,146641,1,0,0:0:0:0:
308,280,146724,6,0,P|360:296|432:288,1,125
436,140,147057,1,8,0:0:0:0:
288,168,147224,1,0,0:0:0:0:
260,153,147307,1,0,0:0:0:0:
237,132,147390,1,0,0:0:0:0:
222,105,147474,1,0,0:0:0:0:
214,75,147557,1,0,0:0:0:0:
76,128,147724,2,0,L|64:268,1,125,8|0,0:0|0:0,0:0:0:0:
64,292,147974,1,0,0:0:0:0:
72,328,148057,22,0,P|136:308|204:324,1,125
260,348,148307,1,0,0:0:0:0:
336,360,148391,2,0,P|388:360|460:316,1,125,8|0,0:0|0:0,0:0:0:0:
472,176,148724,1,0,0:0:0:0:
472,176,149057,1,8,0:0:0:0:
340,104,149224,1,0,0:0:0:0:
340,104,149307,1,0,0:0:0:0:
340,104,149391,6,0,P|280:120|208:112,1,125
84,48,149724,2,0,L|104:128,1,62.5,8|0,0:0|0:0,0:0:0:0:
72,256,149891,2,0,L|52:176,1,62.5
104,256,150057,2,0,B|116:316|116:316|168:352,1,125
236,320,150307,1,0,0:0:0:0:
308,336,150391,2,0,P|352:348|440:336,1,125,8|0,0:0|0:0,0:0:0:0:
472,276,150724,6,0,L|472:200,1,62.5
396,228,150891,2,0,L|380:168,1,62.5
328,112,151057,2,0,P|280:136|200:132,1,125,8|0,0:0|0:0,0:0:0:0:
72,76,151391,1,0,0:0:0:0:
72,76,151724,1,8,0:0:0:0:
220,52,151891,1,0,0:0:0:0:
220,52,151974,1,0,0:0:0:0:
220,52,152057,1,0,0:0:0:0:
164,272,152224,1,0,0:0:0:0:
116,172,152391,1,8,0:0:0:0:
252,236,152557,1,0,0:0:0:0:
28,256,152724,21,0,0:0:0:0:
304,144,152891,1,0,0:0:0:0:
196,176,153057,1,8,0:0:0:0:
336,232,153224,1,0,0:0:0:0:
220,52,153391,5,0,0:0:0:0:
308,340,153557,1,0,0:0:0:0:
400,136,153724,1,8,0:0:0:0:
400,136,154057,1,0,0:0:0:0:
196,176,154224,1,0,0:0:0:0:
196,176,154307,1,0,0:0:0:0:
196,176,154391,1,8,0:0:0:0:
336,232,154557,1,0,0:0:0:0:
256,192,154724,12,4,155724,0:0:0:0:
136,136,156057,6,0,L|208:152,1,62.5
260,112,156224,1,0,0:0:0:0:
276,138,156307,1,0,0:0:0:0:
279,169,156390,1,8,0:0:0:0:
269,198,156474,1,0,0:0:0:0:
248,220,156557,1,0,0:0:0:0:
219,231,156640,1,0,0:0:0:0:
188,229,156724,6,0,P|124:236|88:288,1,125
228,344,157057,1,8,0:0:0:0:
136,140,157224,1,0,0:0:0:0:
392,300,157391,1,0,0:0:0:0:
368,152,157557,1,0,0:0:0:0:
340,300,157724,1,8,0:0:0:0:
456,208,157891,1,0,0:0:0:0:
136,140,158057,1,4,0:0:0:0:
136,140,158724,38,0,P|176:168|272:156,1,125
52,56,159057,2,0,B|48:100|48:100|56:148|56:148|48:192,1,125,8|0,0:0|0:0,0:0:0:0:
108,320,159391,1,0,0:0:0:0:
220,84,159557,1,0,0:0:0:0:
220,84,159641,1,0,0:0:0:0:
220,84,159724,2,0,P|264:88|356:80,1,125,8|0,0:0|0:0,0:0:0:0:
484,24,160057,5,0,0:0:0:0:
396,148,160224,1,0,0:0:0:0:
428,296,160391,1,8,0:0:0:0:
500,208,160557,1,0,0:0:0:0:
108,320,160724,1,4,0:0:0:0:
108,320,161391,38,0,B|96:264|96:264|108:168,1,125
196,76,161724,2,0,B|208:132|208:132|196:228,1,125,8|0,0:0|0:0,0:0:0:0:
80,108,162057,5,0,0:0:0:0:
376,152,162391,1,8,0:0:0:0:
264,252,162557,1,0,0:0:0:0:
396,176,162724,38,0,B|400:232|400:232|424:304,1,125
421,297,163057,1,8,0:0:0:0:
488,164,163224,1,0,0:0:0:0:
380,60,163391,2,0,B|324:72|324:72|292:56|292:56|244:80|200:68,1,187.5
124,64,163724,2,0,B|112:108|168:144|168:144|132:184|132:184|136:232,1,187.5,8|0,0:0|0:0,0:0:0:0:
84,272,164057,6,0,P|120:260|208:284,1,125
336,352,164391,2,0,B|312:320|312:320|332:268|296:220,1,125,8|0,0:0|0:0,0:0:0:0:
188,148,164724,1,0,0:0:0:0:
336,168,164891,1,0,0:0:0:0:
188,172,165057,2,0,B|148:184|148:184|88:168|88:168|44:176,1,125,8|0,0:0|0:0,0:0:0:0:
67,171,165391,5,0,0:0:0:0:
336,168,165557,1,0,0:0:0:0:
70,152,165724,5,8,0:0:0:0:
338,176,165890,1,0,0:0:0:0:
75,132,166057,5,0,0:0:0:0:
339,185,166223,1,0,0:0:0:0:
82,114,166391,5,8,0:0:0:0:
339,193,166557,1,0,0:0:0:0:
256,192,166724,12,4,168057,0:0:0:0:
256,192,168391,12,4,169057,0:0:0:0:
368,248,169391,22,0,B|308:232|308:232|264:252|264:252|216:212|152:232,1,224.999993133545
96,296,169724,2,0,P|72:252|100:156,1,149.999995422363,8|0,0:0|0:0,0:0:0:0:
272,128,170057,2,0,B|184:136|184:136|172:96|132:80,1,149.999995422363
147,87,170391,1,8,0:0:0:0:
192,308,170557,1,0,0:0:0:0:
284,152,170724,2,0,B|264:64|264:64|292:80|344:72,1,149.999995422363
408,48,170974,1,0,0:0:0:0:
408,48,171057,6,0,B|420:96|388:136|388:136|448:144,1,149.999995422363,8|0,0:0|0:0,0:0:0:0:
408,320,171391,2,0,B|420:272|388:232|388:232|448:224,1,149.999995422363,0|0,0:0|0:0,0:0:0:0:
328,296,171641,1,0,0:0:0:0:
328,296,171724,2,0,P|304:240|352:156,1,149.999995422363,8|0,0:0|0:0,0:0:0:0:
172,92,172057,2,0,B|136:92|112:116|112:116|76:88|76:88|24:88,1,149.999995422363
52,176,172307,1,0,0:0:0:0:
40,264,172391,22,0,L|52:364,1,74.9999977111817,8|0,0:0|0:0,0:0:0:0:
128,280,172557,2,0,L|140:380,1,74.9999977111817
216,296,172724,2,0,L|228:396,1,74.9999977111817
304,308,172891,2,0,L|316:408,1,74.9999977111817
396,308,173057,2,0,L|408:408,1,74.9999977111817,8|0,0:0|0:0,0:0:0:0:
328,296,173224,6,0,B|296:248|296:248|308:204|308:204|288:172|288:172|304:136|304:136|248:80|280:16,1,299.999990844727
360,60,173641,1,0,0:0:0:0:
360,60,173724,2,0,B|288:148|176:68,1,187.500007152558,8|0,0:0|0:0,0:0:0:0:
100,64,173974,1,0,0:0:0:0:
100,64,174057,1,0,0:0:0:0:
52,240,174224,6,0,L|40:160,1,74.9999977111817
128,268,174391,2,0,L|100:348,2,74.9999977111817,8|0|0,0:0|0:0|0:0,0:0:0:0:
200,104,174724,5,0,0:0:0:0:
364,320,174891,1,0,0:0:0:0:
155,218,175057,5,8,0:0:0:0:
411,128,175224,1,0,0:0:0:0:
249,296,175391,5,0,0:0:0:0:
243,24,175558,1,0,0:0:0:0:
353,230,175724,5,8,0:0:0:0:
93,151,175891,1,0,0:0:0:0:
268,192,176057,1,0,0:0:0:0:
132,312,176224,2,0,B|180:304|180:304|216:320|216:320|264:304|264:304|328:320|328:320|380:284|444:316,1,299.999990844727,6|0,0:0|0:0,0:0:0:0:
411,128,176724,21,0,0:0:0:0:
411,128,176891,2,0,B|360:128|360:128|328:112|328:112|256:112,1,149.999995422363,0|8,0:0|0:0,0:0:0:0:
93,151,177224,1,0,0:0:0:0:
316,176,177391,2,0,P|340:128|308:40,1,149.999995422363
132,68,177724,1,8,0:0:0:0:
52,228,177891,6,0,P|100:244|176:184,1,149.999995422363
40,68,178224,1,0,0:0:0:0:
212,116,178391,6,0,P|228:72|168:-16,1,149.999995422363,8|8,0:0|0:0,0:0:0:0:
93,151,178724,1,0,0:0:0:0:
228,268,178891,21,0,0:0:0:0:
228,268,178974,1,0,0:0:0:0:
228,268,179057,1,8,0:0:0:0:
352,216,179182,1,0,0:0:0:0:
148,236,179391,38,0,P|140:280|168:328,1,93.75
192,348,179724,6,0,B|256:360|296:324|296:324|328:348|328:348|372:320|372:320|400:348|400:348|444:320|444:320|424:276|440:228,1,375,12|0,0:0|0:0,0:0:0:0:
448,152,180057,6,0,P|456:108|424:8,1,149.999995422363
260,68,180307,1,0,0:0:0:0:
260,68,180391,2,0,P|204:88|112:68,1,149.999995422363,8|0,0:0|0:0,0:0:0:0:
44,120,180641,1,0,0:0:0:0:
44,120,180724,2,0,L|28:208,1,74.9999977111817
120,204,180891,2,0,L|104:288,1,74.9999977111817
196,276,181057,2,0,L|224:360,1,74.9999977111817,8|0,0:0|0:0,0:0:0:0:
300,304,181224,1,0,0:0:0:0:
300,304,181307,1,0,0:0:0:0:
308,320,181391,6,0,P|376:304|456:328,1,149.999995422363
324,196,181724,1,8,0:0:0:0:
460,76,181891,1,0,0:0:0:0:
460,76,181974,1,0,0:0:0:0:
460,76,182057,1,0,0:0:0:0:
452,256,182224,1,0,0:0:0:0:
360,100,182391,2,0,L|284:92,1,74.9999977111817,8|0,0:0|0:0,0:0:0:0:
108,124,182557,2,0,L|184:132,1,74.9999977111817
228,212,182724,22,0,B|184:228|132:212|132:212|64:216,1,149.999995422363
60,304,182974,1,0,0:0:0:0:
148,324,183057,2,0,P|208:308|308:340,1,149.999995422363,8|0,0:0|0:0,0:0:0:0:
452,256,183391,1,0,0:0:0:0:
360,100,183557,1,0,0:0:0:0:
360,100,183641,1,0,0:0:0:0:
360,100,183724,1,8,0:0:0:0:
368,280,183891,1,0,0:0:0:0:
336,104,184057,6,0,B|272:80|272:80|224:96|172:88,1,149.999995422363
104,68,184307,1,0,0:0:0:0:
104,68,184391,2,0,P|96:116|112:144,1,74.9999977111817,8|0,0:0|0:0,0:0:0:0:
176,192,184557,2,0,P|140:220|92:216,1,74.9999977111817
20,220,184724,2,0,P|32:280|64:304,1,74.9999977111817
124,328,184891,2,0,P|180:312|272:320,2,149.999995422363,0|8|0,0:0|0:0|0:0,0:0:0:0:
124,328,185391,6,0,P|180:312|224:208,1,149.999995422363
316,228,185641,1,0,0:0:0:0:
316,228,185724,2,0,P|304:180|336:80,1,149.999995422363,8|0,0:0|0:0,0:0:0:0:
404,252,186057,2,0,P|368:296|256:300,1,149.999995422363
388,164,186391,1,8,0:0:0:0:
448,332,186557,1,0,0:0:0:0:
140,140,186724,1,0,0:0:0:0:
300,60,187057,21,8,0:0:0:0:
216,216,187223,1,0,0:0:0:0:
192,36,187390,1,0,0:0:0:0:
304,180,187557,1,0,0:0:0:0:
128,148,187724,1,8,0:0:0:0:
168,324,187891,1,0,0:0:0:0:
52,188,188057,6,0,P|44:132|112:64,1,149.999995422363
460,196,188391,2,0,P|468:252|400:320,1,149.999995422363,8|0,0:0|0:0,0:0:0:0:
128,148,188724,1,0,0:0:0:0:
384,236,188891,1,0,0:0:0:0:
129,240,189057,1,8,0:0:0:0:
382,143,189224,1,0,0:0:0:0:
190,310,189391,1,0,0:0:0:0:
321,73,189558,1,0,0:0:0:0:
281,324,189724,1,8,0:0:0:0:
230,59,189891,1,0,0:0:0:0:
256,192,190057,5,0,0:0:0:0:
256,192,190224,1,0,0:0:0:0:
256,192,190391,1,8,0:0:0:0:
256,192,190557,1,0,0:0:0:0:
256,192,190724,12,4,193057,0:0:0:0:
256,192,193391,5,4,0:0:0:0:
124,124,193557,1,0,0:0:0:0:
124,124,193724,1,8,0:0:0:0:
124,304,193891,1,0,0:0:0:0:
124,304,193974,1,0,0:0:0:0:
124,304,194057,2,0,B|112:228|112:228|48:184,1,125
88,20,194391,1,8,0:0:0:0:
40,92,194557,1,0,0:0:0:0:
40,92,194641,1,0,0:0:0:0:
40,92,194724,6,0,P|96:104|168:56,1,125
220,112,194974,1,0,0:0:0:0:
272,56,195057,2,0,P|292:96|288:136,1,62.5,8|0,0:0|0:0,0:0:0:0:
368,132,195224,2,0,P|348:176|348:208,1,62.5
280,224,195391,2,0,P|316:256|392:248,1,125
468,124,195724,2,0,L|492:260,1,125,8|0,0:0|0:0,0:0:0:0:
372,340,196057,38,0,B|320:356|288:328|244:344,1,125
48,240,196391,6,0,P|36:192|112:244,1,187.500007152558,8|0,0:0|0:0,0:0:0:0:
130,204,196641,1,0,0:0:0:0:
130,204,196724,1,0,0:0:0:0:
244,300,196891,2,0,P|312:300|304:140,1,250
328,152,197307,1,0,0:0:0:0:
328,152,197391,1,0,0:0:0:0:
428,48,197557,2,0,L|412:316,1,250
344,328,197974,1,0,0:0:0:0:
276,296,198057,2,0,P|232:312|208:332,1,62.5
148,296,198224,2,0,P|136:340|144:368,1,62.5
80,260,198391,2,0,P|104:220|104:136,1,125,8|0,0:0|0:0,0:0:0:0:
72,76,198641,1,0,0:0:0:0:
72,76,198724,38,0,P|104:104|208:104,1,125
236,60,198974,1,0,0:0:0:0:
236,60,199057,2,0,P|264:104|264:136,1,62.5,8|0,0:0|0:0,0:0:0:0:
232,180,199224,2,0,P|276:188|312:176,1,62.5
348,132,199391,2,0,P|372:188|336:248,1,125
216,320,199724,1,8,0:0:0:0:
364,332,199891,1,0,0:0:0:0:
364,332,199974,1,0,0:0:0:0:
364,332,200057,1,0,0:0:0:0:
220,292,200224,1,0,0:0:0:0:
76,332,200391,5,8,0:0:0:0:
148,248,200557,1,0,0:0:0:0:
80,156,200724,1,0,0:0:0:0:
152,68,200891,1,0,0:0:0:0:
152,68,200974,1,0,0:0:0:0:
152,68,201057,2,0,P|208:80|284:64,1,125,8|0,0:0|0:0,0:0:0:0:
280,144,201307,1,0,0:0:0:0:
280,144,201391,2,0,P|340:144|352:256,1,187.5
300,300,201724,38,0,P|352:288|444:320,1,125,8|0,0:0|0:0,0:0:0:0:
420,304,201974,1,0,0:0:0:0:
420,304,202057,1,0,0:0:0:0:
208,232,202224,1,0,0:0:0:0:
272,324,202391,5,8,0:0:0:0:
116,164,202557,1,0,0:0:0:0:
36,292,202724,2,0,L|56:360,1,62.5
132,224,202891,2,0,L|112:156,1,62.5
40,152,203057,2,0,P|104:148|204:72,1,187.5,8|0,0:0|0:0,0:0:0:0:
272,100,203391,2,0,P|276:64|276:56,14,31.25,0|0|0|0|0|0|0|0|8|0|0|0|0|0|0,0:0|0:0|0:0|0:0|0:0|0:0|0:0|0:0|0:0|0:0|0:0|0:0|0:0|0:0|0:0,0:0:0:0:
228,160,204057,38,0,P|276:144|368:160,1,125
408,200,204307,1,0,0:0:0:0:
480,180,204391,2,0,P|476:228|456:256,1,62.5,8|0,0:0|0:0,0:0:0:0:
460,316,204557,2,0,P|424:300|392:296,1,62.5
336,336,204724,1,0,0:0:0:0:
276,292,204891,2,0,P|220:308|144:292,1,125,0|8,0:0|0:0,0:0:0:0:
155,297,205224,1,0,0:0:0:0:
76,168,205391,6,0,L|56:296,1,125
56,291,205641,1,0,0:0:0:0:
56,291,205724,1,8,0:0:0:0:
168,192,205891,1,0,0:0:0:0:
112,52,206057,1,0,0:0:0:0:
40,184,206224,2,0,L|56:120,1,62.5
112,52,206391,2,0,P|160:80|252:64,1,125,8|0,0:0|0:0,0:0:0:0:
296,44,206641,1,0,0:0:0:0:
296,44,206724,6,0,P|304:112|300:128,1,62.5
380,88,206891,2,0,P|376:136|380:172,1,62.5
448,176,207057,2,0,P|444:220|436:244,1,62.5,8|0,0:0|0:0,0:0:0:0:
500,284,207224,2,0,P|464:320|432:328,1,62.5
380,304,207391,22,0,P|336:292|264:328,1,125
196,348,207641,1,0,0:0:0:0:
120,348,207724,2,0,P|76:324|60:300,1,62.5,8|0,0:0|0:0,0:0:0:0:
128,256,207891,1,0,0:0:0:0:
144,224,207974,1,0,0:0:0:0:
160,188,208057,2,0,P|156:144|180:64,1,125
178,67,208307,1,0,0:0:0:0:
178,67,208391,1,8,0:0:0:0:
308,140,208557,1,0,0:0:0:0:
436,60,208724,5,0,0:0:0:0:
436,60,208807,1,0,0:0:0:0:
436,60,208891,1,0,0:0:0:0:
436,60,208974,1,0,0:0:0:0:
436,60,209057,2,0,L|464:192,1,125,8|0,0:0|0:0,0:0:0:0:
340,268,209391,38,0,B|380:252|380:252|408:272|464:292,1,125
320,220,209724,2,8,P|260:240|188:220,1,125,8|0,0:0|0:0,0:0:0:0:
140,184,209974,1,0,0:0:0:0:
72,212,210057,2,0,P|64:168|76:144,1,62.5
12,104,210224,2,0,P|56:80|128:104,1,125,0|8,0:0|0:0,0:0:0:0:
308,40,210557,1,0,0:0:0:0:
308,40,210641,1,0,0:0:0:0:
308,40,210724,6,0,B|312:88|312:88|352:128|352:160,1,125
276,168,210974,1,0,0:0:0:0:
276,168,211057,2,0,P|300:216|320:232,1,62.5,8|0,0:0|0:0,0:0:0:0:
304,296,211224,2,0,P|344:284|372:260,1,62.5
420,320,211391,2,0,P|436:280|392:200,1,125
184,252,211724,2,0,P|168:292|212:372,1,125,8|0,0:0|0:0,0:0:0:0:
204,136,212057,6,0,L|64:152,1,125
256,192,212307,12,4,213224,0:0:0:0:
332,276,213391,22,0,B|308:280|288:264|288:264|244:284|244:284|164:232|96:276,1,250
98,274,214391,1,0,0:0:0:0:
