osu file format v13

[General]
AudioFilename: Reol.mp3
AudioLeadIn: 0
PreviewTime: 56000
Countdown: 0
SampleSet: Normal
StackLeniency: 0.7
Mode: 1
LetterboxInBreaks: 0
WidescreenStoryboard: 1

[Editor]
Bookmarks: 156057
DistanceSpacing: 1.1
BeatDivisor: 4
GridSize: 32
TimelineZoom: 0.8999989

[Metadata]
Title:+Danshi
TitleUnicode:+Danshi
Artist:Reol
ArtistUnicode:れをる
Creator:lZenxl
Version:neonat's Muzukashii
Source:
Tags:GigaP neonat Tagre Plus Boy Hinsvar Fort Papcio [I]MMoRTal[S] mike91lau Player_X Soldsaga_KunG Okoratu
BeatmapID:450018
BeatmapSetID:165991

[Difficulty]
HPDrainRate:4
CircleSize:5
OverallDifficulty:4
ApproachRate:5
SliderMultiplier:1.4
SliderTickRate:1

[Events]
//Background and Video events
0,0,"BG.png",0,0
//Break Periods
2,46924,53524
//Storyboard Layer 0 (Background)
//Storyboard Layer 1 (Fail)
//Storyboard Layer 2 (Pass)
//Storyboard Layer 3 (Foreground)
//Storyboard Sound Samples
//Background Colour Transformations
3,100,163,162,255

[TimingPoints]
12058,333.333333333333,4,1,1,70,1,0
57391,-100,4,1,1,80,0,1
67391,-100,4,1,1,80,0,0
68057,-100,4,1,1,80,0,1
78724,-100,4,1,1,80,0,0
80724,-100,4,1,1,60,0,0
81391,-100,4,1,1,80,0,0
102724,-100,4,1,1,60,0,0
112807,-100,4,1,1,60,0,0
113391,-100,4,1,1,80,0,1
123391,-100,4,1,1,80,0,0
124057,-100,4,1,1,80,0,1
134724,-100,4,1,1,60,0,0
145391,-100,4,1,1,100,0,1
145412,-100,4,1,1,80,0,0
166724,-100,4,1,1,30,0,0
169391,-100,4,1,1,80,0,1
179391,-100,4,1,1,80,0,0
180057,-100,4,1,1,80,0,1
190724,-100,4,1,1,80,0,0
193057,-100,4,1,1,80,0,0

[Colours]
Combo1 : 0,128,255
Combo2 : 255,0,0

[HitObjects]
256,192,13391,5,8,0:0:0:0:
256,192,13724,1,8,0:0:0:0:
256,192,14058,1,8,0:0:0:0:
256,192,14224,1,8,0:0:0:0:
256,192,14391,1,4,0:0:0:0:
256,192,14724,1,8,0:0:0:0:
256,192,15058,1,8,0:0:0:0:
256,192,15224,1,0,0:0:0:0:
256,192,15391,1,0,0:0:0:0:
256,192,15558,1,8,0:0:0:0:
256,192,15891,1,8,0:0:0:0:
256,192,16058,1,0,0:0:0:0:
256,192,16224,1,0,0:0:0:0:
256,192,16391,1,8,0:0:0:0:
256,192,16724,1,0,0:0:0:0:
256,192,16891,1,8,0:0:0:0:
256,192,17058,1,0,0:0:0:0:
256,192,17224,1,8,0:0:0:0:
256,192,17391,1,0,0:0:0:0:
256,192,17724,1,8,0:0:0:0:
256,192,18058,1,0,0:0:0:0:
256,192,18141,1,0,0:0:0:0:
256,192,18224,1,0,0:0:0:0:
256,192,18391,1,8,0:0:0:0:
256,192,18558,1,0,0:0:0:0:
256,192,18641,1,0,0:0:0:0:
256,192,18724,1,0,0:0:0:0:
256,192,18891,1,0,0:0:0:0:
256,192,19058,1,8,0:0:0:0:
256,192,19391,1,0,0:0:0:0:
256,192,19558,1,8,0:0:0:0:
256,192,19724,1,8,0:0:0:0:
256,192,19891,1,0,0:0:0:0:
256,192,20058,1,0,0:0:0:0:
256,192,20224,1,8,0:0:0:0:
256,192,20391,1,0,0:0:0:0:
256,192,20724,1,0,0:0:0:0:
256,192,20891,1,8,0:0:0:0:
256,192,21224,1,8,0:0:0:0:
256,192,21391,1,0,0:0:0:0:
256,192,21558,1,0,0:0:0:0:
256,192,21724,1,8,0:0:0:0:
256,192,21891,1,0,0:0:0:0:
256,192,22058,1,8,0:0:0:0:
256,192,22224,1,8,0:0:0:0:
256,192,22391,1,0,0:0:0:0:
256,192,22558,1,0,0:0:0:0:
256,192,22724,1,0,0:0:0:0:
256,192,23057,1,8,0:0:0:0:
256,192,23391,1,0,0:0:0:0:
256,192,23557,1,8,0:0:0:0:
256,192,23724,1,0,0:0:0:0:
256,192,23807,1,0,0:0:0:0:
256,192,23891,1,0,0:0:0:0:
256,192,23974,1,0,0:0:0:0:
256,192,24057,1,0,0:0:0:0:
256,192,25391,1,4,0:0:0:0:
256,192,25557,1,0,0:0:0:0:
256,192,25724,1,8,0:0:0:0:
256,192,26057,1,0,0:0:0:0:
256,192,26224,1,8,0:0:0:0:
256,192,26391,1,0,0:0:0:0:
256,192,26557,1,0,0:0:0:0:
256,192,26724,1,0,0:0:0:0:
256,192,27057,1,0,0:0:0:0:
256,192,27224,1,8,0:0:0:0:
256,192,27391,1,0,0:0:0:0:
256,192,27557,1,0,0:0:0:0:
256,192,27724,1,8,0:0:0:0:
256,192,28057,1,8,0:0:0:0:
256,192,28224,1,0,0:0:0:0:
256,192,28391,1,8,0:0:0:0:
256,192,28557,1,0,0:0:0:0:
256,192,28724,1,0,0:0:0:0:
256,192,29057,1,8,0:0:0:0:
256,192,29224,1,0,0:0:0:0:
256,192,29391,1,8,0:0:0:0:
256,192,29557,1,8,0:0:0:0:
256,192,29724,1,8,0:0:0:0:
256,192,30057,1,8,0:0:0:0:
224,192,30224,1,0,0:0:0:0:
256,192,30391,1,0,0:0:0:0:
256,192,30724,1,0,0:0:0:0:
256,192,30807,1,0,0:0:0:0:
256,192,30891,1,0,0:0:0:0:
256,192,31057,1,0,0:0:0:0:
256,192,31391,1,0,0:0:0:0:
256,192,31557,1,8,0:0:0:0:
256,192,31724,1,0,0:0:0:0:
256,192,31891,1,0,0:0:0:0:
256,192,32057,1,0,0:0:0:0:
256,192,32224,1,8,0:0:0:0:
256,192,32391,1,0,0:0:0:0:
288,192,32724,1,0,0:0:0:0:
256,192,32891,1,8,0:0:0:0:
256,192,33057,1,0,0:0:0:0:
256,192,33224,1,8,0:0:0:0:
256,192,33391,1,0,0:0:0:0:
256,192,33557,1,8,0:0:0:0:
256,192,33724,1,0,0:0:0:0:
256,192,33891,1,8,0:0:0:0:
256,192,34057,1,0,0:0:0:0:
256,192,34224,1,8,0:0:0:0:
256,192,34391,1,0,0:0:0:0:
256,192,34724,1,8,0:0:0:0:
256,192,34891,1,0,0:0:0:0:
256,192,35057,1,0,0:0:0:0:
256,192,35391,1,0,0:0:0:0:
256,192,35557,1,8,0:0:0:0:
256,192,35641,1,8,0:0:0:0:
256,192,35724,1,8,0:0:0:0:
256,192,35891,1,0,0:0:0:0:
256,192,36057,1,0,0:0:0:0:
256,192,36391,1,0,0:0:0:0:
256,192,36557,1,8,0:0:0:0:
256,192,36724,1,8,0:0:0:0:
256,192,36891,1,0,0:0:0:0:
256,192,37057,1,0,0:0:0:0:
256,192,37391,1,8,0:0:0:0:
256,192,37557,1,0,0:0:0:0:
256,192,37724,1,8,0:0:0:0:
256,192,37891,1,0,0:0:0:0:
256,192,38057,1,8,0:0:0:0:
256,192,38224,1,0,0:0:0:0:
256,192,38391,1,0,0:0:0:0:
256,192,38724,1,8,0:0:0:0:
256,192,38891,1,8,0:0:0:0:
256,192,39057,1,0,0:0:0:0:
256,192,39224,1,0,0:0:0:0:
256,192,39391,1,0,0:0:0:0:
256,192,39724,1,0,0:0:0:0:
256,192,40057,1,0,0:0:0:0:
256,192,40141,1,8,0:0:0:0:
256,192,40307,1,8,0:0:0:0:
256,192,40391,1,0,0:0:0:0:
256,192,40557,1,8,0:0:0:0:
256,192,40724,1,0,0:0:0:0:
256,192,40891,1,8,0:0:0:0:
256,192,41057,1,0,0:0:0:0:
256,192,41391,1,0,0:0:0:0:
256,192,41557,1,8,0:0:0:0:
256,192,41891,1,8,0:0:0:0:
256,192,42057,1,0,0:0:0:0:
256,192,42224,1,0,0:0:0:0:
256,192,42391,1,8,0:0:0:0:
256,192,42557,1,0,0:0:0:0:
256,192,42724,1,8,0:0:0:0:
256,192,42974,1,8,0:0:0:0:
256,192,43057,1,0,0:0:0:0:
256,192,43224,1,0,0:0:0:0:
256,192,43391,1,0,0:0:0:0:
256,192,43724,1,8,0:0:0:0:
288,192,43891,1,0,0:0:0:0:
288,192,44057,1,8,0:0:0:0:
256,192,44391,1,0,0:0:0:0:
256,192,44724,1,0,0:0:0:0:
256,192,44891,1,8,0:0:0:0:
256,192,45057,1,8,0:0:0:0:
256,192,45141,1,8,0:0:0:0:
256,192,45224,1,8,0:0:0:0:
256,192,45391,1,0,0:0:0:0:
256,192,45557,1,0,0:0:0:0:
256,192,45724,1,8,0:0:0:0:
256,192,46057,1,0,0:0:0:0:
256,192,46141,1,0,0:0:0:0:
256,192,46224,1,0,0:0:0:0:
256,192,46391,1,0,0:0:0:0:
256,192,46557,1,8,0:0:0:0:
256,192,46641,1,8,0:0:0:0:
256,192,46724,1,8,0:0:0:0:
256,192,54724,12,0,56057,0:0:0:0:
256,192,56891,5,8,0:0:0:0:
256,192,57057,1,8,0:0:0:0:
256,192,57224,1,8,0:0:0:0:
256,192,57391,1,12,0:0:0:0:
256,192,57724,1,0,0:0:0:0:
256,192,57891,1,0,0:0:0:0:
256,192,58057,1,8,0:0:0:0:
256,192,58307,1,8,0:0:0:0:
256,192,58391,1,0,0:0:0:0:
224,192,58557,1,0,0:0:0:0:
224,192,58724,1,8,0:0:0:0:
256,192,58974,1,8,0:0:0:0:
256,192,59057,1,0,0:0:0:0:
256,192,59224,1,8,0:0:0:0:
256,192,59391,1,0,0:0:0:0:
256,192,59557,1,8,0:0:0:0:
256,192,59724,1,0,0:0:0:0:
256,192,60057,1,0,0:0:0:0:
256,192,60224,1,0,0:0:0:0:
256,192,60391,1,8,0:0:0:0:
256,192,60474,1,8,0:0:0:0:
256,192,60557,1,8,0:0:0:0:
256,192,60724,1,8,0:0:0:0:
256,192,60891,1,0,0:0:0:0:
256,192,61057,1,8,0:0:0:0:
256,192,61224,1,0,0:0:0:0:
224,192,61557,1,0,0:0:0:0:
224,192,61724,1,8,0:0:0:0:
256,192,62057,1,8,0:0:0:0:
256,192,62224,1,0,0:0:0:0:
256,192,62391,1,8,0:0:0:0:
224,192,62724,1,0,0:0:0:0:
224,192,62891,1,8,0:0:0:0:
256,192,63057,1,0,0:0:0:0:
256,192,63224,1,8,0:0:0:0:
224,224,63391,1,0,0:0:0:0:
224,192,63557,1,8,0:0:0:0:
224,192,63724,1,0,0:0:0:0:
224,192,63891,1,8,0:0:0:0:
224,192,64057,1,0,0:0:0:0:
224,192,64224,1,8,0:0:0:0:
224,192,64557,1,0,0:0:0:0:
224,192,64891,1,0,0:0:0:0:
224,192,65057,1,8,0:0:0:0:
224,192,65224,1,0,0:0:0:0:
224,192,65391,1,8,0:0:0:0:
192,192,65557,1,0,0:0:0:0:
192,192,65724,1,0,0:0:0:0:
224,192,65891,1,8,0:0:0:0:
224,224,66057,1,0,0:0:0:0:
224,192,66224,1,0,0:0:0:0:
224,192,66391,1,8,0:0:0:0:
192,192,66557,1,0,0:0:0:0:
192,192,66724,1,0,0:0:0:0:
192,192,66891,1,8,0:0:0:0:
224,192,67057,1,0,0:0:0:0:
224,192,67224,1,0,0:0:0:0:
192,192,67391,1,0,0:0:0:0:
192,192,67724,1,0,0:0:0:0:
224,192,68057,1,12,0:0:0:0:
224,192,68391,1,0,0:0:0:0:
224,192,68557,1,8,0:0:0:0:
256,192,68891,1,0,0:0:0:0:
256,192,69057,1,0,0:0:0:0:
256,192,69224,1,0,0:0:0:0:
256,192,69391,1,8,0:0:0:0:
256,192,69724,1,0,0:0:0:0:
256,192,69891,1,8,0:0:0:0:
256,192,70224,1,8,0:0:0:0:
256,192,70391,1,8,0:0:0:0:
256,192,70557,1,0,0:0:0:0:
256,192,70724,1,8,0:0:0:0:
256,192,71057,1,0,0:0:0:0:
256,192,71224,1,8,0:0:0:0:
256,192,71557,1,0,0:0:0:0:
256,192,71724,1,8,0:0:0:0:
256,192,71891,1,8,0:0:0:0:
256,192,72057,1,0,0:0:0:0:
256,192,72224,1,0,0:0:0:0:
256,192,72391,1,8,0:0:0:0:
256,192,72724,1,0,0:0:0:0:
256,192,72891,1,8,0:0:0:0:
256,192,73057,1,0,0:0:0:0:
256,192,73391,1,12,0:0:0:0:
256,192,73724,1,0,0:0:0:0:
256,192,73891,1,0,0:0:0:0:
256,192,74057,1,8,0:0:0:0:
256,192,74391,1,0,0:0:0:0:
256,192,74557,1,0,0:0:0:0:
256,192,74724,1,8,0:0:0:0:
256,192,74974,1,0,0:0:0:0:
256,192,75057,1,0,0:0:0:0:
256,192,75224,1,0,0:0:0:0:
256,192,75391,1,8,0:0:0:0:
256,192,75557,1,0,0:0:0:0:
256,192,75724,1,8,0:0:0:0:
256,192,76057,1,0,0:0:0:0:
256,192,76224,1,8,0:0:0:0:
256,192,76391,1,0,0:0:0:0:
256,192,76557,1,8,0:0:0:0:
256,192,76724,1,8,0:0:0:0:
256,192,76891,1,0,0:0:0:0:
256,192,77057,1,8,0:0:0:0:
288,192,77224,1,0,0:0:0:0:
256,192,77391,1,0,0:0:0:0:
256,192,77724,1,8,0:0:0:0:
256,192,78057,1,8,0:0:0:0:
256,192,78224,1,0,0:0:0:0:
256,192,78391,1,8,0:0:0:0:
256,192,78557,1,0,0:0:0:0:
256,192,78724,1,0,0:0:0:0:
256,192,80891,1,0,0:0:0:0:
256,192,81057,1,0,0:0:0:0:
256,192,81224,1,0,0:0:0:0:
256,192,81391,1,4,0:0:0:0:
256,192,81557,1,8,0:0:0:0:
256,192,81724,1,0,0:0:0:0:
256,192,82057,1,8,0:0:0:0:
256,192,82141,1,8,0:0:0:0:
256,192,82224,1,8,0:0:0:0:
256,192,82391,1,0,0:0:0:0:
256,192,82474,1,0,0:0:0:0:
256,192,82557,1,0,0:0:0:0:
256,192,82724,1,8,0:0:0:0:
256,192,83057,1,8,0:0:0:0:
256,192,83224,1,0,0:0:0:0:
256,192,83391,1,0,0:0:0:0:
256,192,83724,1,8,0:0:0:0:
256,192,84057,1,0,0:0:0:0:
256,192,84141,1,0,0:0:0:0:
256,192,84224,1,0,0:0:0:0:
288,192,84391,1,8,0:0:0:0:
256,192,84557,1,0,0:0:0:0:
256,192,84724,1,8,0:0:0:0:
256,192,84807,1,8,0:0:0:0:
256,192,84891,1,8,0:0:0:0:
256,192,85057,1,0,0:0:0:0:
256,192,85224,1,0,0:0:0:0:
256,192,85391,1,0,0:0:0:0:
256,192,85474,1,0,0:0:0:0:
256,192,85557,1,0,0:0:0:0:
256,192,85641,1,0,0:0:0:0:
256,192,85724,1,0,0:0:0:0:
256,192,86057,1,8,0:0:0:0:
256,192,86224,1,0,0:0:0:0:
256,192,86391,1,0,0:0:0:0:
256,192,86724,1,8,0:0:0:0:
256,192,86891,1,0,0:0:0:0:
256,192,87057,1,0,0:0:0:0:
256,192,87224,1,0,0:0:0:0:
256,192,87391,1,0,0:0:0:0:
256,192,87724,1,0,0:0:0:0:
256,192,87891,1,8,0:0:0:0:
256,192,88057,1,0,0:0:0:0:
256,192,88224,1,0,0:0:0:0:
256,192,88391,1,0,0:0:0:0:
256,192,88724,1,0,0:0:0:0:
256,192,88891,1,8,0:0:0:0:
256,192,88974,1,8,0:0:0:0:
256,192,89057,1,8,0:0:0:0:
288,192,89224,1,0,0:0:0:0:
256,192,89391,1,8,0:0:0:0:
256,192,89724,1,0,0:0:0:0:
256,192,90057,1,0,0:0:0:0:
256,192,90224,1,8,0:0:0:0:
256,192,90391,1,0,0:0:0:0:
256,192,90474,1,0,0:0:0:0:
256,192,90557,1,0,0:0:0:0:
256,192,90724,1,0,0:0:0:0:
256,192,90891,1,8,0:0:0:0:
256,192,91057,1,0,0:0:0:0:
256,192,91224,1,8,0:0:0:0:
256,192,91391,1,8,0:0:0:0:
256,192,91724,1,0,0:0:0:0:
256,192,91807,1,0,0:0:0:0:
256,192,91891,1,0,0:0:0:0:
256,192,92057,1,8,0:0:0:0:
256,192,92224,1,0,0:0:0:0:
256,192,92391,1,0,0:0:0:0:
224,192,92557,1,0,0:0:0:0:
256,192,92724,1,0,0:0:0:0:
256,192,93057,1,0,0:0:0:0:
224,192,93224,1,0,0:0:0:0:
224,192,93391,1,0,0:0:0:0:
224,192,93474,1,0,0:0:0:0:
224,192,93557,1,0,0:0:0:0:
192,192,93641,1,0,0:0:0:0:
192,192,93724,1,0,0:0:0:0:
192,192,93891,1,0,0:0:0:0:
192,192,94057,1,0,0:0:0:0:
224,192,94391,1,8,0:0:0:0:
224,192,94557,1,8,0:0:0:0:
224,192,94724,1,0,0:0:0:0:
224,192,94891,1,8,0:0:0:0:
192,192,95057,1,0,0:0:0:0:
192,192,95224,1,0,0:0:0:0:
192,192,95391,1,0,0:0:0:0:
192,192,95557,1,8,0:0:0:0:
224,192,95724,1,0,0:0:0:0:
224,192,96057,1,0,0:0:0:0:
224,192,96224,1,0,0:0:0:0:
224,192,96391,1,8,0:0:0:0:
192,192,96724,1,0,0:0:0:0:
192,192,96891,1,8,0:0:0:0:
192,192,97057,1,8,0:0:0:0:
224,192,97391,1,8,0:0:0:0:
192,192,97557,1,8,0:0:0:0:
160,192,97724,1,0,0:0:0:0:
192,192,98057,1,0,0:0:0:0:
192,192,98224,1,8,0:0:0:0:
192,192,98391,1,8,0:0:0:0:
192,192,98557,1,0,0:0:0:0:
192,192,98724,1,8,0:0:0:0:
192,192,98891,1,0,0:0:0:0:
192,192,98974,1,0,0:0:0:0:
192,192,99057,1,0,0:0:0:0:
192,192,99391,1,0,0:0:0:0:
192,192,99557,1,8,0:0:0:0:
192,192,99724,1,8,0:0:0:0:
192,192,99891,1,0,0:0:0:0:
192,224,100057,1,0,0:0:0:0:
192,192,100141,1,0,0:0:0:0:
192,192,100224,1,0,0:0:0:0:
192,192,100391,1,8,0:0:0:0:
224,192,100557,1,8,0:0:0:0:
192,192,100724,1,0,0:0:0:0:
192,192,100891,1,0,0:0:0:0:
192,192,101057,1,8,0:0:0:0:
192,192,101224,1,0,0:0:0:0:
192,192,101391,1,8,0:0:0:0:
192,192,101724,1,8,0:0:0:0:
192,192,102057,1,0,0:0:0:0:
192,192,102391,1,0,0:0:0:0:
192,192,102724,1,12,0:0:0:0:
192,192,103057,1,0,0:0:0:0:
192,192,103391,1,0,0:0:0:0:
192,192,103724,1,8,0:0:0:0:
192,192,103974,1,0,0:0:0:0:
192,192,104057,1,0,0:0:0:0:
192,192,104391,1,0,0:0:0:0:
192,192,104724,1,8,0:0:0:0:
192,192,105057,1,0,0:0:0:0:
192,192,105307,1,0,0:0:0:0:
192,192,105391,1,0,0:0:0:0:
192,192,105724,1,0,0:0:0:0:
192,192,106057,1,0,0:0:0:0:
192,192,106391,1,8,0:0:0:0:
192,192,106641,1,0,0:0:0:0:
192,192,106724,1,0,0:0:0:0:
192,192,107057,1,0,0:0:0:0:
192,192,107391,1,8,0:0:0:0:
192,192,107724,1,0,0:0:0:0:
192,192,108057,1,12,0:0:0:0:
192,192,108391,1,0,0:0:0:0:
192,192,108724,1,0,0:0:0:0:
192,192,109057,1,8,0:0:0:0:
192,192,109391,1,0,0:0:0:0:
192,192,109641,1,0,0:0:0:0:
192,192,109724,1,0,0:0:0:0:
192,192,110057,1,8,0:0:0:0:
192,192,110391,1,8,0:0:0:0:
192,192,110641,1,8,0:0:0:0:
192,192,110724,1,0,0:0:0:0:
192,192,111057,1,0,0:0:0:0:
192,192,111391,1,8,0:0:0:0:
192,192,111724,1,8,0:0:0:0:
192,192,111974,1,0,0:0:0:0:
192,192,112057,1,0,0:0:0:0:
224,192,112724,1,0,0:0:0:0:
224,192,113391,1,12,0:0:0:0:
192,192,113724,1,0,0:0:0:0:
192,192,113891,1,0,0:0:0:0:
192,192,114057,1,8,0:0:0:0:
256,192,114307,1,0,0:0:0:0:
256,192,114391,1,8,0:0:0:0:
256,192,114557,1,0,0:0:0:0:
256,192,114724,1,8,0:0:0:0:
256,192,114974,1,0,0:0:0:0:
256,192,115057,1,8,0:0:0:0:
256,192,115224,1,0,0:0:0:0:
256,192,115391,1,8,0:0:0:0:
288,192,115557,1,0,0:0:0:0:
256,192,115724,1,8,0:0:0:0:
256,192,115891,1,0,0:0:0:0:
256,192,116057,1,0,0:0:0:0:
256,192,116391,1,8,0:0:0:0:
256,192,116474,1,8,0:0:0:0:
256,192,116557,1,8,0:0:0:0:
256,192,116724,1,0,0:0:0:0:
256,192,116891,1,0,0:0:0:0:
256,192,117057,1,8,0:0:0:0:
256,192,117224,1,0,0:0:0:0:
256,192,117557,1,0,0:0:0:0:
256,192,117724,1,8,0:0:0:0:
256,192,117891,1,0,0:0:0:0:
256,192,118057,1,8,0:0:0:0:
256,192,118224,1,8,0:0:0:0:
256,192,118391,1,0,0:0:0:0:
256,192,118557,1,0,0:0:0:0:
256,192,118724,1,8,0:0:0:0:
288,192,118891,1,0,0:0:0:0:
256,192,119057,1,8,0:0:0:0:
256,192,119224,1,0,0:0:0:0:
256,192,119391,1,8,0:0:0:0:
256,192,119557,1,0,0:0:0:0:
256,192,119724,1,8,0:0:0:0:
256,192,119891,1,0,0:0:0:0:
256,192,120057,1,0,0:0:0:0:
256,192,120224,1,8,0:0:0:0:
256,192,120557,1,0,0:0:0:0:
256,192,120891,1,0,0:0:0:0:
256,192,121057,1,8,0:0:0:0:
256,192,121224,1,0,0:0:0:0:
256,192,121391,1,8,0:0:0:0:
256,192,121557,1,0,0:0:0:0:
256,192,121724,1,0,0:0:0:0:
256,192,121891,1,8,0:0:0:0:
256,192,122057,1,0,0:0:0:0:
256,192,122224,1,0,0:0:0:0:
256,192,122391,1,8,0:0:0:0:
256,192,122557,1,0,0:0:0:0:
256,192,122724,1,0,0:0:0:0:
256,192,122891,1,8,0:0:0:0:
256,192,123057,1,0,0:0:0:0:
256,192,123224,1,0,0:0:0:0:
256,192,123391,1,8,0:0:0:0:
256,192,123724,1,8,0:0:0:0:
256,192,124057,1,12,0:0:0:0:
256,192,124391,1,0,0:0:0:0:
256,192,124557,1,8,0:0:0:0:
256,192,124891,1,0,0:0:0:0:
256,192,125057,1,0,0:0:0:0:
256,192,125224,1,0,0:0:0:0:
256,192,125391,1,8,0:0:0:0:
256,224,125724,1,0,0:0:0:0:
256,192,125891,1,8,0:0:0:0:
256,192,126224,1,0,0:0:0:0:
256,192,126391,1,0,0:0:0:0:
256,192,126557,1,0,0:0:0:0:
256,192,126724,1,8,0:0:0:0:
256,192,127057,1,0,0:0:0:0:
256,192,127224,1,8,0:0:0:0:
256,192,127557,1,8,0:0:0:0:
256,192,127724,1,0,0:0:0:0:
256,192,127891,1,8,0:0:0:0:
256,192,128057,1,0,0:0:0:0:
256,192,128224,1,0,0:0:0:0:
256,192,128307,1,0,0:0:0:0:
256,192,128391,1,0,0:0:0:0:
288,192,128557,1,0,0:0:0:0:
256,192,128724,1,0,0:0:0:0:
256,192,128891,1,8,0:0:0:0:
256,192,129057,1,0,0:0:0:0:
256,192,129391,1,12,0:0:0:0:
256,192,129724,1,0,0:0:0:0:
256,192,129891,1,0,0:0:0:0:
256,192,130057,1,8,0:0:0:0:
256,192,130391,1,0,0:0:0:0:
256,192,130557,1,0,0:0:0:0:
256,192,130724,1,8,0:0:0:0:
256,192,130974,1,8,0:0:0:0:
256,192,131057,1,0,0:0:0:0:
256,192,131224,1,8,0:0:0:0:
256,192,131391,1,8,0:0:0:0:
256,192,131557,1,0,0:0:0:0:
256,192,131724,1,8,0:0:0:0:
256,192,132057,1,0,0:0:0:0:
256,192,132224,1,8,0:0:0:0:
256,192,132391,1,0,0:0:0:0:
256,192,132557,1,8,0:0:0:0:
256,192,132724,1,8,0:0:0:0:
256,192,132891,1,0,0:0:0:0:
288,192,133057,1,8,0:0:0:0:
256,192,133224,1,8,0:0:0:0:
256,192,133391,1,0,0:0:0:0:
256,192,133724,1,8,0:0:0:0:
224,192,134057,1,8,0:0:0:0:
256,224,134224,1,0,0:0:0:0:
256,192,134391,1,8,0:0:0:0:
256,192,134557,1,0,0:0:0:0:
256,192,134724,1,4,0:0:0:0:
256,192,135057,1,0,0:0:0:0:
256,192,135224,1,0,0:0:0:0:
256,192,135391,1,8,0:0:0:0:
256,192,135724,1,8,0:0:0:0:
256,192,135891,1,0,0:0:0:0:
256,192,136057,1,0,0:0:0:0:
256,192,136224,1,8,0:0:0:0:
256,192,136391,1,0,0:0:0:0:
256,192,136557,1,8,0:0:0:0:
256,192,136724,1,0,0:0:0:0:
256,192,136891,1,0,0:0:0:0:
256,192,137057,1,0,0:0:0:0:
256,192,137224,1,0,0:0:0:0:
256,192,137391,1,0,0:0:0:0:
256,192,137724,1,0,0:0:0:0:
256,192,137891,1,0,0:0:0:0:
256,192,138057,1,8,0:0:0:0:
256,192,138391,1,0,0:0:0:0:
256,192,138557,1,8,0:0:0:0:
256,192,138891,1,8,0:0:0:0:
256,192,139224,1,0,0:0:0:0:
256,192,139391,1,8,0:0:0:0:
256,192,139557,1,8,0:0:0:0:
256,192,139724,1,0,0:0:0:0:
256,192,139891,1,0,0:0:0:0:
256,192,140057,1,4,0:0:0:0:
256,192,140391,1,0,0:0:0:0:
256,192,140557,1,0,0:0:0:0:
256,192,140724,1,8,0:0:0:0:
256,192,141057,1,8,0:0:0:0:
256,192,141224,1,0,0:0:0:0:
256,192,141391,1,0,0:0:0:0:
256,192,141557,1,8,0:0:0:0:
256,192,141724,1,0,0:0:0:0:
256,192,141891,1,8,0:0:0:0:
256,192,142057,1,0,0:0:0:0:
256,192,142224,1,0,0:0:0:0:
256,192,142391,1,0,0:0:0:0:
256,192,142557,1,0,0:0:0:0:
256,192,142724,1,0,0:0:0:0:
256,192,143057,1,0,0:0:0:0:
256,192,143224,1,0,0:0:0:0:
256,192,143391,1,8,0:0:0:0:
256,192,143724,1,8,0:0:0:0:
256,192,143891,1,0,0:0:0:0:
256,192,144057,1,0,0:0:0:0:
256,192,144224,1,8,0:0:0:0:
256,192,144391,1,0,0:0:0:0:
256,192,144557,1,8,0:0:0:0:
256,192,144724,2,0,L|416:192,1,140
256,192,145391,1,4,0:0:0:0:
224,192,145724,1,8,0:0:0:0:
256,192,146057,1,8,0:0:0:0:
288,192,146224,1,0,0:0:0:0:
256,192,146391,1,8,0:0:0:0:
256,224,146557,1,0,0:0:0:0:
256,192,146724,1,0,0:0:0:0:
256,192,147057,1,8,0:0:0:0:
256,192,147391,1,0,0:0:0:0:
256,192,147724,1,8,0:0:0:0:
256,192,147891,1,0,0:0:0:0:
256,192,148057,1,0,0:0:0:0:
256,192,148391,1,8,0:0:0:0:
256,192,148724,1,8,0:0:0:0:
256,192,148891,1,0,0:0:0:0:
256,192,149057,1,8,0:0:0:0:
256,192,149224,1,0,0:0:0:0:
256,192,149391,1,0,0:0:0:0:
256,192,149724,1,8,0:0:0:0:
256,192,150057,1,0,0:0:0:0:
256,192,150391,1,0,0:0:0:0:
256,192,150557,1,0,0:0:0:0:
256,192,150724,1,0,0:0:0:0:
256,192,151057,1,8,0:0:0:0:
256,192,151391,1,8,0:0:0:0:
256,192,151557,1,0,0:0:0:0:
256,192,151724,1,8,0:0:0:0:
256,192,151891,1,0,0:0:0:0:
256,192,152057,1,0,0:0:0:0:
288,192,152391,1,8,0:0:0:0:
256,192,152724,1,0,0:0:0:0:
256,192,153057,1,8,0:0:0:0:
224,192,153391,1,0,0:0:0:0:
224,192,153724,1,8,0:0:0:0:
224,192,154057,1,8,0:0:0:0:
224,192,154224,1,0,0:0:0:0:
224,192,154391,1,8,0:0:0:0:
224,192,154724,1,0,0:0:0:0:
224,192,154891,1,0,0:0:0:0:
224,192,155057,1,0,0:0:0:0:
224,192,155224,1,0,0:0:0:0:
224,192,155391,1,8,0:0:0:0:
224,192,155557,1,0,0:0:0:0:
224,192,155724,1,8,0:0:0:0:
224,192,156057,1,4,0:0:0:0:
224,192,156391,1,8,0:0:0:0:
224,192,156474,1,8,0:0:0:0:
224,192,156557,1,8,0:0:0:0:
224,192,156641,1,8,0:0:0:0:
224,192,156724,1,8,0:0:0:0:
224,192,157057,1,8,0:0:0:0:
224,192,157224,1,0,0:0:0:0:
224,192,157391,1,0,0:0:0:0:
224,192,157557,1,8,0:0:0:0:
224,192,157724,1,0,0:0:0:0:
224,192,157891,1,0,0:0:0:0:
224,192,158057,1,8,0:0:0:0:
224,192,158391,1,8,0:0:0:0:
224,192,158724,1,0,0:0:0:0:
224,192,158891,1,0,0:0:0:0:
224,192,159057,1,8,0:0:0:0:
224,192,159391,1,8,0:0:0:0:
224,192,159557,1,0,0:0:0:0:
224,192,159724,1,0,0:0:0:0:
224,192,160057,1,0,0:0:0:0:
224,192,160224,1,0,0:0:0:0:
224,192,160391,1,8,0:0:0:0:
224,192,160557,1,0,0:0:0:0:
224,192,160724,1,8,0:0:0:0:
224,192,161057,1,0,0:0:0:0:
256,192,161391,1,8,0:0:0:0:
224,192,161557,1,0,0:0:0:0:
224,192,161724,1,8,0:0:0:0:
224,192,161891,1,8,0:0:0:0:
224,192,162057,1,8,0:0:0:0:
224,192,162391,1,0,0:0:0:0:
224,192,162557,1,0,0:0:0:0:
224,192,162724,1,0,0:0:0:0:
224,192,162891,1,8,0:0:0:0:
224,192,163057,1,0,0:0:0:0:
224,192,163224,1,8,0:0:0:0:
224,192,163391,1,0,0:0:0:0:
224,192,163557,1,8,0:0:0:0:
224,192,163724,1,8,0:0:0:0:
224,192,164057,1,0,0:0:0:0:
224,192,164224,1,0,0:0:0:0:
224,192,164391,1,8,0:0:0:0:
224,192,164724,1,0,0:0:0:0:
224,192,164891,1,8,0:0:0:0:
224,192,165057,1,0,0:0:0:0:
224,192,165391,1,0,0:0:0:0:
224,192,165557,1,8,0:0:0:0:
224,192,165724,1,0,0:0:0:0:
224,192,165891,1,8,0:0:0:0:
224,192,166057,1,8,0:0:0:0:
224,192,166224,1,0,0:0:0:0:
224,192,166391,1,8,0:0:0:0:
224,192,166724,1,0,0:0:0:0:
256,192,169391,1,12,0:0:0:0:
256,192,169724,1,0,0:0:0:0:
256,192,169891,1,0,0:0:0:0:
256,192,170057,1,8,0:0:0:0:
256,192,170307,1,0,0:0:0:0:
256,192,170391,1,8,0:0:0:0:
256,192,170557,1,0,0:0:0:0:
256,192,170724,1,8,0:0:0:0:
256,192,170974,1,8,0:0:0:0:
256,192,171057,1,0,0:0:0:0:
256,192,171224,1,8,0:0:0:0:
256,192,171391,1,8,0:0:0:0:
256,192,171557,1,0,0:0:0:0:
256,192,171724,1,8,0:0:0:0:
256,192,171891,1,0,0:0:0:0:
256,192,172057,1,0,0:0:0:0:
256,192,172141,1,0,0:0:0:0:
256,192,172224,1,0,0:0:0:0:
256,192,172391,1,8,0:0:0:0:
256,192,172557,1,8,0:0:0:0:
288,192,172724,1,8,0:0:0:0:
256,192,172891,1,0,0:0:0:0:
256,192,173057,1,8,0:0:0:0:
256,192,173224,1,0,0:0:0:0:
256,192,173557,1,8,0:0:0:0:
256,192,173724,1,0,0:0:0:0:
256,192,173891,1,8,0:0:0:0:
256,192,174057,1,0,0:0:0:0:
256,192,174141,1,0,0:0:0:0:
256,192,174224,1,0,0:0:0:0:
256,192,174391,1,8,0:0:0:0:
256,192,174557,1,0,0:0:0:0:
256,192,174724,1,8,0:0:0:0:
256,192,174891,1,0,0:0:0:0:
256,192,175057,1,8,0:0:0:0:
256,192,175224,1,0,0:0:0:0:
256,192,175391,1,8,0:0:0:0:
256,192,175557,1,0,0:0:0:0:
256,192,175724,1,8,0:0:0:0:
256,192,175891,1,0,0:0:0:0:
256,192,176057,1,0,0:0:0:0:
256,192,176224,1,8,0:0:0:0:
288,192,176557,1,0,0:0:0:0:
256,192,176891,1,0,0:0:0:0:
256,192,176974,1,0,0:0:0:0:
256,192,177057,1,0,0:0:0:0:
256,192,177224,1,0,0:0:0:0:
256,192,177391,1,8,0:0:0:0:
256,192,177557,1,0,0:0:0:0:
256,192,177724,1,0,0:0:0:0:
256,192,177891,1,8,0:0:0:0:
256,192,178057,1,0,0:0:0:0:
256,192,178224,1,0,0:0:0:0:
256,192,178391,1,8,0:0:0:0:
256,224,178557,1,0,0:0:0:0:
256,160,178724,1,0,0:0:0:0:
256,192,178891,1,8,0:0:0:0:
256,192,179057,1,0,0:0:0:0:
256,192,179224,1,0,0:0:0:0:
256,192,179391,1,0,0:0:0:0:
256,192,179724,1,4,0:0:0:0:
256,192,180057,1,12,0:0:0:0:
256,192,180391,1,0,0:0:0:0:
256,192,180557,1,8,0:0:0:0:
256,192,180891,1,0,0:0:0:0:
256,192,181057,1,0,0:0:0:0:
256,192,181224,1,0,0:0:0:0:
256,192,181391,1,8,0:0:0:0:
288,192,181724,1,0,0:0:0:0:
256,192,181891,1,8,0:0:0:0:
256,192,182224,1,0,0:0:0:0:
256,192,182307,1,0,0:0:0:0:
256,192,182391,1,0,0:0:0:0:
256,192,182557,1,0,0:0:0:0:
256,192,182724,1,8,0:0:0:0:
256,192,183057,1,0,0:0:0:0:
256,192,183224,1,8,0:0:0:0:
256,192,183557,1,8,0:0:0:0:
256,192,183724,1,0,0:0:0:0:
256,192,183891,1,0,0:0:0:0:
256,192,184057,1,0,0:0:0:0:
256,192,184224,1,0,0:0:0:0:
256,192,184391,1,8,0:0:0:0:
256,192,184557,1,0,0:0:0:0:
256,192,184724,1,0,0:0:0:0:
256,192,184891,1,8,0:0:0:0:
256,192,185057,1,0,0:0:0:0:
256,192,185391,1,12,0:0:0:0:
256,192,185724,1,0,0:0:0:0:
256,192,185891,1,0,0:0:0:0:
256,192,186057,1,8,0:0:0:0:
256,192,186391,1,0,0:0:0:0:
256,192,186557,1,0,0:0:0:0:
256,192,186724,1,8,0:0:0:0:
256,192,186974,1,8,0:0:0:0:
256,192,187057,1,0,0:0:0:0:
256,192,187224,1,0,0:0:0:0:
224,192,187391,1,8,0:0:0:0:
256,192,187557,1,0,0:0:0:0:
256,192,187724,1,8,0:0:0:0:
256,192,187891,1,0,0:0:0:0:
256,192,188057,1,0,0:0:0:0:
256,192,188224,1,8,0:0:0:0:
224,192,188391,1,0,0:0:0:0:
224,192,188557,1,8,0:0:0:0:
256,192,188724,1,8,0:0:0:0:
256,192,188891,1,0,0:0:0:0:
224,192,189057,1,8,0:0:0:0:
224,192,189224,1,0,0:0:0:0:
224,192,189557,1,8,0:0:0:0:
224,192,189724,1,0,0:0:0:0:
224,192,189891,1,8,0:0:0:0:
224,192,190057,1,8,0:0:0:0:
224,192,190224,1,0,0:0:0:0:
224,192,190391,1,8,0:0:0:0:
224,192,190557,1,0,0:0:0:0:
224,192,190724,1,8,0:0:0:0:
224,192,190891,1,8,0:0:0:0:
224,192,191057,1,0,0:0:0:0:
224,192,191391,1,8,0:0:0:0:
224,192,191557,1,0,0:0:0:0:
224,192,191724,1,8,0:0:0:0:
224,224,192057,1,0,0:0:0:0:
256,224,192307,1,0,0:0:0:0:
224,192,192391,1,8,0:0:0:0:
224,192,192557,1,0,0:0:0:0:
224,192,192724,1,8,0:0:0:0:
224,192,193391,1,12,0:0:0:0:
256,192,193724,1,0,0:0:0:0:
256,192,194057,1,0,0:0:0:0:
256,192,194224,1,8,0:0:0:0:
256,192,194557,1,8,0:0:0:0:
256,192,194724,1,0,0:0:0:0:
256,192,194891,1,0,0:0:0:0:
256,192,194974,1,0,0:0:0:0:
256,192,195057,1,0,0:0:0:0:
256,192,195224,1,0,0:0:0:0:
256,192,195391,1,8,0:0:0:0:
256,192,195557,1,8,0:0:0:0:
256,192,195724,1,0,0:0:0:0:
256,192,195891,1,0,0:0:0:0:
256,192,196057,1,8,0:0:0:0:
256,192,196391,1,8,0:0:0:0:
256,192,196724,1,0,0:0:0:0:
256,192,196891,1,0,0:0:0:0:
256,192,197224,1,0,0:0:0:0:
256,192,197307,1,0,0:0:0:0:
256,192,197391,1,0,0:0:0:0:
256,192,197557,1,8,0:0:0:0:
256,192,197724,1,0,0:0:0:0:
256,192,197891,1,0,0:0:0:0:
256,192,198057,1,8,0:0:0:0:
288,192,198224,1,8,0:0:0:0:
224,192,198391,1,8,0:0:0:0:
256,192,198724,1,8,0:0:0:0:
256,192,199057,1,0,0:0:0:0:
256,192,199391,1,0,0:0:0:0:
256,192,199557,1,8,0:0:0:0:
256,192,199891,1,8,0:0:0:0:
256,192,200057,1,0,0:0:0:0:
256,192,200224,1,0,0:0:0:0:
256,192,200307,1,0,0:0:0:0:
256,192,200391,1,0,0:0:0:0:
256,192,200557,1,0,0:0:0:0:
256,192,200724,1,8,0:0:0:0:
256,192,200891,1,8,0:0:0:0:
256,192,201057,1,0,0:0:0:0:
256,192,201224,1,0,0:0:0:0:
256,192,201391,1,8,0:0:0:0:
256,192,201724,1,8,0:0:0:0:
256,192,202057,1,8,0:0:0:0:
256,192,202141,1,8,0:0:0:0:
256,192,202224,1,8,0:0:0:0:
256,192,202391,1,0,0:0:0:0:
256,192,202557,1,0,0:0:0:0:
256,192,202724,1,0,0:0:0:0:
256,192,202807,1,0,0:0:0:0:
256,192,202891,1,0,0:0:0:0:
256,192,202974,1,0,0:0:0:0:
256,192,203057,1,0,0:0:0:0:
256,192,203224,1,0,0:0:0:0:
256,192,203391,1,8,0:0:0:0:
256,192,203557,1,8,0:0:0:0:
256,192,203724,1,0,0:0:0:0:
256,192,203891,1,8,0:0:0:0:
256,192,204057,1,12,0:0:0:0:
256,192,204391,1,0,0:0:0:0:
256,192,204724,1,0,0:0:0:0:
256,192,204891,1,8,0:0:0:0:
256,192,205224,1,8,0:0:0:0:
256,224,205391,1,0,0:0:0:0:
256,192,205557,1,0,0:0:0:0:
256,192,205724,1,8,0:0:0:0:
256,192,206057,1,8,0:0:0:0:
224,192,206224,1,8,0:0:0:0:
256,192,206391,1,0,0:0:0:0:
256,192,206557,1,0,0:0:0:0:
256,192,206724,1,0,0:0:0:0:
256,192,207057,1,8,0:0:0:0:
256,192,207391,1,0,0:0:0:0:
256,192,207557,1,0,0:0:0:0:
224,192,207891,1,0,0:0:0:0:
224,192,207974,1,0,0:0:0:0:
224,192,208057,1,0,0:0:0:0:
256,192,208224,1,8,0:0:0:0:
224,192,208391,1,0,0:0:0:0:
224,192,208557,1,0,0:0:0:0:
224,192,208724,1,8,0:0:0:0:
224,192,208807,1,8,0:0:0:0:
224,192,208891,1,8,0:0:0:0:
224,192,208974,1,8,0:0:0:0:
224,192,209057,1,8,0:0:0:0:
224,192,209391,1,8,0:0:0:0:
192,192,209557,1,0,0:0:0:0:
192,192,209724,1,0,0:0:0:0:
224,192,210057,1,0,0:0:0:0:
224,192,210224,1,8,0:0:0:0:
224,192,210557,1,8,0:0:0:0:
192,192,210724,1,0,0:0:0:0:
192,192,210891,1,0,0:0:0:0:
192,192,211057,1,8,0:0:0:0:
192,192,211224,1,0,0:0:0:0:
192,224,211391,1,8,0:0:0:0:
192,192,211557,1,8,0:0:0:0:
192,192,211724,1,0,0:0:0:0:
192,192,211891,1,0,0:0:0:0:
192,192,212057,1,8,0:0:0:0:
192,192,212391,1,0,0:0:0:0:
192,192,212724,1,0,0:0:0:0:
192,192,212891,1,0,0:0:0:0:
192,192,213057,1,8,0:0:0:0:
192,192,213224,1,0,0:0:0:0:
192,192,213391,1,0,0:0:0:0:
192,192,213557,1,8,0:0:0:0:
192,192,213724,1,0,0:0:0:0:
192,192,213891,1,0,0:0:0:0:
192,192,214057,2,0,L|352:192,1,140
