osu file format v13

[General]
AudioFilename: Reol.mp3
AudioLeadIn: 0
PreviewTime: 56000
Countdown: 0
SampleSet: None
StackLeniency: 0.7
Mode: 0
LetterboxInBreaks: 0
WidescreenStoryboard: 1

[Editor]
DistanceSpacing: 1.7
BeatDivisor: 4
GridSize: 4
TimelineZoom: 1.2

[Metadata]
Title:+Danshi
TitleUnicode:+Danshi
Artist:Reol
ArtistUnicode:れをる
Creator:lZenxl
Version:neonat's Extra
Source:
Tags:GigaP neonat Tagre Plus Boy Hinsvar Fort Papcio [I]MMoRTal[S] mike91lau Player_X Soldsaga_KunG Okoratu
BeatmapID:433983
BeatmapSetID:165991

[Difficulty]
HPDrainRate:7
CircleSize:4
OverallDifficulty:9
ApproachRate:9
SliderMultiplier:2.2
SliderTickRate:1

[Events]
//Background and Video events
0,0,"BG.png",0,0
Video,0,"new.avi"
//Break Periods
2,46924,54124
2,78924,80291
//Storyboard Layer 0 (Background)
//Storyboard Layer 1 (Fail)
//Storyboard Layer 2 (Pass)
//Storyboard Layer 3 (Foreground)
//Storyboard Sound Samples
//Background Colour Transformations
3,100,163,162,255

[TimingPoints]
12058,333.333333333333,4,1,0,70,1,0
24891,-100,4,3,1,70,0,0
57391,-83.3333333333333,4,1,0,80,0,1
67391,-133.333333333333,4,1,0,80,0,0
68057,-83.3333333333333,4,1,0,80,0,1
78724,-100,4,3,1,80,0,0
97057,-80,4,2,0,80,0,0
97224,-100,4,3,1,80,0,0
101391,-133.333333333333,4,2,0,80,0,0
102724,-200,4,2,0,80,0,0
112057,-200,4,3,1,80,0,0
112391,-200,4,2,0,80,0,0
112724,-200,4,3,1,80,0,0
113391,-83.3333333333333,4,1,0,80,0,1
123391,-133.333333333333,4,1,0,80,0,0
124057,-83.3333333333333,4,1,0,80,0,1
134724,-200,4,2,0,80,0,0
145057,-200,4,3,1,80,0,0
145391,-83.3333333333333,4,2,0,80,0,1
145412,-100,4,1,0,80,0,0
166724,-100,4,3,1,30,0,0
168557,-100,4,2,0,40,0,0
168724,-100,4,2,0,50,0,0
168891,-100,4,2,0,60,0,0
169057,-100,4,2,0,70,0,0
169224,-100,4,2,0,80,0,0
169391,-83.3333333333333,4,1,0,80,0,1
179391,-133.333333333333,4,1,0,80,0,0
180057,-83.3333333333333,4,1,0,80,0,1
190724,-100,4,3,1,80,0,0
193391,-100,4,1,0,80,0,0
213391,-100,4,3,1,80,0,0
213557,-100,4,1,0,80,0,0

[Colours]
Combo1 : 245,167,230
Combo2 : 253,232,113
Combo3 : 245,184,150
Combo4 : 135,186,243

[HitObjects]
256,192,12058,12,0,13391,0:0:0:0:
304,120,13724,5,0,0:0:0:0:
404,76,13891,1,0,0:0:0:0:
404,76,13974,1,0,0:0:0:0:
404,76,14058,1,0,0:0:0:0:
444,208,14224,1,0,0:0:0:0:
240,312,14391,2,0,P|132:264|100:136,1,220,4|0,0:0|0:0,0:0:0:0:
220,36,14891,6,0,L|336:36,1,110,0|8,0:0|0:0,0:0:0:0:
484,136,15224,1,0,0:0:0:0:
484,136,15308,1,0,0:0:0:0:
484,136,15391,2,0,L|364:136,1,110
264,116,15724,1,8,0:0:0:0:
304,220,15891,1,0,0:0:0:0:
484,228,16058,5,0,0:0:0:0:
500,268,16141,1,0,0:0:0:0:
492,312,16224,1,0,0:0:0:0:
456,340,16308,1,0,0:0:0:0:
412,344,16391,1,8,0:0:0:0:
380,316,16474,1,0,0:0:0:0:
344,292,16558,1,0,0:0:0:0:
300,296,16641,1,0,0:0:0:0:
260,316,16724,2,0,P|208:336|144:304,1,110
148,104,17058,1,8,0:0:0:0:
208,252,17224,1,0,0:0:0:0:
356,152,17391,6,0,P|360:88|300:40,1,110
68,72,17724,2,0,P|64:136|124:184,1,110,8|0,0:0|0:0,0:0:0:0:
120,188,17974,1,0,0:0:0:0:
152,192,18058,1,0,0:0:0:0:
184,180,18141,1,0,0:0:0:0:
212,164,18224,2,0,P|272:148|324:176,1,110,0|8,0:0|0:0,0:0:0:0:
388,308,18558,1,0,0:0:0:0:
388,308,18641,1,0,0:0:0:0:
388,308,18724,6,0,P|420:256|412:200,1,110
312,64,19058,1,8,0:0:0:0:
312,64,19141,1,0,0:0:0:0:
312,64,19224,1,0,0:0:0:0:
128,88,19391,2,0,L|72:132,1,55
28,232,19558,2,0,L|88:184,1,55
152,192,19724,2,0,B|192:180|232:200|284:184,1,110,8|0,0:0|0:0,0:0:0:0:
288,184,19974,1,0,0:0:0:0:
316,176,20058,6,0,L|400:84,1,110
488,244,20391,2,0,P|500:300|480:364,1,110,8|0,0:0|0:0,0:0:0:0:
448,352,20641,1,0,0:0:0:0:
412,344,20724,2,0,P|348:336|284:344,1,110
200,296,21058,2,0,P|212:236|192:168,1,110,8|0,0:0|0:0,0:0:0:0:
64,72,21391,2,0,P|136:44|192:60,1,110
208,64,21641,1,0,0:0:0:0:
248,80,21724,2,0,P|312:80|372:48,1,110,8|0,0:0|0:0,0:0:0:0:
460,88,22058,5,0,0:0:0:0:
472,196,22224,1,0,0:0:0:0:
296,328,22391,1,8,0:0:0:0:
380,156,22558,1,0,0:0:0:0:
184,184,22724,2,0,P|120:140|108:96,1,110
336,76,23057,1,8,0:0:0:0:
204,288,23224,1,0,0:0:0:0:
224,84,23391,5,0,0:0:0:0:
264,100,23474,1,0,0:0:0:0:
292,132,23557,1,0,0:0:0:0:
300,176,23641,1,0,0:0:0:0:
280,216,23724,1,0,0:0:0:0:
292,260,23807,1,0,0:0:0:0:
332,280,23891,1,0,0:0:0:0:
376,276,23974,1,0,0:0:0:0:
404,244,24057,1,0,0:0:0:0:
412,64,24224,5,0,0:0:0:0:
444,224,24391,2,0,L|480:336,1,110
280,216,24724,1,0,0:0:0:0:
148,64,24891,5,0,0:0:0:0:
140,76,25057,1,0,0:0:0:0:
132,88,25224,1,0,0:0:0:0:
124,100,25391,6,0,P|112:164|128:208,1,110,2|0,0:3|0:0,0:0:0:0:
283,320,25724,2,0,P|295:256|279:212,1,110,4|0,0:3|0:0,0:0:0:0:
192,152,26057,1,4,0:3:0:0:
324,52,26224,1,0,0:0:0:0:
396,200,26391,1,4,0:3:0:0:
284,320,26557,1,0,0:0:0:0:
120,304,26724,5,4,0:3:0:0:
120,304,26807,1,0,0:0:0:0:
120,304,26891,2,0,P|56:272|32:232,1,110,0|4,0:0|0:3,0:0:0:0:
48,132,27224,1,0,0:0:0:0:
200,336,27391,1,4,0:3:0:0:
256,96,27557,1,0,0:0:0:0:
256,96,27641,1,0,0:0:0:0:
256,96,27724,1,4,0:3:0:0:
376,296,27891,1,0,0:0:0:0:
496,136,28057,6,0,L|496:20,1,110,4|0,0:3|0:0,0:0:0:0:
288,212,28391,2,0,L|288:348,1,110,4|0,0:3|0:0,0:0:0:0:
420,208,28724,1,4,0:3:0:0:
164,176,28891,1,0,0:0:0:0:
376,296,29057,1,4,0:3:0:0:
300,72,29224,1,0,0:0:0:0:
160,96,29391,6,0,P|92:84|56:56,1,110,4|0,0:3|0:0,0:0:0:0:
288,212,29724,2,0,P|356:224|392:252,1,110,4|0,0:3|0:0,0:0:0:0:
200,268,30057,1,4,0:3:0:0:
156,260,30141,1,0,0:0:0:0:
124,232,30224,1,0,0:0:0:0:
100,196,30307,1,0,0:0:0:0:
104,152,30391,1,4,0:3:0:0:
248,120,30557,1,0,0:0:0:0:
400,60,30724,5,4,0:3:0:0:
436,84,30807,1,0,0:0:0:0:
456,124,30891,1,0,0:0:0:0:
456,168,30974,1,0,0:0:0:0:
432,204,31057,1,4,0:3:0:0:
400,232,31141,1,0,0:0:0:0:
392,276,31224,1,0,0:0:0:0:
412,316,31307,1,0,0:0:0:0:
448,340,31391,2,0,P|500:320|512:256,1,110,4|0,0:3|0:0,0:0:0:0:
376,144,31724,5,4,0:3:0:0:
336,128,31807,1,0,0:0:0:0:
292,132,31891,1,0,0:0:0:0:
256,160,31974,1,0,0:0:0:0:
220,184,32057,2,0,P|156:200|100:172,1,110,4|0,0:3|0:0,0:0:0:0:
284,40,32391,2,0,P|348:24|404:52,1,110,4|0,0:3|0:0,0:0:0:0:
324,216,32724,1,4,0:3:0:0:
128,40,32891,6,0,P|72:64|48:120,1,110,0|4,0:0|0:3,0:0:0:0:
192,268,33224,2,0,L|304:328,1,110,0|4,0:0|0:3,0:0:0:0:
442,156,33557,2,0,L|322:124,1,110,0|4,0:0|0:3,0:0:0:0:
60,204,33891,2,0,L|200:180,1,110,0|4,0:0|0:3,0:0:0:0:
308,296,34224,1,0,0:0:0:0:
304,96,34391,1,4,0:3:0:0:
304,96,34474,1,0,0:0:0:0:
304,96,34557,1,0,0:0:0:0:
444,156,34724,6,0,L|504:160,2,55,4|0|0,0:3|0:0|0:0,0:0:0:0:
348,212,35057,2,0,P|276:200|216:224,1,110,4|0,0:3|0:0,0:0:0:0:
52,316,35391,2,0,P|124:328|184:304,1,110,4|0,0:3|0:0,0:0:0:0:
220,280,35641,2,0,L|280:292,1,55,0|4,0:0|0:3,0:0:0:0:
384,284,35891,1,0,0:0:0:0:
356,106,36057,6,0,P|340:178|356:230,1,110,4|0,0:3|0:0,0:0:0:0:
444,104,36391,2,0,P|424:48|372:20,1,110,4|0,0:3|0:0,0:0:0:0:
272,124,36724,1,4,0:3:0:0:
192,48,36891,1,0,0:0:0:0:
296,20,37057,1,4,0:3:0:0:
272,124,37224,1,0,0:0:0:0:
156,176,37391,6,0,L|44:176,1,110,4|0,0:3|0:0,0:0:0:0:
216,228,37724,2,0,L|336:228,1,110,4|0,0:3|0:0,0:0:0:0:
464,160,38057,1,4,0:3:0:0:
496,192,38141,1,0,0:0:0:0:
512,232,38224,1,0,0:0:0:0:
504,276,38307,1,0,0:0:0:0:
484,316,38391,2,0,P|424:348|376:340,1,110,4|0,0:3|0:0,0:0:0:0:
216,228,38724,6,0,P|208:304|228:340,1,110,4|0,0:3|0:0,0:0:0:0:
344,200,39057,1,4,0:3:0:0:
344,200,39224,1,0,0:0:0:0:
240,84,39391,1,4,0:3:0:0:
200,68,39474,1,0,0:0:0:0:
156,80,39557,1,0,0:0:0:0:
128,116,39641,1,0,0:0:0:0:
92,140,39724,2,0,L|8:132,2,55,4|0|0,0:3|0:0|0:0,0:0:0:0:
148,280,40057,5,4,0:3:0:0:
148,280,40141,2,0,P|216:316|268:296,1,110
284,288,40391,1,4,0:3:0:0:
328,284,40474,1,0,0:0:0:0:
368,300,40557,1,0,0:0:0:0:
472,160,40724,2,0,P|496:76|480:36,1,110,4|0,0:3|0:0,0:0:0:0:
356,104,41057,2,0,L|376:224,1,110,0|0,0:3|0:0,0:0:0:0:
220,232,41391,5,4,0:3:0:0:
220,232,41474,1,0,0:0:0:0:
220,232,41557,2,0,L|196:104,1,110,0|4,0:0|0:3,0:0:0:0:
100,76,41891,1,0,0:0:0:0:
128,288,42057,2,0,L|236:348,1,110,4|0,0:3|0:0,0:0:0:0:
356,104,42391,2,0,L|259:50,1,110,4|0,0:3|0:0,0:0:0:0:
132,148,42724,6,0,P|116:204|140:264,1,110,4|0,0:3|0:0,0:0:0:0:
164,280,42974,1,0,0:0:0:0:
208,288,43057,1,4,0:3:0:0:
312,248,43224,1,0,0:0:0:0:
284,140,43391,1,4,0:3:0:0:
112,48,43557,5,0,0:0:0:0:
56,180,43724,1,4,0:3:0:0:
200,160,43891,1,0,0:0:0:0:
200,160,43974,1,0,0:0:0:0:
200,160,44057,2,0,L|264:176,3,55,4|0|0|0,0:3|0:0|0:0|0:0,0:0:0:0:
296,180,44391,1,4,0:3:0:0:
340,180,44474,1,0,0:0:0:0:
380,160,44557,1,0,0:0:0:0:
424,148,44641,1,0,0:0:0:0:
468,160,44724,5,4,0:3:0:0:
500,188,44807,1,0,0:0:0:0:
504,232,44891,1,0,0:0:0:0:
484,272,44974,1,0,0:0:0:0:
448,300,45057,2,0,P|432:324|432:360,2,55,4|0|0,0:3|0:0|0:0,0:0:0:0:
468,160,45391,5,4,0:3:0:0:
456,116,45474,1,0,0:0:0:0:
416,100,45557,1,0,0:0:0:0:
372,108,45641,1,0,0:0:0:0:
328,96,45724,1,4,0:3:0:0:
304,60,45807,1,0,0:0:0:0:
292,16,45891,1,0,0:0:0:0:
168,48,46057,5,4,0:3:0:0:
136,76,46141,1,0,0:0:0:0:
128,120,46224,1,0,0:0:0:0:
140,164,46307,1,0,0:0:0:0:
172,196,46391,1,4,0:3:0:0:
260,316,46557,1,0,0:0:0:0:
260,316,46641,1,0,0:0:0:0:
260,316,46724,1,4,0:0:0:0:
256,192,54724,12,4,56057,0:0:0:0:
256,124,56891,5,0,0:0:0:0:
288,124,57057,1,0,0:0:0:0:
320,124,57224,1,0,0:0:0:0:
352,124,57391,6,0,P|416:136|464:220,1,131.99999597168,4|0,0:0|0:0,0:0:0:0:
324,348,57724,1,8,0:0:0:0:
184,192,57891,1,0,0:0:0:0:
184,192,57974,1,0,0:0:0:0:
184,192,58057,2,0,P|156:128|188:56,1,131.99999597168
220,44,58307,1,0,0:0:0:0:
272,48,58391,2,0,P|356:52|416:40,1,131.99999597168,8|0,0:0|0:0,0:0:0:0:
480,212,58724,6,0,P|424:264|312:232,1,197.99999395752
276,200,59057,2,0,P|200:168|144:188,1,131.99999597168,8|0,0:0|0:0,0:0:0:0:
36,340,59391,1,0,0:0:0:0:
32,144,59557,1,0,0:0:0:0:
152,272,59724,1,8,0:0:0:0:
152,272,59891,1,0,0:0:0:0:
124,124,60057,5,0,0:0:0:0:
164,88,60141,1,0,0:0:0:0:
216,76,60224,1,0,0:0:0:0:
268,88,60307,1,0,0:0:0:0:
308,120,60391,1,8,0:0:0:0:
356,144,60474,1,0,0:0:0:0:
408,152,60557,1,0,0:0:0:0:
460,140,60641,1,0,0:0:0:0:
488,96,60724,1,0,0:0:0:0:
308,16,60891,1,0,0:0:0:0:
216,188,61057,2,0,L|216:344,2,131.99999597168,8|0|0,0:0|0:0|0:0,0:0:0:0:
88,36,61557,5,0,0:0:0:0:
20,220,61724,1,8,0:0:0:0:
216,188,61891,1,0,0:0:0:0:
408,228,62057,5,0,0:0:0:0:
132,184,62224,1,0,0:0:0:0:
404,144,62391,1,8,0:0:0:0:
184,260,62557,1,0,0:0:0:0:
296,204,62724,5,0,0:0:0:0:
296,204,62807,1,0,0:0:0:0:
296,204,62891,1,0,0:0:0:0:
180,116,63057,1,8,0:0:0:0:
180,116,63141,1,0,0:0:0:0:
180,116,63224,1,0,0:0:0:0:
184,260,63391,1,0,0:0:0:0:
184,260,63474,1,0,0:0:0:0:
184,260,63557,1,0,0:0:0:0:
272,112,63724,1,8,0:0:0:0:
272,112,63807,1,0,0:0:0:0:
272,112,63891,1,0,0:0:0:0:
456,188,64057,6,0,P|472:256|460:332,2,131.99999597168,0|0|8,0:0|0:0|0:0,0:0:0:0:
456,188,64474,1,0,0:0:0:0:
456,188,64557,1,0,0:0:0:0:
324,40,64724,1,0,0:0:0:0:
164,156,64891,5,0,0:0:0:0:
44,204,65057,1,8,0:0:0:0:
56,72,65224,1,0,0:0:0:0:
255,77,65391,5,0,0:0:0:0:
340,228,65557,1,0,0:0:0:0:
168,224,65724,1,8,0:0:0:0:
332,80,65891,5,0,0:0:0:0:
424,256,66057,1,0,0:0:0:0:
224,252,66224,1,0,0:0:0:0:
180,80,66391,5,8,0:0:0:0:
284,276,66557,1,0,0:0:0:0:
60,276,66724,1,8,0:3:0:0:
208,188,66891,5,0,0:0:0:0:
300,348,67057,1,8,0:3:0:0:
115,348,67224,1,0,0:0:0:0:
280,228,67391,6,0,B|356:200|388:252|456:208,1,165.000006294251
104,68,68057,6,0,P|80:148|104:220,1,131.99999597168,4|0,0:0|0:0,0:0:0:0:
224,324,68391,1,8,0:0:0:0:
344,140,68557,1,0,0:0:0:0:
452,216,68724,1,0,0:0:0:0:
432,348,68891,1,0,0:0:0:0:
432,348,68974,1,0,0:0:0:0:
432,348,69057,1,8,0:0:0:0:
308,308,69224,1,0,0:0:0:0:
224,128,69391,6,0,P|152:120|80:136,1,131.99999597168
8,248,69724,1,8,0:0:0:0:
224,324,69891,1,0,0:0:0:0:
320,216,70057,1,0,0:0:0:0:
292,72,70224,1,0,0:0:0:0:
292,72,70307,1,0,0:0:0:0:
292,72,70391,1,8,0:0:0:0:
148,80,70557,1,0,0:0:0:0:
116,268,70724,6,0,P|184:280|260:260,1,131.99999597168
372,132,71057,1,8,0:0:0:0:
148,80,71224,1,0,0:0:0:0:
56,176,71391,1,0,0:0:0:0:
40,308,71557,1,0,0:0:0:0:
40,308,71641,1,0,0:0:0:0:
40,308,71724,1,8,0:0:0:0:
172,332,71891,1,0,0:0:0:0:
256,192,72057,5,0,0:0:0:0:
376,248,72224,1,0,0:0:0:0:
268,324,72391,1,8,0:0:0:0:
256,192,72557,1,0,0:0:0:0:
468,184,72724,5,0,0:0:0:0:
208,72,72891,1,0,0:0:0:0:
208,328,73057,1,8,0:0:0:0:
332,176,73224,1,0,0:0:0:0:
332,176,73307,1,0,0:0:0:0:
332,176,73391,6,0,P|312:96|200:76,1,197.99999395752,4|0,0:0|0:0,0:0:0:0:
176,104,73724,2,0,P|108:128|32:88,1,131.99999597168,8|0,0:0|0:0,0:0:0:0:
232,176,74057,2,0,P|252:256|172:344,1,197.99999395752
136,348,74391,2,0,B|88:352|64:312|64:312|60:228,1,131.99999597168,8|0,0:0|0:0,0:0:0:0:
232,176,74724,1,0,0:0:0:0:
336,264,74891,1,0,0:0:0:0:
368,224,74974,1,0,0:0:0:0:
372,172,75057,6,0,P|352:92|300:48,1,131.99999597168,8|0,0:0|0:0,0:0:0:0:
144,176,75391,2,0,L|144:312,1,131.99999597168
232,176,75724,2,0,L|232:328,1,131.99999597168,8|0,0:0|0:0,0:0:0:0:
420,280,76057,5,0,0:0:0:0:
480,192,76224,1,0,0:0:0:0:
480,192,76307,1,0,0:0:0:0:
480,192,76391,2,0,P|488:116|448:64,1,131.99999597168,8|0,0:0|0:0,0:0:0:0:
276,88,76724,2,0,P|180:96|124:84,2,131.99999597168,0|0|8,0:0|0:0|0:0,0:0:0:0:
400,200,77224,1,0,0:0:0:0:
136,176,77391,5,8,0:3:0:0:
88,264,77557,1,0,0:0:0:0:
300,176,77724,5,8,0:3:0:0:
368,104,77891,1,0,0:0:0:0:
236,268,78057,5,4,0:3:0:0:
300,348,78224,1,0,0:0:0:0:
400,200,78391,5,4,0:3:0:0:
136,176,78557,1,0,0:0:0:0:
368,104,78724,1,4,0:3:0:0:
256,280,80891,5,4,0:0:0:0:
272,272,81057,1,4,0:0:0:0:
288,264,81224,1,4,0:0:0:0:
300,256,81391,6,0,P|332:208|304:136,1,110,4|0,0:0|0:0,0:0:0:0:
292,128,81641,1,0,0:0:0:0:
280,84,81724,2,0,P|304:28|380:20,1,110,4|0,0:0|0:0,0:0:0:0:
496,108,82057,1,4,0:0:0:0:
496,108,82141,2,0,L|488:256,1,110
484,260,82391,1,4,0:0:0:0:
484,304,82474,2,0,L|528:356,2,55
444,320,82724,6,0,P|372:336|316:308,1,110,4|0,0:0|0:0,0:0:0:0:
300,304,82974,1,0,0:0:0:0:
256,308,83057,2,0,L|136:308,1,110,4|0,0:0|0:0,0:0:0:0:
112,96,83391,1,4,0:0:0:0:
208,220,83557,1,0,0:0:0:0:
280,88,83724,2,0,L|390:88,1,110,4|0,0:0|0:0,0:0:0:0:
444,320,84057,6,0,L|316:320,1,110,4|0,0:0|0:0,0:0:0:0:
296,300,84307,1,0,0:0:0:0:
252,304,84391,1,4,0:0:0:0:
72,344,84557,1,0,0:0:0:0:
44,308,84641,1,0,0:0:0:0:
48,264,84724,1,4,0:0:0:0:
76,232,84807,1,0,0:0:0:0:
120,220,84891,1,0,0:0:0:0:
156,196,84974,1,0,0:0:0:0:
168,156,85057,1,4,0:0:0:0:
156,112,85141,1,0,0:0:0:0:
128,80,85224,1,0,0:0:0:0:
312,36,85391,6,0,L|296:112,3,55,4|0|0|0,0:0|0:0|0:0|0:0,0:0:0:0:
332,192,85724,2,0,L|380:156,3,55,4|0|0|0,0:0|0:0|0:0|0:0,0:0:0:0:
468,152,86057,1,4,0:0:0:0:
496,188,86141,1,0,0:0:0:0:
496,232,86224,1,0,0:0:0:0:
264,296,86391,1,4,0:0:0:0:
392,356,86557,1,0,0:0:0:0:
388,136,86724,6,0,P|332:112|276:136,1,110,4|0,0:0|0:0,0:0:0:0:
192,216,87057,1,4,0:0:0:0:
148,224,87141,1,0,0:0:0:0:
104,220,87224,1,0,0:0:0:0:
64,80,87391,1,4,0:0:0:0:
64,80,87474,2,0,P|120:68|184:84,1,110
212,96,87724,1,4,0:0:0:0:
256,104,87807,1,0,0:0:0:0:
300,96,87891,1,0,0:0:0:0:
468,172,88057,5,4,0:0:0:0:
468,172,88141,2,0,P|448:240|472:288,1,110
460,320,88391,2,0,L|380:328,1,55,4|0,0:0|0:0,0:0:0:0:
364,308,88557,2,0,L|224:308,1,110,0|4,0:0|0:0,0:0:0:0:
208,308,88807,1,0,0:0:0:0:
164,308,88891,1,0,0:0:0:0:
120,308,88974,1,0,0:0:0:0:
76,308,89057,2,0,P|24:280|8:228,1,110,4|0,0:0|0:0,0:0:0:0:
104,104,89391,5,4,0:0:0:0:
104,104,89474,2,0,P|188:124|224:116,1,110
288,168,89724,2,0,P|304:224|292:288,1,110,4|0,0:0|0:0,0:0:0:0:
296,84,90057,2,0,L|408:84,1,110,4|0,0:0|0:0,0:0:0:0:
472,316,90391,2,0,L|332:320,1,110,4|0,0:0|0:0,0:0:0:0:
300,168,90724,5,4,0:0:0:0:
208,344,90891,1,0,0:0:0:0:
368,232,91057,1,4,0:0:0:0:
172,256,91224,1,0,0:0:0:0:
361,319,91391,1,4,0:0:0:0:
216,184,91557,1,0,0:0:0:0:
472,96,91724,1,4,0:0:0:0:
472,96,91807,2,0,P|500:152|464:236,1,110
448,228,92057,5,4,0:0:0:0:
392,232,92141,1,0,0:0:0:0:
344,204,92224,1,0,0:0:0:0:
264,88,92391,1,4,0:0:0:0:
212,72,92474,1,0,0:0:0:0:
156,80,92557,1,0,0:0:0:0:
128,128,92641,1,0,0:0:0:0:
132,184,92724,2,0,P|144:248|120:308,1,110
20,340,93057,1,4,0:0:0:0:
0,300,93141,1,0,0:0:0:0:
12,256,93224,1,0,0:0:0:0:
232,192,93391,5,4,0:0:0:0:
276,204,93474,1,0,0:0:0:0:
320,196,93557,1,0,0:0:0:0:
348,160,93641,1,0,0:0:0:0:
356,116,93724,2,0,P|412:100|476:124,1,110,4|0,0:0|0:0,0:0:0:0:
496,136,93974,1,0,0:0:0:0:
492,180,94057,2,0,L|504:312,1,110,4|0,0:0|0:0,0:0:0:0:
300,348,94391,1,4,0:0:0:0:
264,112,94557,1,0,0:0:0:0:
44,196,94724,5,4,0:0:0:0:
144,312,94891,1,0,0:0:0:0:
160,124,95057,2,0,P|172:56|152:24,2,73.3333333333333,4|0|0,0:0|0:0|0:0,0:0:0:0:
184,176,95391,2,0,L|288:260,1,110,4|0,0:0|0:0,0:0:0:0:
484,356,95724,2,0,L|476:232,1,110,4|0,0:0|0:0,0:0:0:0:
356,52,96057,5,4,0:0:0:0:
340,92,96141,1,0,0:0:0:0:
348,136,96224,1,0,0:0:0:0:
488,288,96391,2,0,L|492:172,1,110,4|0,0:0|0:0,0:0:0:0:
248,40,96724,1,4,0:0:0:0:
204,44,96807,1,0,0:0:0:0:
176,80,96891,1,0,0:0:0:0:
384,316,97057,2,0,L|500:216,1,137.5,4|0,0:3|0:0,0:0:0:0:
272,156,97391,5,4,0:0:0:0:
268,300,97557,1,0,0:0:0:0:
356,188,97724,1,4,0:0:0:0:
216,224,97891,1,0,0:0:0:0:
216,224,97974,2,0,P|152:216|100:128,1,165
336,104,98391,1,4,0:0:0:0:
352,276,98557,1,0,0:0:0:0:
180,304,98724,6,0,L|60:304,1,110,4|0,0:0|0:0,0:0:0:0:
70,304,98974,1,0,0:0:0:0:
70,304,99057,1,4,0:0:0:0:
16,172,99224,1,0,0:0:0:0:
124,80,99391,1,4,0:0:0:0:
236,172,99557,1,0,0:0:0:0:
460,88,99724,1,4,0:0:0:0:
460,88,99807,1,0,0:0:0:0:
460,88,99891,1,0,0:0:0:0:
456,272,100057,5,4,0:0:0:0:
412,296,100141,1,0,0:0:0:0:
364,296,100224,1,0,0:0:0:0:
316,280,100307,1,0,0:0:0:0:
268,264,100391,2,0,P|196:252|148:272,1,110,4|0,0:0|0:0,0:0:0:0:
356,180,100724,2,0,P|428:192|476:172,1,110,4|0,0:0|0:0,0:0:0:0:
461,180,100974,1,0,0:0:0:0:
461,180,101057,1,4,0:0:0:0:
372,84,101224,1,0,0:0:0:0:
220,168,101391,6,0,L|188:260,1,82.5000031471254,4|0,0:3|0:0,0:0:0:0:
244,44,101724,2,0,L|332:8,1,82.5000031471254,4|0,0:3|0:0,0:0:0:0:
461,180,102057,2,0,P|480:248|456:320,1,123.750004720688,4|0,0:3|0:0,0:0:0:0:
372,276,102391,2,0,P|304:268|240:304,1,123.750004720688
176,344,102724,6,0,P|112:332|76:288,1,110,2|0,0:3|0:0,0:0:0:0:
76,144,103307,1,0,0:0:0:0:
76,144,103391,2,0,P|132:136|168:148,1,82.5,2|0,0:0|0:0,0:0:0:0:
196,216,103724,2,0,P|256:220|292:212,1,82.5
328,148,104057,1,2,0:0:0:0:
464,84,104307,1,0,0:0:0:0:
464,84,104391,1,0,0:0:0:0:
464,236,104641,1,0,0:0:0:0:
464,236,104724,2,0,P|440:288|404:304,1,82.5,2|0,0:0|0:0,0:0:0:0:
340,276,105057,2,0,P|284:268|248:284,1,82.5
192,328,105391,5,2,0:3:0:0:
16,240,105641,1,0,0:0:0:0:
16,240,105724,1,0,0:0:0:0:
204,172,105974,1,0,0:0:0:0:
204,172,106057,2,0,L|288:164,1,82.5,2|0,0:0|0:0,0:0:0:0:
328,80,106391,2,0,L|224:88,1,82.5
172,56,106724,6,0,L|120:60,1,36.6666666666667,4|4,0:3|0:3,0:0:0:0:
68,88,106946,1,0,0:0:0:0:
48,160,107057,1,4,0:3:0:0:
84,228,107169,1,4,0:3:0:0:
152,260,107280,1,4,0:3:0:0:
232,256,107391,2,0,P|276:248|336:264,1,82.5,4|0,0:3|0:0,0:0:0:0:
352,324,107724,2,0,L|364:232,1,82.5
420,180,108057,5,2,0:3:0:0:
232,52,108391,2,0,P|180:64|144:48,1,82.5
56,20,108724,2,0,P|48:64|72:112,1,82.5,2|0,0:0|0:0,0:0:0:0:
132,148,109057,2,0,L|128:236,1,82.5
64,296,109391,1,2,0:0:0:0:
268,344,109641,1,0,0:0:0:0:
268,344,109724,2,0,P|320:352|360:336,1,82.5
376,256,110057,2,0,L|380:160,1,82.5,2|0,0:0|0:0,0:0:0:0:
296,124,110391,2,0,L|292:228,1,82.5
216,264,110724,5,2,0:3:0:0:
52,156,110974,1,0,0:0:0:0:
52,156,111057,1,0,0:0:0:0:
232,40,111307,1,0,0:0:0:0:
232,40,111391,2,0,L|324:40,1,82.5,2|0,0:0|0:0,0:0:0:0:
376,120,111724,2,0,P|372:180|388:220,1,82.5
304,260,112057,2,0,L|180:264,1,110,0|0,0:0|0:0,0:0:0:0:
324,40,112724,1,4,0:0:0:0:
376,120,112891,5,0,0:0:0:0:
384,136,113057,1,0,0:0:0:0:
392,152,113224,1,0,0:0:0:0:
400,168,113391,6,0,P|416:240|380:292,1,131.99999597168,4|0,0:0|0:0,0:0:0:0:
216,316,113724,1,8,0:0:0:0:
108,180,113891,1,0,0:0:0:0:
108,180,113974,1,0,0:0:0:0:
108,180,114057,2,0,P|136:112|200:84,1,131.99999597168
240,88,114307,1,0,0:0:0:0:
288,112,114391,2,0,P|352:96|396:36,1,131.99999597168,8|0,0:0|0:0,0:0:0:0:
144,24,114724,6,0,B|88:52|32:32|32:32|0:72|40:156,1,197.99999395752
32,164,115057,2,0,P|40:240|16:304,1,131.99999597168,8|0,0:0|0:0,0:0:0:0:
104,360,115391,1,0,0:0:0:0:
176,220,115557,1,0,0:0:0:0:
280,340,115724,2,0,B|324:320|324:320|364:324|364:324|436:312,1,131.99999597168,8|0,0:0|0:0,0:0:0:0:
496,148,116057,5,0,0:0:0:0:
460,108,116141,1,0,0:0:0:0:
412,92,116224,1,0,0:0:0:0:
360,104,116307,1,0,0:0:0:0:
320,136,116391,1,8,0:0:0:0:
268,144,116474,1,0,0:0:0:0:
216,128,116557,1,0,0:0:0:0:
180,88,116641,1,0,0:0:0:0:
136,56,116724,2,0,P|64:48|-4:80,1,131.99999597168
9,69,116974,1,0,0:0:0:0:
9,69,117057,1,8,0:0:0:0:
88,176,117224,2,0,L|84:308,2,131.99999597168
180,88,117724,5,8,0:0:0:0:
180,88,117891,1,0,0:0:0:0:
336,248,118057,1,0,0:0:0:0:
272,52,118224,1,0,0:0:0:0:
160,212,118391,1,8,0:0:0:0:
292,348,118557,1,0,0:0:0:0:
408,180,118724,5,0,0:0:0:0:
408,180,118807,1,0,0:0:0:0:
408,180,118891,1,0,0:0:0:0:
232,160,119057,2,0,L|252:236,2,65.9999979858399,8|0|0,0:0|0:0|0:0,0:0:0:0:
360,48,119391,1,0,0:0:0:0:
360,48,119474,1,0,0:0:0:0:
360,48,119557,1,0,0:0:0:0:
420,264,119724,1,8,0:0:0:0:
420,264,119807,1,0,0:0:0:0:
420,264,119891,1,0,0:0:0:0:
324,136,120057,1,0,0:0:0:0:
80,52,120224,6,0,P|32:112|40:180,1,131.99999597168,0|8,0:0|0:0,0:0:0:0:
232,240,120557,2,0,P|229:304|185:352,1,131.99999597168
128,220,120891,1,0,0:0:0:0:
124,168,120974,1,0,0:0:0:0:
140,116,121057,1,8,0:0:0:0:
184,88,121141,1,0,0:0:0:0:
236,80,121224,1,0,0:0:0:0:
400,128,121391,5,0,0:0:0:0:
484,260,121557,1,0,0:0:0:0:
324,260,121724,1,8,0:0:0:0:
332,56,121891,5,0,0:0:0:0:
332,56,121974,1,0,0:0:0:0:
332,56,122057,1,0,0:0:0:0:
404,244,122224,1,0,0:0:0:0:
300,132,122391,5,8,0:0:0:0:
484,260,122557,1,0,0:0:0:0:
288,332,122724,1,8,0:3:0:0:
460,184,122891,5,0,0:0:0:0:
324,260,123057,1,8,0:3:0:0:
484,260,123224,1,0,0:0:0:0:
252,116,123391,6,0,B|180:96|148:132|80:112,1,165.000006294251
300,188,124057,6,0,P|336:128|320:64,1,131.99999597168,4|0,0:0|0:0,0:0:0:0:
132,36,124391,1,8,0:0:0:0:
12,160,124557,1,0,0:0:0:0:
12,160,124641,1,0,0:0:0:0:
12,160,124724,1,0,0:0:0:0:
108,304,124891,1,0,0:0:0:0:
276,264,125057,1,8,0:0:0:0:
328,268,125141,1,0,0:0:0:0:
376,292,125224,1,0,0:0:0:0:
428,292,125307,1,0,0:0:0:0:
476,268,125391,6,0,P|500:200|476:136,1,131.99999597168
300,68,125724,1,8,0:0:0:0:
132,148,125891,1,0,0:0:0:0:
132,148,125974,1,0,0:0:0:0:
132,148,126057,1,0,0:0:0:0:
204,320,126224,1,0,0:0:0:0:
320,176,126391,1,8,0:0:0:0:
284,136,126474,1,0,0:0:0:0:
236,120,126557,1,0,0:0:0:0:
184,120,126641,1,0,0:0:0:0:
132,148,126724,6,0,P|64:148|12:96,1,131.99999597168
212,32,127057,1,8,0:0:0:0:
392,80,127224,1,0,0:0:0:0:
392,80,127307,1,0,0:0:0:0:
392,80,127391,1,0,0:0:0:0:
392,264,127557,2,0,P|412:336|456:368,2,131.99999597168,0|8|0,0:0|0:0|0:0,0:0:0:0:
284,136,128057,5,0,0:0:0:0:
156,104,128224,1,0,0:0:0:0:
188,232,128391,1,8,0:0:0:0:
188,232,128557,1,0,0:0:0:0:
416,160,128724,1,0,0:0:0:0:
124,180,128891,1,0,0:0:0:0:
356,216,129057,1,8,0:0:0:0:
288,52,129224,1,0,0:0:0:0:
288,52,129307,1,0,0:0:0:0:
288,52,129391,6,0,P|212:28|92:56,1,197.99999395752,4|0,0:0|0:0,0:0:0:0:
76,100,129724,2,0,P|76:192|44:232,1,131.99999597168,8|0,0:0|0:0,0:0:0:0:
92,348,130057,2,0,B|176:332|240:356|240:356|272:320,1,197.99999395752
300,276,130391,2,0,B|328:212|276:196|308:140,1,131.99999597168,8|0,0:0|0:0,0:0:0:0:
428,48,130724,1,0,0:0:0:0:
492,196,130891,1,0,0:0:0:0:
488,248,130974,1,0,0:0:0:0:
460,292,131057,6,0,P|392:324|312:292,1,131.99999597168,8|0,0:0|0:0,0:0:0:0:
176,136,131391,1,0,0:0:0:0:
176,136,131557,1,0,0:0:0:0:
344,180,131724,1,8,0:0:0:0:
344,180,131891,1,0,0:0:0:0:
168,272,132057,5,0,0:0:0:0:
116,284,132141,1,0,0:0:0:0:
64,268,132224,1,0,0:0:0:0:
36,224,132307,1,0,0:0:0:0:
44,172,132391,1,8,0:0:0:0:
76,128,132474,1,0,0:0:0:0:
128,120,132557,1,0,0:0:0:0:
176,136,132641,1,0,0:0:0:0:
228,132,132724,6,0,P|296:112|336:56,1,131.99999597168
472,24,133057,1,8,0:0:0:0:
432,164,133224,1,0,0:0:0:0:
244,28,133391,5,8,0:3:0:0:
128,40,133557,1,0,0:0:0:0:
268,216,133724,1,8,0:3:0:0:
352,112,133891,1,0,0:0:0:0:
440,248,134057,1,4,0:3:0:0:
484,360,134224,1,0,0:0:0:0:
248,296,134391,1,4,0:3:0:0:
136,332,134557,1,0,0:0:0:0:
36,240,134724,6,0,P|24:192|52:128,1,110,8|0,0:3|0:0,0:0:0:0:
128,96,135224,1,0,0:0:0:0:
128,96,135307,1,0,0:0:0:0:
128,96,135391,2,0,P|180:112|236:88,1,110,8|0,0:3|0:0,0:0:0:0:
320,60,135891,1,0,0:0:0:0:
320,60,135974,1,0,0:0:0:0:
320,60,136057,6,0,P|356:104|360:116,1,55,8|0,0:3|0:0,0:0:0:0:
328,224,136391,2,0,P|342:200|362:182,1,55,8|0,0:3|0:0,0:0:0:0:
448,144,136724,1,8,0:3:0:0:
492,228,136891,1,0,0:0:0:0:
464,316,137057,1,0,0:0:0:0:
380,360,137224,1,0,0:0:0:0:
288,340,137391,6,0,P|228:328|168:340,1,110,8|0,0:3|0:0,0:0:0:0:
88,352,137891,1,0,0:0:0:0:
88,352,137974,1,0,0:0:0:0:
88,352,138057,2,0,P|36:328|16:276,1,110,8|0,0:3|0:0,0:0:0:0:
68,204,138557,1,0,0:0:0:0:
68,204,138641,1,0,0:0:0:0:
68,204,138724,6,0,L|64:128,1,55,8|0,0:3|0:0,0:0:0:0:
132,76,139057,2,0,L|140:144,1,55,8|0,0:3|0:0,0:0:0:0:
212,188,139391,1,8,0:3:0:0:
324,84,139557,1,8,0:0:0:0:
304,176,139724,1,8,0:3:0:0:
240,108,139891,1,8,0:0:0:0:
384,144,140057,6,0,P|412:180|412:260,1,110,4|0,0:0|0:0,0:0:0:0:
352,308,140557,1,0,0:0:0:0:
352,308,140641,1,0,0:0:0:0:
352,308,140724,2,0,B|304:296|260:312|260:312|232:300,1,110
180,240,141224,1,0,0:0:0:0:
180,240,141307,1,0,0:0:0:0:
180,240,141391,6,0,L|116:248,1,55,8|0,0:3|0:0,0:0:0:0:
12,292,141724,2,0,L|56:232,1,55,0|0,0:3|0:0,0:0:0:0:
84,120,142057,2,0,L|88:184,1,55,8|0,0:3|0:0,0:0:0:0:
112,332,142391,2,0,L|184:348,1,55
272,256,142724,6,0,P|300:208|292:148,1,110,8|0,0:3|0:0,0:0:0:0:
228,88,143224,1,0,0:0:0:0:
228,88,143307,1,0,0:0:0:0:
228,88,143391,2,0,P|284:44|324:44,1,110,8|0,0:3|0:0,0:0:0:0:
400,92,143891,1,0,0:0:0:0:
456,168,144057,6,0,L|464:248,1,55,8|0,0:3|0:0,0:0:0:0:
368,340,144391,2,0,L|376:268,1,55,8|0,0:3|0:0,0:0:0:0:
292,176,144724,2,0,L|284:252,1,55,8|0,0:3|0:0,0:0:0:0:
196,324,145057,1,4,0:0:0:0:
88,168,145391,5,4,0:0:0:0:
88,168,145474,2,0,P|52:120|92:24,1,165,0|8,0:0|0:0,0:0:0:0:
224,72,145891,1,0,0:0:0:0:
360,36,146057,2,0,L|480:36,1,110
476,180,146391,2,0,L|352:180,1,110,8|0,0:0|0:0,0:0:0:0:
208,252,146724,5,0,0:0:0:0:
208,252,146807,2,0,P|224:336|312:348,1,165,0|8,0:0|0:0,0:0:0:0:
420,292,147224,1,0,0:0:0:0:
420,292,147307,1,0,0:0:0:0:
420,292,147391,2,0,L|412:168,1,110
332,36,147724,1,8,0:0:0:0:
276,168,147891,1,0,0:0:0:0:
276,168,147974,1,0,0:0:0:0:
276,168,148057,5,0,0:0:0:0:
228,180,148141,1,0,0:0:0:0:
180,176,148224,1,0,0:0:0:0:
140,148,148307,1,0,0:0:0:0:
132,100,148391,1,8,0:0:0:0:
240,24,148557,1,0,0:0:0:0:
368,136,148724,2,0,L|400:244,1,110
196,260,149057,2,0,L|168:376,1,110,8|0,0:0|0:0,0:0:0:0:
280,248,149391,5,0,0:0:0:0:
120,228,149557,1,0,0:0:0:0:
212,96,149724,1,8,0:0:0:0:
340,56,149891,1,0,0:0:0:0:
340,56,149974,1,0,0:0:0:0:
340,56,150057,2,0,P|404:60|440:92,1,110
460,272,150391,1,8,0:0:0:0:
460,272,150557,1,0,0:0:0:0:
344,208,150724,5,0,0:0:0:0:
160,160,150891,1,0,0:0:0:0:
52,264,151057,2,0,P|96:304|148:300,1,110,8|0,0:0|0:0,0:0:0:0:
196,284,151307,1,0,0:0:0:0:
252,280,151391,2,0,L|364:312,1,110
360,132,151724,2,0,L|472:164,1,110,8|0,0:0|0:0,0:0:0:0:
280,160,152057,5,0,0:0:0:0:
216,44,152224,1,0,0:0:0:0:
216,44,152307,1,0,0:0:0:0:
216,44,152391,2,0,B|156:60|104:40|104:40|44:104,1,165,8|0,0:0|0:0,0:0:0:0:
48,116,152724,1,0,0:0:0:0:
204,192,152891,1,0,0:0:0:0:
64,256,153057,1,8,0:0:0:0:
192,340,153224,1,0,0:0:0:0:
352,244,153391,5,0,0:0:0:0:
384,92,153557,1,0,0:0:0:0:
500,196,153724,1,8,0:0:0:0:
500,196,153807,2,0,P|524:252|472:336,1,165
320,320,154224,1,0,0:0:0:0:
420,184,154391,1,8,0:0:0:0:
272,248,154557,1,0,0:0:0:0:
228,88,154724,5,8,0:3:0:0:
228,88,154891,1,0,0:0:0:0:
32,208,155057,1,8,0:3:0:0:
32,208,155224,1,0,0:0:0:0:
236,324,155391,2,0,B|304:300|348:344|412:312,1,165,4|0,0:3|0:0,0:0:0:0:
464,276,155724,2,0,L|480:180,1,55,4|0,0:3|0:3,0:3:0:0:
424,100,156057,5,4,0:0:0:0:
312,188,156224,1,0,0:0:0:0:
268,204,156307,1,0,0:0:0:0:
220,204,156391,1,8,0:0:0:0:
176,180,156474,1,0,0:0:0:0:
148,140,156557,1,0,0:0:0:0:
112,108,156641,1,0,0:0:0:0:
64,108,156724,6,0,B|28:120|28:120|-4:100|12:32,1,110
180,32,157057,2,0,P|236:40|288:32,1,110,8|0,0:0|0:0,0:0:0:0:
424,100,157391,2,0,P|444:160|424:224,1,110
244,128,157724,1,8,0:0:0:0:
244,284,157891,1,0,0:0:0:0:
320,96,158057,1,0,0:0:0:0:
372,160,158224,1,0,0:0:0:0:
312,324,158391,2,0,L|328:364,4,27.5,8|0|0|0|0,0:0|0:0|0:0|0:0|0:0,0:0:0:0:
164,264,158724,5,0,0:0:0:0:
108,260,158807,1,0,0:0:0:0:
56,284,158891,1,0,0:0:0:0:
4,268,158974,1,0,0:0:0:0:
0,220,159057,1,8,0:0:0:0:
28,172,159141,1,0,0:0:0:0:
80,160,159224,1,0,0:0:0:0:
116,116,159307,1,0,0:0:0:0:
108,60,159391,2,0,P|68:28|8:36,2,110,0|0|8,0:0|0:0|0:0,0:0:0:0:
224,112,159891,1,0,0:0:0:0:
380,48,160057,6,0,P|424:72|440:148,1,110
384,240,160391,2,0,P|340:216|324:140,1,110,8|0,0:0|0:0,0:0:0:0:
264,36,160724,2,0,L|188:28,3,55
136,84,161057,2,0,L|76:100,3,55,10|0|0|0,0:0|0:0|0:0|0:0,0:0:0:0:
44,136,161391,6,0,P|32:216|56:260,1,110
168,296,161724,2,0,P|180:216|156:172,1,110,8|0,0:0|0:0,0:0:0:0:
88,316,162057,5,0,0:0:0:0:
272,340,162224,1,0,0:0:0:0:
208,164,162391,1,8,0:0:0:0:
224,116,162474,1,0,0:0:0:0:
268,96,162557,1,0,0:0:0:0:
420,112,162724,5,0,0:0:0:0:
492,248,162891,1,0,0:0:0:0:
340,248,163057,1,8,0:0:0:0:
472,172,163224,1,0,0:0:0:0:
316,168,163391,1,0,0:0:0:0:
264,156,163474,1,0,0:0:0:0:
208,164,163557,1,0,0:0:0:0:
164,196,163641,1,0,0:0:0:0:
108,204,163724,2,0,P|44:184|24:132,1,110,8|0,0:0|0:0,0:0:0:0:
112,32,164057,5,0,0:0:0:0:
164,16,164141,1,0,0:0:0:0:
216,28,164224,1,0,0:0:0:0:
268,48,164307,1,0,0:0:0:0:
324,36,164391,1,8,0:0:0:0:
484,72,164557,1,0,0:0:0:0:
504,124,164641,1,0,0:0:0:0:
496,180,164724,2,0,L|472:260,3,55
444,276,165057,2,0,L|356:260,3,55,8|0|0|0,0:0|0:0|0:0|0:0,0:0:0:0:
336,248,165391,5,8,0:3:0:0:
280,244,165474,1,0,0:0:0:0:
232,272,165557,1,0,0:0:0:0:
192,312,165641,1,0,0:0:0:0:
136,316,165724,1,8,0:3:0:0:
92,280,165807,1,0,0:0:0:0:
88,224,165891,1,0,0:0:0:0:
108,172,165974,1,0,0:0:0:0:
160,152,166057,6,0,P|232:152|272:128,1,110,4|0,0:3|0:0,0:0:0:0:
444,276,166391,2,0,P|384:308|368:360,1,110,4|0,0:3|0:0,0:0:0:0:
232,272,166724,1,4,0:0:0:0:
256,192,167391,12,4,169391,0:0:0:0:
316,156,169557,5,0,0:0:0:0:
316,156,169641,1,0,0:0:0:0:
316,156,169724,2,0,P|368:236|352:288,1,131.99999597168,8|0,0:0|0:0,0:0:0:0:
228,352,170057,1,0,0:0:0:0:
88,276,170224,1,0,0:0:0:0:
68,220,170307,1,0,0:0:0:0:
76,160,170391,2,0,P|116:92|188:72,1,131.99999597168,8|0,0:0|0:0,0:0:0:0:
248,204,170724,5,0,0:0:0:0:
284,48,170891,1,0,0:0:0:0:
340,28,170974,1,0,0:0:0:0:
400,36,171057,2,0,P|460:80|464:156,1,131.99999597168,8|0,0:0|0:0,0:0:0:0:
388,220,171391,5,0,0:0:0:0:
380,280,171474,1,0,0:0:0:0:
420,324,171557,1,0,0:0:0:0:
480,324,171641,1,0,0:0:0:0:
512,284,171724,1,8,0:0:0:0:
512,228,171807,1,0,0:0:0:0:
484,180,171891,1,0,0:0:0:0:
424,176,171974,1,0,0:0:0:0:
388,220,172057,6,0,L|320:216,3,65.9999979858399
268,188,172391,1,8,0:0:0:0:
208,184,172474,1,0,0:0:0:0:
156,216,172557,1,0,0:0:0:0:
96,228,172641,1,0,0:0:0:0:
48,196,172724,2,0,P|28:128|76:52,2,131.99999597168,0|0|8,0:0|0:0|0:0,0:0:0:0:
192,100,173224,1,0,0:0:0:0:
224,268,173391,5,0,0:0:0:0:
304,116,173557,1,0,0:0:0:0:
224,268,173724,1,8,0:0:0:0:
116,136,173891,1,0,0:0:0:0:
260,44,174057,1,0,0:0:0:0:
320,36,174141,1,0,0:0:0:0:
372,68,174224,1,0,0:0:0:0:
384,124,174307,1,0,0:0:0:0:
356,176,174391,2,0,P|364:248|408:288,1,131.99999597168,8|0,0:0|0:0,0:0:0:0:
492,124,174724,6,0,L|520:60,2,65.9999979858399
244,176,175057,2,0,L|180:192,2,65.9999979858399,8|0|0,0:0|0:0|0:0,0:0:0:0:
416,320,175391,2,0,L|468:376,2,65.9999979858399
304,116,175724,1,8,0:0:0:0:
304,116,175807,1,0,0:0:0:0:
304,116,175891,1,0,0:0:0:0:
288,300,176057,5,0,0:0:0:0:
236,328,176141,1,0,0:0:0:0:
176,336,176224,2,0,P|104:316|64:256,2,131.99999597168,0|8|0,0:0|0:0|0:0,0:0:0:0:
204,284,176641,2,0,L|224:216,1,65.9999979858399
304,116,176891,1,0,0:0:0:0:
360,96,176974,1,0,0:0:0:0:
416,116,177057,1,8,0:0:0:0:
444,168,177141,1,0,0:0:0:0:
436,228,177224,1,0,0:0:0:0:
384,256,177307,1,0,0:0:0:0:
324,260,177391,5,0,0:0:0:0:
192,176,177557,2,0,L|56:196,1,131.99999597168,0|8,0:0|0:0,0:0:0:0:
200,56,177891,5,0,0:0:0:0:
200,56,177974,1,0,0:0:0:0:
200,56,178057,1,0,0:0:0:0:
216,288,178224,1,0,0:0:0:0:
304,116,178391,5,8,0:0:0:0:
384,256,178557,1,0,0:0:0:0:
224,256,178724,1,8,0:3:0:0:
400,156,178891,5,0,0:0:0:0:
488,316,179057,1,8,0:3:0:0:
304,320,179224,1,0,0:0:0:0:
380,76,179391,6,0,B|416:48|464:68|464:68|500:48|496:4,1,165.000006294251
124,32,180057,6,0,P|13:89|24:213,1,263.99999194336,4|8,0:0|0:0,0:0:0:0:
68,256,180474,1,0,0:0:0:0:
124,272,180557,1,0,0:0:0:0:
180,252,180641,1,0,0:0:0:0:
240,244,180724,2,0,P|288:248|316:260,3,65.9999979858399
348,296,181057,2,0,P|379:305|412:306,3,65.9999979858399,8|0|0|0,0:0|0:0|0:0|0:0,0:0:0:0:
468,280,181391,5,0,0:0:0:0:
492,228,181474,1,0,0:0:0:0:
488,168,181557,1,0,0:0:0:0:
456,120,181641,1,0,0:0:0:0:
400,100,181724,1,8,0:0:0:0:
344,112,181807,1,0,0:0:0:0:
292,144,181891,1,0,0:0:0:0:
232,140,181974,1,0,0:0:0:0:
180,108,182057,1,0,0:0:0:0:
52,40,182224,6,0,P|20:100|40:160,2,131.99999597168,0|8|0,0:0|0:0|0:0,0:0:0:0:
236,16,182724,5,0,0:0:0:0:
296,20,182807,1,0,0:0:0:0:
340,60,182891,1,0,0:0:0:0:
344,112,182974,1,0,0:0:0:0:
316,164,183057,1,8,0:0:0:0:
260,180,183141,1,0,0:0:0:0:
224,228,183224,1,0,0:0:0:0:
232,288,183307,1,0,0:0:0:0:
284,316,183391,2,0,P|360:328|420:312,2,131.99999597168,0|0|8,0:0|0:0|0:0,0:0:0:0:
120,264,183891,1,0,0:0:0:0:
316,164,184057,5,0,0:0:0:0:
420,268,184224,1,0,0:0:0:0:
284,316,184391,1,8,0:0:0:0:
316,164,184557,1,0,0:0:0:0:
504,264,184724,5,0,0:0:0:0:
192,136,184891,1,0,0:0:0:0:
360,352,185057,1,8,0:0:0:0:
476,168,185224,1,0,0:0:0:0:
476,168,185307,1,0,0:0:0:0:
476,168,185391,6,0,P|460:88|348:48,1,197.99999395752,4|0,0:0|0:0,0:0:0:0:
304,64,185724,2,0,P|232:68|172:40,1,131.99999597168,8|0,0:0|0:0,0:0:0:0:
32,56,186057,2,0,B|16:120|52:160|52:160|120:136|176:192,1,197.99999395752
184,200,186391,2,0,P|252:224|316:200,1,131.99999597168,8|0,0:0|0:0,0:0:0:0:
476,168,186724,5,0,0:0:0:0:
432,308,186891,1,0,0:0:0:0:
432,308,186974,1,0,0:0:0:0:
432,308,187057,2,0,P|364:336|300:324,1,131.99999597168,8|0,0:0|0:0,0:0:0:0:
256,300,187307,1,0,0:0:0:0:
228,248,187391,1,0,0:0:0:0:
296,64,187557,1,0,0:0:0:0:
412,224,187724,1,8,0:0:0:0:
232,140,187891,1,0,0:0:0:0:
44,76,188057,5,0,0:0:0:0:
12,128,188141,1,0,0:0:0:0:
16,188,188224,1,0,0:0:0:0:
60,228,188307,1,0,0:0:0:0:
120,224,188391,1,8,0:0:0:0:
160,180,188474,1,0,0:0:0:0:
156,120,188557,1,0,0:0:0:0:
172,60,188641,1,0,0:0:0:0:
220,28,188724,2,0,P|304:28|344:60,2,131.99999597168,0|0|8,0:0|0:0|0:0,0:0:0:0:
85,153,189224,1,0,0:0:0:0:
224,256,189391,5,8,0:3:0:0:
280,276,189474,1,0,0:0:0:0:
336,252,189557,1,0,0:0:0:0:
356,196,189641,1,0,0:0:0:0:
320,152,189724,1,8,0:3:0:0:
260,144,189807,1,0,0:0:0:0:
212,180,189891,1,0,0:0:0:0:
200,236,189974,1,0,0:0:0:0:
224,288,190057,5,4,0:3:0:0:
280,308,190141,1,0,0:0:0:0:
336,292,190224,1,0,0:0:0:0:
372,244,190307,1,0,0:0:0:0:
368,184,190391,2,0,L|376:116,1,65.9999979858399,4|0,0:3|0:0,0:0:0:0:
312,20,190557,2,0,L|280:96,1,65.9999979858399
180,104,190724,6,0,P|120:104|64:60,1,110,4|0,0:3|0:0,0:0:0:0:
180,104,191057,2,0,P|184:172|128:228,1,110,2|0,0:0|0:0,0:0:0:0:
52,280,191391,1,2,0:0:0:0:
280,308,191557,1,2,0:0:0:0:
72,196,191724,1,2,0:1:0:0:
164,344,191891,1,0,0:0:0:0:
288,212,192057,6,0,P|348:204|416:240,1,110
393,220,192307,1,2,0:0:0:0:
393,220,192391,1,2,0:0:0:0:
356,348,192557,1,2,0:0:0:0:
216,252,192724,1,0,0:0:0:0:
352,56,192891,5,4,0:0:0:0:
380,64,193057,1,4,0:0:0:0:
408,72,193224,1,4,0:0:0:0:
436,80,193391,6,0,P|468:132|452:192,1,110,4|0,0:0|0:0,0:0:0:0:
316,272,193724,1,8,0:0:0:0:
192,164,193891,1,0,0:0:0:0:
192,164,193974,1,0,0:0:0:0:
192,164,194057,2,0,P|200:104|244:68,1,110,0|0,0:0|0:0,0:0:0:0:
220,252,194391,2,0,P|212:312|168:348,1,110,8|0,0:0|0:0,0:0:0:0:
68,328,194724,5,0,0:0:0:0:
0,200,194891,1,0,0:0:0:0:
0,200,194974,1,0,0:0:0:0:
0,200,195057,1,8,0:0:0:0:
108,92,195224,1,0,0:0:0:0:
152,60,195307,1,0,0:0:0:0:
208,60,195391,2,0,L|264:84,3,55
300,116,195724,1,8,0:0:0:0:
356,116,195807,1,0,0:0:0:0:
404,88,195891,1,0,0:0:0:0:
428,40,195974,1,0,0:0:0:0:
472,8,196057,6,0,P|520:56|508:120,1,110
492,140,196307,1,0,0:0:0:0:
492,196,196391,2,0,P|492:268|508:316,1,110,8|0,0:0|0:0,0:0:0:0:
512,356,196641,1,0,0:0:0:0:
464,348,196724,2,0,P|392:340|332:356,1,110
208,304,197057,1,8,0:0:0:0:
344,236,197224,1,0,0:0:0:0:
348,180,197307,1,0,0:0:0:0:
316,132,197391,6,0,P|244:104|192:112,1,110
100,212,197724,1,8,0:0:0:0:
100,212,197807,1,0,0:0:0:0:
100,212,197891,1,0,0:0:0:0:
16,56,198057,6,0,L|96:44,1,55
164,80,198224,2,0,L|104:108,1,55
48,136,198391,2,0,P|8:200|32:260,1,110,8|0,0:0|0:0,0:0:0:0:
40,280,198641,1,0,0:0:0:0:
84,312,198724,6,0,P|160:316|220:296,1,110
192,308,198974,1,0,0:0:0:0:
192,308,199057,1,8,0:0:0:0:
268,176,199224,1,0,0:0:0:0:
268,176,199307,1,0,0:0:0:0:
268,176,199391,2,0,P|328:160|388:192,1,110
348,340,199724,1,8,0:0:0:0:
196,224,199891,1,0,0:0:0:0:
364,72,200057,6,0,P|425:76|472:126,1,110,0|0,0:0|0:0,0:0:0:0:
464,160,200307,1,0,0:0:0:0:
444,212,200391,2,0,P|436:272|464:312,1,110,8|0,0:0|0:0,0:0:0:0:
384,164,200724,1,0,0:0:0:0:
384,164,200807,1,0,0:0:0:0:
384,164,200891,1,0,0:0:0:0:
196,224,201057,2,0,L|116:228,1,55,8|0,0:0|0:0,0:0:0:0:
100,288,201224,2,0,L|20:288,1,55
8,224,201391,6,0,P|0:140|32:84,1,110
128,40,201724,1,8,0:0:0:0:
240,136,201891,1,0,0:0:0:0:
296,132,201974,1,0,0:0:0:0:
336,92,202057,2,0,P|332:32|276:8,1,110
152,120,202391,1,8,0:0:0:0:
288,240,202557,1,0,0:0:0:0:
444,128,202724,5,8,0:3:0:0:
444,128,202807,1,0,0:0:0:0:
444,128,202891,1,0,0:0:0:0:
444,128,202974,1,0,0:0:0:0:
444,128,203057,1,8,0:3:0:0:
372,256,203224,5,0,0:0:0:0:
240,136,203391,1,4,0:3:0:0:
248,328,203557,1,0,0:0:0:0:
360,136,203724,5,4,0:3:0:0:
96,180,203891,1,0,0:0:0:0:
300,364,204057,6,0,P|368:332|372:256,1,110,4|0,0:0|0:0,0:0:0:0:
248,220,204391,1,8,0:0:0:0:
124,312,204557,1,0,0:0:0:0:
124,312,204641,1,0,0:0:0:0:
124,312,204724,2,0,P|56:320|0:288,1,110
96,180,205057,2,0,P|164:172|220:204,1,110,8|0,0:0|0:0,0:0:0:0:
336,268,205391,6,0,P|408:264|448:200,1,110
448,192,205641,1,0,0:0:0:0:
440,144,205724,1,8,0:0:0:0:
276,120,205891,1,0,0:0:0:0:
424,48,206057,2,0,P|488:40|544:56,1,110
276,120,206391,2,0,P|212:128|156:112,1,110,8|0,0:0|0:0,0:0:0:0:
48,40,206724,5,0,0:0:0:0:
12,180,206891,1,0,0:0:0:0:
112,280,207057,2,0,P|200:288|248:256,1,110,8|0,0:0|0:0,0:0:0:0:
264,248,207307,1,0,0:0:0:0:
308,216,207391,2,0,P|360:202|413:216,1,110
496,336,207724,1,8,0:0:0:0:
356,364,207891,1,0,0:0:0:0:
356,364,207974,1,0,0:0:0:0:
356,364,208057,6,0,P|300:336|288:288,1,110
312,128,208391,1,8,0:0:0:0:
396,268,208557,1,0,0:0:0:0:
188,320,208724,1,0,0:0:0:0:
136,300,208807,1,0,0:0:0:0:
116,248,208891,1,0,0:0:0:0:
132,196,208974,1,0,0:0:0:0:
180,168,209057,1,8,0:0:0:0:
312,128,209224,1,0,0:0:0:0:
312,128,209307,1,0,0:0:0:0:
312,128,209391,6,0,P|356:76|344:20,1,110
160,32,209724,2,0,P|116:84|128:140,1,110,8|0,0:0|0:0,0:0:0:0:
118,122,209974,1,0,0:0:0:0:
118,122,210057,1,0,0:0:0:0:
208,248,210224,2,0,L|316:232,2,110,0|8|0,0:0|0:0|0:0,0:0:0:0:
32,260,210724,5,0,0:0:0:0:
8,212,210807,1,0,0:0:0:0:
24,160,210891,1,0,0:0:0:0:
72,136,210974,1,0,0:0:0:0:
124,152,211057,1,8,0:0:0:0:
164,192,211141,1,0,0:0:0:0:
220,200,211224,1,0,0:0:0:0:
268,172,211307,1,0,0:0:0:0:
284,120,211391,2,0,P|328:80|392:88,2,110,0|0|8,0:0|0:0|0:0,0:0:0:0:
272,272,211891,1,0,0:0:0:0:
200,112,212057,6,0,L|176:52,3,55,4|0|0|0,0:3|0:0|0:0|0:0,0:0:0:0:
128,44,212391,2,0,L|48:52,3,55,8|0|0|0,0:0|0:0|0:0|0:0,0:0:0:0:
28,80,212724,5,4,0:3:0:0:
4,128,212807,1,0,0:0:0:0:
8,184,212891,1,0,0:0:0:0:
48,224,212974,1,0,0:0:0:0:
104,228,213057,1,8,0:0:0:0:
152,200,213141,1,0,0:0:0:0:
208,200,213224,1,0,0:0:0:0:
260,220,213307,1,0,0:0:0:0:
296,264,213391,1,4,0:0:0:0:
476,192,213557,6,0,B|492:140|492:140|468:76,2,110
152,200,214057,2,0,B|128:148|156:104|156:104|236:140|272:72,1,220,0|2,0:0|2:2,0:0:0:0:
