osu file format v13

[General]
AudioFilename: Reol.mp3
AudioLeadIn: 0
PreviewTime: 56057
Countdown: 0
SampleSet: None
StackLeniency: 0.7
Mode: 3
LetterboxInBreaks: 0
SpecialStyle: 0
WidescreenStoryboard: 1

[Editor]
DistanceSpacing: 1
BeatDivisor: 2
GridSize: 4
TimelineZoom: 1.000005

[Metadata]
Title:+Danshi
TitleUnicode:+Danshi
Artist:Reol
ArtistUnicode:れをる
Creator:lZenxl
Version:mike91lau's 4K EZ
Source:
Tags:GigaP neonat Tagre Plus Boy Hinsvar Fort Papcio [I]MMoRTal[S] mike91lau Player_X Soldsaga_KunG Okoratu
BeatmapID:453469
BeatmapSetID:165991

[Difficulty]
HPDrainRate:5
CircleSize:4
OverallDifficulty:6
ApproachRate:5
SliderMultiplier:1.8
SliderTickRate:1

[Events]
//Background and Video events
0,0,"BG.png",0,0
Video,0,"new.avi"
//Break Periods
2,48256,54856
//Storyboard Layer 0 (Background)
//Storyboard Layer 1 (Fail)
//Storyboard Layer 2 (Pass)
//Storyboard Layer 3 (Foreground)
//Storyboard Sound Samples
//Background Colour Transformations
3,100,163,162,255

[TimingPoints]
12058,333.333333333333,4,1,1,50,1,0
57391,-100,4,1,1,50,0,1
78724,-100,4,1,1,50,0,0
113391,-100,4,1,1,50,0,1
134724,-100,4,1,1,50,0,0
169391,-100,4,1,1,50,0,1
193390,-100,4,1,1,50,0,0

[HitObjects]
64,192,13390,5,0,0:0:0:0:
448,192,13723,1,0,0:0:0:0:
192,192,14056,1,0,0:0:0:0:
320,192,14223,1,0,0:0:0:0:
64,192,14390,1,0,0:0:0:0:
448,192,14390,1,0,0:0:0:0:
192,192,14723,1,0,0:0:0:0:
448,192,15056,1,0,0:0:0:0:
64,192,15390,1,0,0:0:0:0:
320,192,15723,1,0,0:0:0:0:
448,192,16056,1,0,0:0:0:0:
64,192,16390,1,0,0:0:0:0:
320,192,16723,1,0,0:0:0:0:
192,192,17056,1,0,0:0:0:0:
448,192,17390,1,0,0:0:0:0:
192,192,17723,1,0,0:0:0:0:
320,192,18056,1,0,0:0:0:0:
64,192,18390,1,0,0:0:0:0:
448,192,18723,1,0,0:0:0:0:
192,192,19056,1,0,0:0:0:0:
320,192,19390,1,0,0:0:0:0:
64,192,19723,1,0,0:0:0:0:
448,192,20056,1,0,0:0:0:0:
192,192,20390,1,0,0:0:0:0:
64,192,20723,1,0,0:0:0:0:
192,192,21056,1,0,0:0:0:0:
448,192,21390,1,0,0:0:0:0:
64,192,21723,1,0,0:0:0:0:
448,192,22056,1,0,0:0:0:0:
64,192,22390,1,0,0:0:0:0:
320,192,22723,1,0,0:0:0:0:
192,192,23056,1,0,0:0:0:0:
448,192,23390,128,0,24056:0:0:0:0:
320,192,24056,1,0,0:0:0:0:
64,192,24890,1,0,0:0:0:0:
448,192,25056,1,0,0:0:0:0:
64,192,25223,1,0,0:0:0:0:
448,192,25390,1,0,0:0:0:0:
192,192,25723,1,0,0:0:0:0:
448,192,26056,1,0,0:0:0:0:
192,192,26390,1,0,0:0:0:0:
448,192,26723,1,0,0:0:0:0:
64,192,27056,1,0,0:0:0:0:
448,192,27390,1,0,0:0:0:0:
192,192,27723,1,0,0:0:0:0:
320,192,28056,1,0,0:0:0:0:
448,192,28390,1,0,0:0:0:0:
192,192,28723,1,0,0:0:0:0:
64,192,29056,1,0,0:0:0:0:
192,192,29390,1,0,0:0:0:0:
448,192,29723,1,0,0:0:0:0:
64,192,30056,1,0,0:0:0:0:
320,192,30390,1,0,0:0:0:0:
192,192,30723,1,0,0:0:0:0:
64,192,31056,1,0,0:0:0:0:
320,192,31390,1,0,0:0:0:0:
448,192,31723,1,0,0:0:0:0:
64,192,32056,1,0,0:0:0:0:
192,192,32390,1,0,0:0:0:0:
448,192,32723,1,0,0:0:0:0:
320,192,33056,1,0,0:0:0:0:
192,192,33223,1,0,0:0:0:0:
64,192,33390,1,0,0:0:0:0:
320,192,33556,1,0,0:0:0:0:
448,192,33723,1,0,0:0:0:0:
192,192,33890,1,0,0:0:0:0:
64,192,34056,1,0,0:0:0:0:
448,192,34390,1,0,0:0:0:0:
192,192,34723,1,0,0:0:0:0:
448,192,34890,1,0,0:0:0:0:
320,192,35056,1,0,0:0:0:0:
64,192,35390,1,0,0:0:0:0:
320,192,35556,1,0,0:0:0:0:
192,192,35723,1,0,0:0:0:0:
448,192,36056,1,0,0:0:0:0:
320,192,36390,1,0,0:0:0:0:
192,192,36723,1,0,0:0:0:0:
64,192,37056,1,0,0:0:0:0:
64,192,37390,1,0,0:0:0:0:
192,192,37723,1,0,0:0:0:0:
320,192,38056,1,0,0:0:0:0:
448,192,38390,1,0,0:0:0:0:
64,192,38723,1,0,0:0:0:0:
448,192,39056,1,0,0:0:0:0:
64,192,39390,1,0,0:0:0:0:
320,192,39723,1,0,0:0:0:0:
448,192,40056,1,0,0:0:0:0:
64,192,40390,1,0,0:0:0:0:
320,192,40723,1,0,0:0:0:0:
64,192,41056,1,0,0:0:0:0:
448,192,41390,1,0,0:0:0:0:
192,192,41723,1,0,0:0:0:0:
320,192,42056,1,0,0:0:0:0:
192,192,42223,1,0,0:0:0:0:
64,192,42390,1,0,0:0:0:0:
448,192,42723,1,0,0:0:0:0:
192,192,43056,1,0,0:0:0:0:
320,192,43390,1,0,0:0:0:0:
192,192,43556,1,0,0:0:0:0:
64,192,43723,1,0,0:0:0:0:
448,192,44056,1,0,0:0:0:0:
64,192,44390,1,0,0:0:0:0:
192,192,44723,1,0,0:0:0:0:
448,192,45056,1,0,0:0:0:0:
320,192,45390,1,0,0:0:0:0:
64,192,45723,1,0,0:0:0:0:
192,192,46056,1,0,0:0:0:0:
448,192,46390,1,0,0:0:0:0:
192,192,46723,128,0,48056:0:0:0:0:
320,192,46723,128,0,48056:0:0:0:0:
192,192,56056,5,0,0:0:0:0:
320,192,56056,1,0,0:0:0:0:
64,192,56890,1,0,0:0:0:0:
320,192,57056,1,0,0:0:0:0:
192,192,57223,1,0,0:0:0:0:
448,192,57390,1,0,0:0:0:0:
64,192,57390,1,0,0:0:0:0:
192,192,57723,1,0,0:0:0:0:
320,192,58056,1,0,0:0:0:0:
448,192,58390,1,0,0:0:0:0:
192,192,58723,1,0,0:0:0:0:
64,192,59056,1,0,0:0:0:0:
448,192,59390,1,0,0:0:0:0:
192,192,59723,1,0,0:0:0:0:
64,192,60056,1,0,0:0:0:0:
192,192,60390,1,0,0:0:0:0:
320,192,60723,1,0,0:0:0:0:
448,192,61056,1,0,0:0:0:0:
192,192,61390,1,0,0:0:0:0:
320,192,61723,1,0,0:0:0:0:
64,192,62056,1,0,0:0:0:0:
448,192,62390,1,0,0:0:0:0:
64,192,62723,128,0,63056:0:0:0:0:
448,192,63056,128,0,63390:0:0:0:0:
192,192,63390,128,0,63723:0:0:0:0:
320,192,63723,128,0,64056:0:0:0:0:
64,192,64056,1,0,0:0:0:0:
192,192,64390,1,0,0:0:0:0:
320,192,64723,1,0,0:0:0:0:
448,192,65056,1,0,0:0:0:0:
320,192,65390,128,0,65723:0:0:0:0:
192,192,65723,128,0,66056:0:0:0:0:
448,192,66056,128,0,66390:0:0:0:0:
64,192,66390,128,0,66723:0:0:0:0:
320,192,66723,1,0,0:0:0:0:
192,192,67056,1,0,0:0:0:0:
448,192,67390,128,0,67723:0:0:0:0:
320,192,67390,1,0,0:0:0:0:
64,192,67723,1,0,0:0:0:0:
192,192,68056,1,0,0:0:0:0:
448,192,68390,1,0,0:0:0:0:
64,192,68723,1,0,0:0:0:0:
320,192,69056,1,0,0:0:0:0:
448,192,69390,1,0,0:0:0:0:
64,192,69723,1,0,0:0:0:0:
320,192,70056,1,0,0:0:0:0:
192,192,70390,1,0,0:0:0:0:
64,192,70723,1,0,0:0:0:0:
448,192,71056,1,0,0:0:0:0:
192,192,71390,1,0,0:0:0:0:
320,192,71723,1,0,0:0:0:0:
64,192,72056,1,0,0:0:0:0:
192,192,72223,1,0,0:0:0:0:
320,192,72390,1,0,0:0:0:0:
448,192,72556,1,0,0:0:0:0:
64,192,72723,1,0,0:0:0:0:
192,192,72890,1,0,0:0:0:0:
320,192,73056,1,0,0:0:0:0:
448,192,73223,1,0,0:0:0:0:
192,192,73390,1,0,0:0:0:0:
64,192,73390,1,0,0:0:0:0:
320,192,73723,1,0,0:0:0:0:
192,192,74056,1,0,0:0:0:0:
448,192,74390,1,0,0:0:0:0:
64,192,74723,1,0,0:0:0:0:
192,192,75056,1,0,0:0:0:0:
448,192,75390,1,0,0:0:0:0:
320,192,75723,1,0,0:0:0:0:
64,192,76056,1,0,0:0:0:0:
448,192,76390,1,0,0:0:0:0:
192,192,76723,1,0,0:0:0:0:
320,192,77056,1,0,0:0:0:0:
64,192,77390,1,0,0:0:0:0:
448,192,77390,1,0,0:0:0:0:
192,192,77723,1,0,0:0:0:0:
320,192,77723,1,0,0:0:0:0:
192,192,78056,1,0,0:0:0:0:
320,192,78223,1,0,0:0:0:0:
64,192,78390,1,0,0:0:0:0:
448,192,78556,1,0,0:0:0:0:
192,192,78723,1,0,0:0:0:0:
320,192,78723,1,0,0:0:0:0:
448,192,79056,1,0,0:0:0:0:
192,192,79390,1,0,0:0:0:0:
320,192,79556,1,0,0:0:0:0:
64,192,79723,1,0,0:0:0:0:
448,192,79723,1,0,0:0:0:0:
320,192,80056,1,0,0:0:0:0:
192,192,80223,1,0,0:0:0:0:
320,192,80390,1,0,0:0:0:0:
192,192,80556,1,0,0:0:0:0:
320,192,80723,1,0,0:0:0:0:
64,192,80890,1,0,0:0:0:0:
448,192,81056,1,0,0:0:0:0:
64,192,81223,1,0,0:0:0:0:
448,192,81390,1,0,0:0:0:0:
192,192,81390,1,0,0:0:0:0:
64,192,81723,1,0,0:0:0:0:
320,192,82056,1,0,0:0:0:0:
192,192,82390,1,0,0:0:0:0:
448,192,82723,1,0,0:0:0:0:
320,192,83056,1,0,0:0:0:0:
192,192,83390,1,0,0:0:0:0:
64,192,83723,1,0,0:0:0:0:
192,192,84056,1,0,0:0:0:0:
448,192,84390,1,0,0:0:0:0:
64,192,84723,1,0,0:0:0:0:
320,192,85056,1,0,0:0:0:0:
192,192,85390,1,0,0:0:0:0:
448,192,85723,1,0,0:0:0:0:
64,192,86056,1,0,0:0:0:0:
320,192,86390,1,0,0:0:0:0:
448,192,86723,1,0,0:0:0:0:
64,192,87056,1,0,0:0:0:0:
320,192,87390,1,0,0:0:0:0:
192,192,87723,1,0,0:0:0:0:
448,192,88056,1,0,0:0:0:0:
64,192,88390,1,0,0:0:0:0:
320,192,88723,1,0,0:0:0:0:
192,192,89056,1,0,0:0:0:0:
320,192,89390,1,0,0:0:0:0:
192,192,89723,1,0,0:0:0:0:
448,192,90056,1,0,0:0:0:0:
64,192,90390,1,0,0:0:0:0:
192,192,90723,1,0,0:0:0:0:
320,192,91056,1,0,0:0:0:0:
64,192,91390,1,0,0:0:0:0:
448,192,91723,1,0,0:0:0:0:
64,192,92056,1,0,0:0:0:0:
448,192,92390,1,0,0:0:0:0:
192,192,92723,1,0,0:0:0:0:
320,192,93056,1,0,0:0:0:0:
192,192,93223,1,0,0:0:0:0:
448,192,93390,1,0,0:0:0:0:
64,192,93723,1,0,0:0:0:0:
320,192,94056,1,0,0:0:0:0:
192,192,94390,1,0,0:0:0:0:
320,192,94556,1,0,0:0:0:0:
64,192,94723,1,0,0:0:0:0:
192,192,95056,1,0,0:0:0:0:
320,192,95390,1,0,0:0:0:0:
448,192,95723,1,0,0:0:0:0:
320,192,96056,1,0,0:0:0:0:
192,192,96223,1,0,0:0:0:0:
64,192,96390,1,0,0:0:0:0:
448,192,96723,1,0,0:0:0:0:
320,192,96890,1,0,0:0:0:0:
192,192,97056,1,0,0:0:0:0:
64,192,97390,1,0,0:0:0:0:
320,192,97723,1,0,0:0:0:0:
192,192,98056,1,0,0:0:0:0:
448,192,98390,1,0,0:0:0:0:
64,192,98556,1,0,0:0:0:0:
448,192,98723,1,0,0:0:0:0:
64,192,99056,1,0,0:0:0:0:
448,192,99390,1,0,0:0:0:0:
192,192,99723,1,0,0:0:0:0:
448,192,99890,1,0,0:0:0:0:
64,192,100056,1,0,0:0:0:0:
448,192,100390,1,0,0:0:0:0:
192,192,100723,1,0,0:0:0:0:
448,192,101056,1,0,0:0:0:0:
64,192,101390,1,0,0:0:0:0:
64,192,101723,1,0,0:0:0:0:
448,192,102056,1,0,0:0:0:0:
448,192,102390,1,0,0:0:0:0:
192,192,102723,1,0,0:0:0:0:
320,192,102723,1,0,0:0:0:0:
64,192,103056,1,0,0:0:0:0:
448,192,103390,1,0,0:0:0:0:
64,192,103723,1,0,0:0:0:0:
64,192,104390,1,0,0:0:0:0:
448,192,104723,1,0,0:0:0:0:
64,192,105056,1,0,0:0:0:0:
192,192,105390,1,0,0:0:0:0:
192,192,105723,1,0,0:0:0:0:
320,192,106056,1,0,0:0:0:0:
192,192,106390,1,0,0:0:0:0:
192,192,107056,1,0,0:0:0:0:
320,192,107390,1,0,0:0:0:0:
192,192,107723,1,0,0:0:0:0:
320,192,108056,1,0,0:0:0:0:
320,192,108390,1,0,0:0:0:0:
64,192,108723,1,0,0:0:0:0:
320,192,109056,1,0,0:0:0:0:
320,192,109723,1,0,0:0:0:0:
192,192,110056,1,0,0:0:0:0:
320,192,110390,1,0,0:0:0:0:
448,192,110723,1,0,0:0:0:0:
448,192,111056,1,0,0:0:0:0:
192,192,111390,1,0,0:0:0:0:
448,192,111723,1,0,0:0:0:0:
448,192,112056,1,0,0:0:0:0:
448,192,112723,1,0,0:0:0:0:
192,192,112890,1,0,0:0:0:0:
320,192,113056,1,0,0:0:0:0:
192,192,113223,1,0,0:0:0:0:
320,192,113390,1,0,0:0:0:0:
64,192,113390,1,0,0:0:0:0:
192,192,113723,1,0,0:0:0:0:
448,192,114056,1,0,0:0:0:0:
64,192,114390,1,0,0:0:0:0:
320,192,114723,1,0,0:0:0:0:
192,192,115056,1,0,0:0:0:0:
448,192,115390,1,0,0:0:0:0:
64,192,115723,1,0,0:0:0:0:
192,192,116056,1,0,0:0:0:0:
448,192,116390,1,0,0:0:0:0:
64,192,116723,1,0,0:0:0:0:
320,192,117056,1,0,0:0:0:0:
448,192,117390,1,0,0:0:0:0:
64,192,117723,1,0,0:0:0:0:
320,192,118056,1,0,0:0:0:0:
192,192,118390,1,0,0:0:0:0:
64,192,118723,128,0,119056:0:0:0:0:
448,192,119056,128,0,119390:0:0:0:0:
192,192,119390,128,0,119723:0:0:0:0:
320,192,119723,128,0,120056:0:0:0:0:
64,192,120056,1,0,0:0:0:0:
192,192,120390,1,0,0:0:0:0:
320,192,120723,1,0,0:0:0:0:
448,192,121056,1,0,0:0:0:0:
64,192,121390,128,0,121723:0:0:0:0:
192,192,121723,128,0,122056:0:0:0:0:
320,192,122056,128,0,122390:0:0:0:0:
448,192,122390,128,0,122723:0:0:0:0:
64,192,122723,1,0,0:0:0:0:
64,192,123056,1,0,0:0:0:0:
448,192,123390,128,0,123723:0:0:0:0:
64,192,123390,1,0,0:0:0:0:
192,192,123723,1,0,0:0:0:0:
64,192,124056,1,0,0:0:0:0:
320,192,124390,1,0,0:0:0:0:
192,192,124723,1,0,0:0:0:0:
448,192,125056,1,0,0:0:0:0:
320,192,125390,1,0,0:0:0:0:
64,192,125723,1,0,0:0:0:0:
448,192,126056,1,0,0:0:0:0:
192,192,126390,1,0,0:0:0:0:
64,192,126723,1,0,0:0:0:0:
448,192,127056,1,0,0:0:0:0:
64,192,127390,1,0,0:0:0:0:
448,192,127723,1,0,0:0:0:0:
192,192,128056,1,0,0:0:0:0:
320,192,128223,1,0,0:0:0:0:
192,192,128390,1,0,0:0:0:0:
320,192,128556,1,0,0:0:0:0:
64,192,128723,1,0,0:0:0:0:
448,192,128890,1,0,0:0:0:0:
64,192,129056,1,0,0:0:0:0:
448,192,129223,1,0,0:0:0:0:
192,192,129390,1,0,0:0:0:0:
320,192,129390,1,0,0:0:0:0:
64,192,129723,1,0,0:0:0:0:
192,192,129890,1,0,0:0:0:0:
448,192,130056,1,0,0:0:0:0:
64,192,130390,1,0,0:0:0:0:
192,192,130556,1,0,0:0:0:0:
448,192,130723,1,0,0:0:0:0:
64,192,131056,1,0,0:0:0:0:
448,192,131390,1,0,0:0:0:0:
192,192,131723,1,0,0:0:0:0:
320,192,132056,1,0,0:0:0:0:
64,192,132390,1,0,0:0:0:0:
448,192,132723,1,0,0:0:0:0:
192,192,133056,1,0,0:0:0:0:
320,192,133390,1,0,0:0:0:0:
448,192,133390,1,0,0:0:0:0:
64,192,133723,1,0,0:0:0:0:
192,192,133723,1,0,0:0:0:0:
448,192,134056,1,0,0:0:0:0:
64,192,134223,1,0,0:0:0:0:
320,192,134390,1,0,0:0:0:0:
192,192,134556,1,0,0:0:0:0:
320,192,134723,1,0,0:0:0:0:
448,192,134723,1,0,0:0:0:0:
192,192,135390,1,0,0:0:0:0:
64,192,136056,1,0,0:0:0:0:
448,192,136390,1,0,0:0:0:0:
320,192,136723,1,0,0:0:0:0:
64,192,137390,1,0,0:0:0:0:
192,192,138056,1,0,0:0:0:0:
448,192,138723,1,0,0:0:0:0:
64,192,139056,1,0,0:0:0:0:
192,192,139390,1,0,0:0:0:0:
320,192,139723,1,0,0:0:0:0:
192,192,140056,1,0,0:0:0:0:
448,192,140056,1,0,0:0:0:0:
320,192,140723,1,0,0:0:0:0:
192,192,141390,1,0,0:0:0:0:
320,192,141723,1,0,0:0:0:0:
64,192,142056,1,0,0:0:0:0:
448,192,142723,1,0,0:0:0:0:
320,192,143390,1,0,0:0:0:0:
64,192,144056,1,0,0:0:0:0:
448,192,144056,128,0,145056:0:0:0:0:
320,192,144390,1,0,0:0:0:0:
192,192,144723,1,0,0:0:0:0:
320,192,145056,1,0,0:0:0:0:
192,192,145390,1,0,0:0:0:0:
64,192,145390,1,0,0:0:0:0:
448,192,145723,1,0,0:0:0:0:
192,192,146056,128,0,146390:0:0:0:0:
320,192,146390,128,0,146723:0:0:0:0:
64,192,146723,1,0,0:0:0:0:
448,192,147056,1,0,0:0:0:0:
64,192,147390,1,0,0:0:0:0:
448,192,147723,1,0,0:0:0:0:
192,192,148056,1,0,0:0:0:0:
320,192,148390,1,0,0:0:0:0:
64,192,148723,128,0,149056:0:0:0:0:
448,192,149056,128,0,149390:0:0:0:0:
320,192,149390,1,0,0:0:0:0:
192,192,149723,1,0,0:0:0:0:
448,192,150056,1,0,0:0:0:0:
64,192,150390,1,0,0:0:0:0:
192,192,150723,1,0,0:0:0:0:
448,192,151056,1,0,0:0:0:0:
192,192,151390,128,0,151723:0:0:0:0:
448,192,151723,128,0,152056:0:0:0:0:
320,192,152056,1,0,0:0:0:0:
192,192,152390,1,0,0:0:0:0:
448,192,152723,1,0,0:0:0:0:
64,192,153056,1,0,0:0:0:0:
320,192,153390,1,0,0:0:0:0:
192,192,153723,1,0,0:0:0:0:
320,192,154056,128,0,154390:0:0:0:0:
64,192,154390,128,0,154723:0:0:0:0:
192,192,154723,1,0,0:0:0:0:
448,192,154890,1,0,0:0:0:0:
192,192,155056,1,0,0:0:0:0:
448,192,155223,1,0,0:0:0:0:
192,192,155390,1,0,0:0:0:0:
320,192,155723,1,0,0:0:0:0:
64,192,155723,1,0,0:0:0:0:
192,192,156056,1,0,0:0:0:0:
448,192,156390,1,0,0:0:0:0:
64,192,156723,1,0,0:0:0:0:
320,192,157056,1,0,0:0:0:0:
192,192,157390,1,0,0:0:0:0:
448,192,157723,1,0,0:0:0:0:
64,192,158056,1,0,0:0:0:0:
192,192,158390,1,0,0:0:0:0:
448,192,158723,1,0,0:0:0:0:
64,192,159056,1,0,0:0:0:0:
320,192,159390,1,0,0:0:0:0:
192,192,159723,1,0,0:0:0:0:
320,192,160056,1,0,0:0:0:0:
192,192,160390,1,0,0:0:0:0:
448,192,160723,1,0,0:0:0:0:
64,192,161056,1,0,0:0:0:0:
192,192,161390,1,0,0:0:0:0:
448,192,161723,1,0,0:0:0:0:
64,192,162056,1,0,0:0:0:0:
320,192,162390,1,0,0:0:0:0:
192,192,162723,1,0,0:0:0:0:
64,192,163056,1,0,0:0:0:0:
320,192,163390,1,0,0:0:0:0:
448,192,163723,1,0,0:0:0:0:
64,192,164056,1,0,0:0:0:0:
448,192,164390,1,0,0:0:0:0:
64,192,164723,1,0,0:0:0:0:
448,192,165056,1,0,0:0:0:0:
192,192,165390,1,0,0:0:0:0:
320,192,165723,1,0,0:0:0:0:
192,192,166056,1,0,0:0:0:0:
320,192,166390,1,0,0:0:0:0:
192,192,166723,1,0,0:0:0:0:
448,192,166723,1,0,0:0:0:0:
64,192,169390,1,0,0:0:0:0:
320,192,169390,1,0,0:0:0:0:
192,192,169723,1,0,0:0:0:0:
448,192,170056,1,0,0:0:0:0:
64,192,170390,1,0,0:0:0:0:
192,192,170723,1,0,0:0:0:0:
448,192,171056,1,0,0:0:0:0:
64,192,171390,1,0,0:0:0:0:
192,192,171723,1,0,0:0:0:0:
448,192,172056,1,0,0:0:0:0:
320,192,172390,1,0,0:0:0:0:
192,192,172723,1,0,0:0:0:0:
64,192,173056,1,0,0:0:0:0:
64,192,173390,1,0,0:0:0:0:
192,192,173723,1,0,0:0:0:0:
320,192,174056,1,0,0:0:0:0:
448,192,174390,1,0,0:0:0:0:
64,192,174723,1,0,0:0:0:0:
320,192,174890,1,0,0:0:0:0:
192,192,175056,1,0,0:0:0:0:
448,192,175223,1,0,0:0:0:0:
320,192,175390,1,0,0:0:0:0:
64,192,175556,1,0,0:0:0:0:
448,192,175723,1,0,0:0:0:0:
192,192,175890,1,0,0:0:0:0:
64,192,176056,1,0,0:0:0:0:
320,192,176390,1,0,0:0:0:0:
192,192,176723,1,0,0:0:0:0:
448,192,177056,1,0,0:0:0:0:
320,192,177390,1,0,0:0:0:0:
64,192,177723,1,0,0:0:0:0:
448,192,178056,1,0,0:0:0:0:
192,192,178390,1,0,0:0:0:0:
320,192,178723,1,0,0:0:0:0:
64,192,178723,1,0,0:0:0:0:
192,192,179056,1,0,0:0:0:0:
448,192,179056,1,0,0:0:0:0:
64,192,179390,128,0,179723:0:0:0:0:
320,192,179723,1,0,0:0:0:0:
192,192,180056,1,0,0:0:0:0:
448,192,180056,1,0,0:0:0:0:
320,192,180390,1,0,0:0:0:0:
64,192,180723,1,0,0:0:0:0:
192,192,181056,1,0,0:0:0:0:
448,192,181390,1,0,0:0:0:0:
320,192,181723,1,0,0:0:0:0:
192,192,182056,1,0,0:0:0:0:
64,192,182390,1,0,0:0:0:0:
64,192,182723,1,0,0:0:0:0:
192,192,183056,1,0,0:0:0:0:
320,192,183390,1,0,0:0:0:0:
448,192,183723,1,0,0:0:0:0:
320,192,184056,1,0,0:0:0:0:
192,192,184223,1,0,0:0:0:0:
64,192,184390,1,0,0:0:0:0:
192,192,184556,1,0,0:0:0:0:
448,192,184723,1,0,0:0:0:0:
320,192,184890,1,0,0:0:0:0:
192,192,185056,1,0,0:0:0:0:
320,192,185223,1,0,0:0:0:0:
64,192,185390,1,0,0:0:0:0:
448,192,185390,1,0,0:0:0:0:
192,192,185723,1,0,0:0:0:0:
448,192,186056,1,0,0:0:0:0:
320,192,186390,1,0,0:0:0:0:
64,192,186723,1,0,0:0:0:0:
192,192,187056,1,0,0:0:0:0:
448,192,187390,1,0,0:0:0:0:
320,192,187723,1,0,0:0:0:0:
64,192,188056,1,0,0:0:0:0:
320,192,188390,1,0,0:0:0:0:
64,192,188723,1,0,0:0:0:0:
192,192,189056,1,0,0:0:0:0:
448,192,189390,1,0,0:0:0:0:
64,192,189390,1,0,0:0:0:0:
192,192,189723,1,0,0:0:0:0:
320,192,189723,1,0,0:0:0:0:
64,192,190056,1,0,0:0:0:0:
448,192,190223,1,0,0:0:0:0:
64,192,190390,1,0,0:0:0:0:
448,192,190556,1,0,0:0:0:0:
192,192,190723,1,0,0:0:0:0:
320,192,190723,1,0,0:0:0:0:
64,192,191056,1,0,0:0:0:0:
448,192,191056,1,0,0:0:0:0:
192,192,191390,1,0,0:0:0:0:
320,192,191556,1,0,0:0:0:0:
64,192,191723,1,0,0:0:0:0:
448,192,191723,1,0,0:0:0:0:
192,192,192056,1,0,0:0:0:0:
320,192,192056,1,0,0:0:0:0:
64,192,192390,1,0,0:0:0:0:
192,192,192556,1,0,0:0:0:0:
320,192,192723,1,0,0:0:0:0:
448,192,192890,1,0,0:0:0:0:
320,192,193056,1,0,0:0:0:0:
192,192,193223,1,0,0:0:0:0:
64,192,193390,1,0,0:0:0:0:
320,192,193723,1,0,0:0:0:0:
192,192,194056,1,0,0:0:0:0:
448,192,194390,1,0,0:0:0:0:
64,192,194723,1,0,0:0:0:0:
320,192,195056,1,0,0:0:0:0:
192,192,195390,1,0,0:0:0:0:
448,192,195723,1,0,0:0:0:0:
64,192,196056,1,0,0:0:0:0:
320,192,196390,1,0,0:0:0:0:
64,192,196723,1,0,0:0:0:0:
448,192,197056,1,0,0:0:0:0:
192,192,197390,1,0,0:0:0:0:
448,192,197723,1,0,0:0:0:0:
64,192,198056,1,0,0:0:0:0:
320,192,198223,1,0,0:0:0:0:
64,192,198390,1,0,0:0:0:0:
320,192,198556,1,0,0:0:0:0:
192,192,198723,1,0,0:0:0:0:
448,192,199056,1,0,0:0:0:0:
320,192,199390,1,0,0:0:0:0:
64,192,199723,1,0,0:0:0:0:
192,192,200056,1,0,0:0:0:0:
448,192,200390,1,0,0:0:0:0:
64,192,200723,1,0,0:0:0:0:
320,192,201056,1,0,0:0:0:0:
192,192,201390,1,0,0:0:0:0:
448,192,201723,1,0,0:0:0:0:
64,192,202056,1,0,0:0:0:0:
320,192,202390,1,0,0:0:0:0:
192,192,202723,1,0,0:0:0:0:
448,192,202723,1,0,0:0:0:0:
64,192,203056,1,0,0:0:0:0:
320,192,203056,1,0,0:0:0:0:
192,192,203390,1,0,0:0:0:0:
448,192,203390,1,0,0:0:0:0:
320,192,203723,1,0,0:0:0:0:
64,192,203723,1,0,0:0:0:0:
192,192,204056,1,0,0:0:0:0:
320,192,204390,1,0,0:0:0:0:
64,192,204723,1,0,0:0:0:0:
448,192,205056,1,0,0:0:0:0:
64,192,205390,1,0,0:0:0:0:
448,192,205723,1,0,0:0:0:0:
192,192,206056,1,0,0:0:0:0:
320,192,206390,1,0,0:0:0:0:
448,192,206723,1,0,0:0:0:0:
64,192,207056,1,0,0:0:0:0:
320,192,207390,1,0,0:0:0:0:
192,192,207723,1,0,0:0:0:0:
320,192,208056,1,0,0:0:0:0:
192,192,208390,1,0,0:0:0:0:
448,192,208723,1,0,0:0:0:0:
320,192,208890,1,0,0:0:0:0:
192,192,209056,1,0,0:0:0:0:
64,192,209223,1,0,0:0:0:0:
448,192,209390,1,0,0:0:0:0:
320,192,209723,1,0,0:0:0:0:
192,192,210056,1,0,0:0:0:0:
64,192,210390,1,0,0:0:0:0:
64,192,210723,1,0,0:0:0:0:
192,192,211056,1,0,0:0:0:0:
320,192,211390,1,0,0:0:0:0:
448,192,211723,1,0,0:0:0:0:
64,192,212056,128,0,213390:0:0:0:0:
192,192,212056,1,0,0:0:0:0:
448,192,212390,1,0,0:0:0:0:
320,192,212723,1,0,0:0:0:0:
192,192,213056,1,0,0:0:0:0:
448,192,213390,1,0,0:0:0:0:
