osu file format v13

[General]
AudioFilename: Reol.mp3
AudioLeadIn: 0
PreviewTime: 56000
Countdown: 0
SampleSet: None
StackLeniency: 0.7
Mode: 3
LetterboxInBreaks: 0
SpecialStyle: 0
WidescreenStoryboard: 1

[Editor]
DistanceSpacing: 1
BeatDivisor: 4
GridSize: 4
TimelineZoom: 1.5

[Metadata]
Title:+Danshi
TitleUnicode:+Danshi
Artist:Reol
ArtistUnicode:れをる
Creator:lZenxl
Version:Player X's 4K NM
Source:
Tags:GigaP neonat Tagre Plus Boy Hinsvar Fort Papcio [I]MMoRTal[S] mike91lau Player_X Soldsaga_KunG Okoratu
BeatmapID:450019
BeatmapSetID:165991

[Difficulty]
HPDrainRate:6
CircleSize:4
OverallDifficulty:7
ApproachRate:5
SliderMultiplier:1.8
SliderTickRate:1

[Events]
//Background and Video events
0,0,"BG.png",0,0
Video,0,"new.avi"
//Break Periods
2,14924,22857
2,46924,54857
2,102925,109524
2,134924,142857
//Storyboard Layer 0 (Background)
//Storyboard Layer 1 (Fail)
//Storyboard Layer 2 (Pass)
//Storyboard Layer 3 (Foreground)
//Storyboard Sound Samples
//Background Colour Transformations
3,100,163,162,255

[TimingPoints]
12058,333.333333333333,4,1,1,50,1,0
14724,-100,4,2,1,80,0,0
56891,-100,4,2,1,30,0,0
57057,-100,4,2,1,50,0,0
57224,-100,4,2,1,70,0,0
57391,-100,4,2,1,80,0,1
67391,-100,4,2,1,80,0,0
68057,-100,4,2,1,80,0,1
78724,-100,4,2,1,80,0,0
112891,-100,4,2,1,30,0,0
113057,-100,4,2,1,50,0,0
113224,-100,4,2,1,70,0,0
113391,-100,4,2,1,80,0,1
123391,-100,4,2,1,80,0,0
124057,-100,4,2,1,80,0,1
134724,-100,4,2,1,80,0,0
145391,-100,4,2,1,80,0,1
145412,-100,4,2,1,80,0,0
166724,-100,4,2,1,30,0,0
168557,-100,4,2,1,40,0,0
168724,-100,4,2,1,50,0,0
168891,-100,4,2,1,60,0,0
169057,-100,4,2,1,70,0,0
169224,-100,4,2,1,80,0,0
169391,-100,4,2,1,80,0,1
179391,-100,4,2,1,80,0,0
180057,-100,4,2,1,80,0,1
190724,-100,4,2,1,80,0,0

[HitObjects]
64,192,13391,5,0,0:0:0:0:
448,192,13391,1,0,0:0:0:0:
192,192,13724,1,0,0:0:0:0:
320,192,13724,1,0,0:0:0:0:
64,192,14058,1,0,0:0:0:0:
448,192,14224,1,0,0:0:0:0:
320,192,14391,1,0,0:0:0:0:
64,192,14724,1,0,0:0:0:0:
448,192,14724,1,0,0:0:0:0:
64,192,24057,5,0,0:0:0:0:
192,192,24224,1,0,0:0:0:0:
320,192,24391,1,0,0:0:0:0:
448,192,24557,1,0,0:0:0:0:
64,192,24724,1,0,0:0:0:0:
192,192,24891,1,0,0:0:0:0:
320,192,25057,1,0,0:0:0:0:
448,192,25224,1,0,0:0:0:0:
192,192,25391,1,0,0:0:0:0:
448,192,25557,1,0,0:0:0:0:
320,192,25724,1,0,0:0:0:0:
64,192,25891,1,0,0:0:0:0:
192,192,26057,1,0,0:0:0:0:
448,192,26057,1,0,0:0:0:0:
64,192,26224,1,0,0:0:0:0:
320,192,26391,1,0,0:0:0:0:
448,192,26557,1,0,0:0:0:0:
320,192,26724,1,0,0:0:0:0:
64,192,26724,1,0,0:0:0:0:
448,192,26891,1,0,0:0:0:0:
320,192,27057,1,0,0:0:0:0:
192,192,27224,1,0,0:0:0:0:
320,192,27391,1,0,0:0:0:0:
64,192,27557,1,0,0:0:0:0:
192,192,27724,1,0,0:0:0:0:
448,192,27891,1,0,0:0:0:0:
192,192,28057,1,0,0:0:0:0:
320,192,28057,1,0,0:0:0:0:
448,192,28224,1,0,0:0:0:0:
64,192,28391,1,0,0:0:0:0:
320,192,28557,1,0,0:0:0:0:
448,192,28724,1,0,0:0:0:0:
320,192,28891,1,0,0:0:0:0:
64,192,29057,1,0,0:0:0:0:
192,192,29224,1,0,0:0:0:0:
64,192,29391,1,0,0:0:0:0:
320,192,29391,1,0,0:0:0:0:
192,192,29724,1,0,0:0:0:0:
448,192,29724,1,0,0:0:0:0:
64,192,30057,1,0,0:0:0:0:
192,192,30057,1,0,0:0:0:0:
320,192,30391,1,0,0:0:0:0:
448,192,30391,1,0,0:0:0:0:
64,192,30724,128,0,31391:0:0:0:0:
192,192,31057,1,0,0:0:0:0:
448,192,31391,1,0,0:0:0:0:
320,192,31557,1,0,0:0:0:0:
192,192,31724,1,0,0:0:0:0:
64,192,31891,1,0,0:0:0:0:
448,192,32057,128,0,32724:0:0:0:0:
320,192,32391,1,0,0:0:0:0:
64,192,32724,1,0,0:0:0:0:
192,192,32891,1,0,0:0:0:0:
320,192,33057,1,0,0:0:0:0:
448,192,33224,1,0,0:0:0:0:
64,192,33391,1,0,0:0:0:0:
192,192,33557,1,0,0:0:0:0:
64,192,33724,1,0,0:0:0:0:
192,192,33891,1,0,0:0:0:0:
320,192,34057,1,0,0:0:0:0:
448,192,34224,1,0,0:0:0:0:
320,192,34391,1,0,0:0:0:0:
448,192,34557,1,0,0:0:0:0:
64,192,34724,1,0,0:0:0:0:
320,192,34724,1,0,0:0:0:0:
192,192,34891,1,0,0:0:0:0:
448,192,35057,1,0,0:0:0:0:
320,192,35224,1,0,0:0:0:0:
448,192,35391,1,0,0:0:0:0:
192,192,35391,1,0,0:0:0:0:
320,192,35557,1,0,0:0:0:0:
64,192,35724,1,0,0:0:0:0:
320,192,35891,1,0,0:0:0:0:
64,192,36057,1,0,0:0:0:0:
448,192,36224,1,0,0:0:0:0:
192,192,36391,1,0,0:0:0:0:
320,192,36557,1,0,0:0:0:0:
448,192,36724,1,0,0:0:0:0:
320,192,36891,1,0,0:0:0:0:
192,192,37057,1,0,0:0:0:0:
64,192,37224,1,0,0:0:0:0:
448,192,37391,1,0,0:0:0:0:
64,192,37557,1,0,0:0:0:0:
320,192,37724,1,0,0:0:0:0:
192,192,37891,1,0,0:0:0:0:
64,192,38057,1,0,0:0:0:0:
192,192,38224,1,0,0:0:0:0:
320,192,38391,1,0,0:0:0:0:
448,192,38557,1,0,0:0:0:0:
64,192,38724,1,0,0:0:0:0:
320,192,38724,1,0,0:0:0:0:
192,192,38891,1,0,0:0:0:0:
320,192,39057,1,0,0:0:0:0:
64,192,39224,1,0,0:0:0:0:
192,192,39391,1,0,0:0:0:0:
320,192,39391,1,0,0:0:0:0:
448,192,39557,1,0,0:0:0:0:
192,192,39724,1,0,0:0:0:0:
320,192,39891,1,0,0:0:0:0:
448,192,40057,1,0,0:0:0:0:
64,192,40057,1,0,0:0:0:0:
192,192,40224,1,0,0:0:0:0:
320,192,40391,1,0,0:0:0:0:
192,192,40557,1,0,0:0:0:0:
448,192,40724,1,0,0:0:0:0:
448,192,40891,1,0,0:0:0:0:
64,192,41057,1,0,0:0:0:0:
64,192,41224,1,0,0:0:0:0:
320,192,41391,128,0,42057:0:0:0:0:
448,192,41557,1,0,0:0:0:0:
192,192,41724,1,0,0:0:0:0:
192,192,41891,1,0,0:0:0:0:
64,192,42057,1,0,0:0:0:0:
192,192,42224,1,0,0:0:0:0:
64,192,42391,1,0,0:0:0:0:
192,192,42724,128,0,43391:0:0:0:0:
64,192,42891,1,0,0:0:0:0:
320,192,43057,1,0,0:0:0:0:
320,192,43224,1,0,0:0:0:0:
448,192,43391,1,0,0:0:0:0:
320,192,43557,1,0,0:0:0:0:
448,192,43724,1,0,0:0:0:0:
64,192,44057,1,0,0:0:0:0:
192,192,44057,1,0,0:0:0:0:
320,192,44224,1,0,0:0:0:0:
448,192,44224,1,0,0:0:0:0:
64,192,44391,1,0,0:0:0:0:
192,192,44391,1,0,0:0:0:0:
320,192,44557,1,0,0:0:0:0:
448,192,44557,1,0,0:0:0:0:
64,192,44724,1,0,0:0:0:0:
448,192,44891,1,0,0:0:0:0:
64,192,45057,1,0,0:0:0:0:
448,192,45224,1,0,0:0:0:0:
64,192,45391,128,0,45724:0:0:0:0:
320,192,45391,128,0,45724:0:0:0:0:
192,192,45724,128,0,46057:0:0:0:0:
448,192,45724,128,0,46057:0:0:0:0:
64,192,46057,128,0,46391:0:0:0:0:
320,192,46057,128,0,46391:0:0:0:0:
192,192,46391,128,0,46724:0:0:0:0:
448,192,46391,128,0,46724:0:0:0:0:
64,192,56057,5,0,0:0:0:0:
448,192,56057,1,0,0:0:0:0:
192,192,56891,1,0,0:0:0:0:
320,192,57057,1,0,0:0:0:0:
448,192,57224,1,0,0:0:0:0:
64,192,57391,128,0,57724:0:0:0:0:
448,192,57724,1,0,0:0:0:0:
320,192,57891,1,0,0:0:0:0:
448,192,58057,128,0,58391:0:0:0:0:
64,192,58391,1,0,0:0:0:0:
192,192,58557,1,0,0:0:0:0:
448,192,58724,128,0,59057:0:0:0:0:
64,192,58724,128,0,59057:0:0:0:0:
192,192,59057,1,0,0:0:0:0:
320,192,59057,1,0,0:0:0:0:
448,192,59224,1,0,0:0:0:0:
64,192,59224,1,0,0:0:0:0:
192,192,59391,1,0,0:0:0:0:
64,192,59557,1,0,0:0:0:0:
320,192,59724,1,0,0:0:0:0:
448,192,59891,1,0,0:0:0:0:
64,192,60057,1,0,0:0:0:0:
320,192,60057,1,0,0:0:0:0:
192,192,60224,1,0,0:0:0:0:
448,192,60391,1,0,0:0:0:0:
320,192,60557,1,0,0:0:0:0:
64,192,60724,1,0,0:0:0:0:
192,192,60724,1,0,0:0:0:0:
448,192,60891,1,0,0:0:0:0:
192,192,61057,1,0,0:0:0:0:
320,192,61224,1,0,0:0:0:0:
64,192,61391,1,0,0:0:0:0:
192,192,61557,1,0,0:0:0:0:
320,192,61724,1,0,0:0:0:0:
448,192,61891,1,0,0:0:0:0:
320,192,62057,1,0,0:0:0:0:
448,192,62224,1,0,0:0:0:0:
192,192,62391,1,0,0:0:0:0:
320,192,62557,1,0,0:0:0:0:
64,192,62724,128,0,62891:0:0:0:0:
192,192,62891,128,0,63057:0:0:0:0:
64,192,63057,128,0,63224:0:0:0:0:
192,192,63224,128,0,63391:0:0:0:0:
320,192,63391,128,0,63557:0:0:0:0:
448,192,63557,128,0,63724:0:0:0:0:
320,192,63724,128,0,63891:0:0:0:0:
448,192,63891,128,0,64057:0:0:0:0:
320,192,64057,128,0,64224:0:0:0:0:
64,192,64224,128,0,64557:0:0:0:0:
192,192,64557,128,0,64891:0:0:0:0:
448,192,64891,1,0,0:0:0:0:
320,192,65057,1,0,0:0:0:0:
192,192,65224,1,0,0:0:0:0:
64,192,65391,1,0,0:0:0:0:
320,192,65391,1,0,0:0:0:0:
192,192,65557,1,0,0:0:0:0:
320,192,65724,1,0,0:0:0:0:
192,192,65891,1,0,0:0:0:0:
448,192,65891,1,0,0:0:0:0:
320,192,66057,1,0,0:0:0:0:
192,192,66224,1,0,0:0:0:0:
64,192,66391,1,0,0:0:0:0:
320,192,66391,1,0,0:0:0:0:
192,192,66557,1,0,0:0:0:0:
64,192,66724,1,0,0:0:0:0:
192,192,66891,1,0,0:0:0:0:
448,192,66891,1,0,0:0:0:0:
320,192,67057,1,0,0:0:0:0:
448,192,67224,1,0,0:0:0:0:
64,192,67391,128,0,67724:0:0:0:0:
192,192,67391,128,0,67724:0:0:0:0:
320,192,67724,128,0,68057:0:0:0:0:
448,192,67724,128,0,68057:0:0:0:0:
192,192,68057,128,0,69057:0:0:0:0:
64,192,68057,1,0,0:0:0:0:
448,192,68391,1,0,0:0:0:0:
64,192,68557,1,0,0:0:0:0:
448,192,68891,1,0,0:0:0:0:
320,192,69057,1,0,0:0:0:0:
64,192,69224,1,0,0:0:0:0:
320,192,69391,128,0,70391:0:0:0:0:
448,192,69391,1,0,0:0:0:0:
64,192,69724,1,0,0:0:0:0:
448,192,69891,1,0,0:0:0:0:
64,192,70224,1,0,0:0:0:0:
192,192,70391,1,0,0:0:0:0:
448,192,70557,1,0,0:0:0:0:
64,192,70724,128,0,71724:0:0:0:0:
192,192,70891,1,0,0:0:0:0:
320,192,71057,1,0,0:0:0:0:
448,192,71224,1,0,0:0:0:0:
192,192,71391,1,0,0:0:0:0:
320,192,71557,1,0,0:0:0:0:
448,192,71724,1,0,0:0:0:0:
320,192,71891,1,0,0:0:0:0:
64,192,72057,1,0,0:0:0:0:
192,192,72224,1,0,0:0:0:0:
448,192,72391,1,0,0:0:0:0:
320,192,72557,1,0,0:0:0:0:
64,192,72724,128,0,73057:0:0:0:0:
320,192,72891,1,0,0:0:0:0:
448,192,73057,128,0,73391:0:0:0:0:
192,192,73057,128,0,73391:0:0:0:0:
320,192,73391,1,0,0:0:0:0:
64,192,73391,1,0,0:0:0:0:
320,192,73724,1,0,0:0:0:0:
64,192,73891,1,0,0:0:0:0:
320,192,74057,1,0,0:0:0:0:
448,192,74057,1,0,0:0:0:0:
192,192,74391,1,0,0:0:0:0:
448,192,74557,1,0,0:0:0:0:
192,192,74724,1,0,0:0:0:0:
64,192,74724,1,0,0:0:0:0:
448,192,75057,1,0,0:0:0:0:
64,192,75224,1,0,0:0:0:0:
320,192,75391,1,0,0:0:0:0:
192,192,75557,1,0,0:0:0:0:
64,192,75724,1,0,0:0:0:0:
448,192,75891,1,0,0:0:0:0:
320,192,76057,1,0,0:0:0:0:
448,192,76224,1,0,0:0:0:0:
192,192,76391,1,0,0:0:0:0:
320,192,76557,1,0,0:0:0:0:
64,192,76724,1,0,0:0:0:0:
192,192,76891,1,0,0:0:0:0:
64,192,77057,1,0,0:0:0:0:
320,192,77224,1,0,0:0:0:0:
192,192,77391,1,0,0:0:0:0:
448,192,77557,1,0,0:0:0:0:
64,192,77724,1,0,0:0:0:0:
320,192,77891,1,0,0:0:0:0:
64,192,78057,1,0,0:0:0:0:
320,192,78224,1,0,0:0:0:0:
192,192,78391,1,0,0:0:0:0:
448,192,78557,1,0,0:0:0:0:
64,192,78724,1,0,0:0:0:0:
320,192,78724,1,0,0:0:0:0:
192,192,79057,1,0,0:0:0:0:
448,192,79057,1,0,0:0:0:0:
64,192,79391,1,0,0:0:0:0:
192,192,79391,1,0,0:0:0:0:
320,192,79557,1,0,0:0:0:0:
448,192,79557,1,0,0:0:0:0:
64,192,79724,1,0,0:0:0:0:
192,192,79724,1,0,0:0:0:0:
64,192,80057,1,0,0:0:0:0:
320,192,80224,1,0,0:0:0:0:
192,192,80391,1,0,0:0:0:0:
448,192,80557,1,0,0:0:0:0:
64,192,80724,1,0,0:0:0:0:
192,192,80891,1,0,0:0:0:0:
320,192,81057,1,0,0:0:0:0:
448,192,81224,1,0,0:0:0:0:
64,192,81391,1,0,0:0:0:0:
320,192,81391,1,0,0:0:0:0:
448,192,81557,1,0,0:0:0:0:
320,192,81724,1,0,0:0:0:0:
64,192,81891,1,0,0:0:0:0:
192,192,82057,1,0,0:0:0:0:
448,192,82057,1,0,0:0:0:0:
64,192,82224,1,0,0:0:0:0:
192,192,82391,1,0,0:0:0:0:
320,192,82557,1,0,0:0:0:0:
64,192,82724,1,0,0:0:0:0:
448,192,82891,1,0,0:0:0:0:
192,192,83057,1,0,0:0:0:0:
64,192,83224,1,0,0:0:0:0:
320,192,83391,1,0,0:0:0:0:
448,192,83557,1,0,0:0:0:0:
192,192,83724,1,0,0:0:0:0:
320,192,83891,1,0,0:0:0:0:
64,192,84057,1,0,0:0:0:0:
192,192,84057,1,0,0:0:0:0:
448,192,84224,1,0,0:0:0:0:
192,192,84391,1,0,0:0:0:0:
448,192,84557,1,0,0:0:0:0:
320,192,84724,1,0,0:0:0:0:
192,192,84724,1,0,0:0:0:0:
64,192,84891,1,0,0:0:0:0:
192,192,85057,1,0,0:0:0:0:
64,192,85224,1,0,0:0:0:0:
192,192,85391,1,0,0:0:0:0:
448,192,85391,1,0,0:0:0:0:
320,192,85557,1,0,0:0:0:0:
448,192,85724,1,0,0:0:0:0:
192,192,85891,1,0,0:0:0:0:
64,192,86057,1,0,0:0:0:0:
320,192,86057,1,0,0:0:0:0:
192,192,86391,1,0,0:0:0:0:
448,192,86391,1,0,0:0:0:0:
192,192,86724,1,0,0:0:0:0:
320,192,86724,1,0,0:0:0:0:
320,192,86891,1,0,0:0:0:0:
64,192,87057,1,0,0:0:0:0:
448,192,87224,1,0,0:0:0:0:
192,192,87391,1,0,0:0:0:0:
64,192,87557,1,0,0:0:0:0:
192,192,87724,1,0,0:0:0:0:
448,192,87891,1,0,0:0:0:0:
320,192,88057,1,0,0:0:0:0:
64,192,88057,1,0,0:0:0:0:
448,192,88224,1,0,0:0:0:0:
320,192,88391,1,0,0:0:0:0:
192,192,88557,1,0,0:0:0:0:
448,192,88724,1,0,0:0:0:0:
64,192,88891,1,0,0:0:0:0:
320,192,89057,1,0,0:0:0:0:
192,192,89224,1,0,0:0:0:0:
64,192,89391,1,0,0:0:0:0:
448,192,89391,1,0,0:0:0:0:
320,192,89557,1,0,0:0:0:0:
448,192,89724,1,0,0:0:0:0:
64,192,89891,1,0,0:0:0:0:
320,192,90057,1,0,0:0:0:0:
448,192,90057,1,0,0:0:0:0:
192,192,90224,1,0,0:0:0:0:
320,192,90391,1,0,0:0:0:0:
448,192,90557,1,0,0:0:0:0:
64,192,90724,1,0,0:0:0:0:
192,192,90724,1,0,0:0:0:0:
320,192,90891,1,0,0:0:0:0:
448,192,90891,1,0,0:0:0:0:
64,192,91057,1,0,0:0:0:0:
192,192,91057,1,0,0:0:0:0:
448,192,91224,128,0,91391:0:0:0:0:
64,192,91391,128,0,91724:0:0:0:0:
320,192,91724,1,0,0:0:0:0:
192,192,91891,1,0,0:0:0:0:
320,192,92057,1,0,0:0:0:0:
448,192,92224,1,0,0:0:0:0:
192,192,92391,1,0,0:0:0:0:
64,192,92557,1,0,0:0:0:0:
320,192,92724,1,0,0:0:0:0:
64,192,92891,1,0,0:0:0:0:
320,192,93057,1,0,0:0:0:0:
448,192,93057,1,0,0:0:0:0:
320,192,93224,1,0,0:0:0:0:
448,192,93224,1,0,0:0:0:0:
192,192,93391,1,0,0:0:0:0:
64,192,93557,1,0,0:0:0:0:
320,192,93724,1,0,0:0:0:0:
448,192,93891,1,0,0:0:0:0:
64,192,94057,1,0,0:0:0:0:
448,192,94224,1,0,0:0:0:0:
64,192,94391,1,0,0:0:0:0:
192,192,94391,1,0,0:0:0:0:
64,192,94557,1,0,0:0:0:0:
192,192,94557,1,0,0:0:0:0:
320,192,94724,1,0,0:0:0:0:
448,192,94891,1,0,0:0:0:0:
192,192,95057,1,0,0:0:0:0:
64,192,95224,1,0,0:0:0:0:
320,192,95391,1,0,0:0:0:0:
64,192,95557,1,0,0:0:0:0:
192,192,95724,1,0,0:0:0:0:
64,192,95891,1,0,0:0:0:0:
320,192,96057,1,0,0:0:0:0:
192,192,96224,1,0,0:0:0:0:
448,192,96391,1,0,0:0:0:0:
320,192,96557,1,0,0:0:0:0:
64,192,96724,1,0,0:0:0:0:
448,192,96891,1,0,0:0:0:0:
192,192,97057,1,0,0:0:0:0:
64,192,97224,1,0,0:0:0:0:
192,192,97391,1,0,0:0:0:0:
448,192,97391,1,0,0:0:0:0:
320,192,97557,1,0,0:0:0:0:
64,192,97724,1,0,0:0:0:0:
448,192,97891,1,0,0:0:0:0:
320,192,98057,1,0,0:0:0:0:
448,192,98224,1,0,0:0:0:0:
192,192,98391,1,0,0:0:0:0:
448,192,98557,1,0,0:0:0:0:
64,192,98724,1,0,0:0:0:0:
320,192,98724,1,0,0:0:0:0:
192,192,98891,1,0,0:0:0:0:
448,192,99057,1,0,0:0:0:0:
64,192,99224,1,0,0:0:0:0:
192,192,99391,1,0,0:0:0:0:
64,192,99557,1,0,0:0:0:0:
320,192,99724,1,0,0:0:0:0:
64,192,99891,1,0,0:0:0:0:
448,192,100057,128,0,100724:0:0:0:0:
192,192,100224,1,0,0:0:0:0:
320,192,100390,1,0,0:0:0:0:
64,192,100557,1,0,0:0:0:0:
192,192,100724,128,0,101390:0:0:0:0:
448,192,100890,1,0,0:0:0:0:
64,192,101057,1,0,0:0:0:0:
448,192,101224,1,0,0:0:0:0:
64,192,101391,128,0,101725:0:0:0:0:
320,192,101391,128,0,101725:0:0:0:0:
448,192,101725,128,0,102058:0:0:0:0:
192,192,101725,128,0,102058:0:0:0:0:
64,192,102058,128,0,102391:0:0:0:0:
320,192,102058,128,0,102391:0:0:0:0:
192,192,102391,128,0,102725:0:0:0:0:
448,192,102391,128,0,102725:0:0:0:0:
64,192,102725,1,0,0:0:0:0:
320,192,102725,1,0,0:0:0:0:
64,192,110724,5,0,0:0:0:0:
448,192,110724,1,0,0:0:0:0:
64,192,112057,128,0,112724:0:0:0:0:
448,192,112057,128,0,112724:0:0:0:0:
192,192,112724,128,0,113391:0:0:0:0:
320,192,112724,128,0,113391:0:0:0:0:
448,192,112891,1,0,0:0:0:0:
64,192,113057,1,0,0:0:0:0:
448,192,113224,1,0,0:0:0:0:
64,192,113391,128,0,113724:0:0:0:0:
448,192,113724,1,0,0:0:0:0:
320,192,113891,1,0,0:0:0:0:
448,192,114057,128,0,114391:0:0:0:0:
64,192,114391,1,0,0:0:0:0:
192,192,114557,1,0,0:0:0:0:
64,192,114724,128,0,115057:0:0:0:0:
448,192,114724,128,0,115057:0:0:0:0:
320,192,115057,1,0,0:0:0:0:
192,192,115057,1,0,0:0:0:0:
64,192,115224,1,0,0:0:0:0:
448,192,115224,1,0,0:0:0:0:
192,192,115391,1,0,0:0:0:0:
64,192,115557,1,0,0:0:0:0:
320,192,115724,1,0,0:0:0:0:
448,192,115891,1,0,0:0:0:0:
64,192,116057,1,0,0:0:0:0:
320,192,116057,1,0,0:0:0:0:
192,192,116224,1,0,0:0:0:0:
448,192,116391,1,0,0:0:0:0:
320,192,116557,1,0,0:0:0:0:
64,192,116724,1,0,0:0:0:0:
192,192,116724,1,0,0:0:0:0:
448,192,116891,1,0,0:0:0:0:
192,192,117057,1,0,0:0:0:0:
320,192,117224,128,0,117724:0:0:0:0:
448,192,117724,1,0,0:0:0:0:
192,192,117891,1,0,0:0:0:0:
64,192,118057,128,0,118391:0:0:0:0:
192,192,118391,1,0,0:0:0:0:
320,192,118557,1,0,0:0:0:0:
64,192,118724,128,0,118891:0:0:0:0:
192,192,118891,128,0,119057:0:0:0:0:
64,192,119057,128,0,119224:0:0:0:0:
192,192,119224,128,0,119391:0:0:0:0:
320,192,119391,128,0,119557:0:0:0:0:
448,192,119557,128,0,119724:0:0:0:0:
320,192,119724,128,0,119891:0:0:0:0:
448,192,119891,128,0,120057:0:0:0:0:
320,192,120057,128,0,120224:0:0:0:0:
64,192,120224,128,0,120557:0:0:0:0:
192,192,120557,128,0,120891:0:0:0:0:
448,192,120891,1,0,0:0:0:0:
320,192,121057,1,0,0:0:0:0:
192,192,121224,1,0,0:0:0:0:
64,192,121391,1,0,0:0:0:0:
320,192,121391,1,0,0:0:0:0:
192,192,121557,1,0,0:0:0:0:
320,192,121724,1,0,0:0:0:0:
192,192,121891,1,0,0:0:0:0:
448,192,121891,1,0,0:0:0:0:
320,192,122057,1,0,0:0:0:0:
192,192,122224,1,0,0:0:0:0:
64,192,122391,1,0,0:0:0:0:
320,192,122391,1,0,0:0:0:0:
192,192,122557,1,0,0:0:0:0:
64,192,122724,1,0,0:0:0:0:
448,192,122891,1,0,0:0:0:0:
192,192,122891,1,0,0:0:0:0:
320,192,123057,1,0,0:0:0:0:
448,192,123224,1,0,0:0:0:0:
64,192,123391,128,0,123724:0:0:0:0:
192,192,123391,128,0,123724:0:0:0:0:
448,192,123724,128,0,124057:0:0:0:0:
320,192,123724,128,0,124057:0:0:0:0:
192,192,124057,128,0,125057:0:0:0:0:
64,192,124057,1,0,0:0:0:0:
448,192,124391,1,0,0:0:0:0:
64,192,124557,1,0,0:0:0:0:
448,192,124891,1,0,0:0:0:0:
320,192,125057,1,0,0:0:0:0:
64,192,125224,1,0,0:0:0:0:
320,192,125391,128,0,126391:0:0:0:0:
448,192,125391,1,0,0:0:0:0:
64,192,125724,1,0,0:0:0:0:
448,192,125891,1,0,0:0:0:0:
64,192,126224,1,0,0:0:0:0:
192,192,126391,1,0,0:0:0:0:
448,192,126557,1,0,0:0:0:0:
64,192,126724,128,0,127724:0:0:0:0:
192,192,126891,1,0,0:0:0:0:
320,192,127057,1,0,0:0:0:0:
448,192,127224,1,0,0:0:0:0:
192,192,127391,1,0,0:0:0:0:
320,192,127557,1,0,0:0:0:0:
448,192,127724,1,0,0:0:0:0:
320,192,127891,1,0,0:0:0:0:
64,192,128057,1,0,0:0:0:0:
192,192,128224,1,0,0:0:0:0:
448,192,128391,1,0,0:0:0:0:
320,192,128557,1,0,0:0:0:0:
64,192,128724,128,0,129057:0:0:0:0:
320,192,128891,1,0,0:0:0:0:
448,192,129057,128,0,129391:0:0:0:0:
192,192,129057,128,0,129391:0:0:0:0:
64,192,129391,1,0,0:0:0:0:
320,192,129391,1,0,0:0:0:0:
320,192,129724,1,0,0:0:0:0:
64,192,129891,1,0,0:0:0:0:
448,192,130057,1,0,0:0:0:0:
320,192,130057,1,0,0:0:0:0:
192,192,130391,1,0,0:0:0:0:
448,192,130557,1,0,0:0:0:0:
192,192,130724,1,0,0:0:0:0:
64,192,130724,1,0,0:0:0:0:
448,192,131057,1,0,0:0:0:0:
64,192,131224,1,0,0:0:0:0:
320,192,131391,1,0,0:0:0:0:
192,192,131557,1,0,0:0:0:0:
64,192,131724,1,0,0:0:0:0:
448,192,131891,1,0,0:0:0:0:
320,192,132057,1,0,0:0:0:0:
448,192,132224,1,0,0:0:0:0:
192,192,132391,1,0,0:0:0:0:
320,192,132557,1,0,0:0:0:0:
64,192,132724,1,0,0:0:0:0:
192,192,132891,1,0,0:0:0:0:
64,192,133057,1,0,0:0:0:0:
320,192,133224,1,0,0:0:0:0:
192,192,133391,1,0,0:0:0:0:
448,192,133557,1,0,0:0:0:0:
64,192,133724,1,0,0:0:0:0:
320,192,133891,1,0,0:0:0:0:
64,192,134057,1,0,0:0:0:0:
320,192,134224,1,0,0:0:0:0:
192,192,134391,1,0,0:0:0:0:
448,192,134557,1,0,0:0:0:0:
64,192,134724,1,0,0:0:0:0:
320,192,134724,1,0,0:0:0:0:
64,192,144057,132,0,144724:0:0:0:0:
320,192,144224,1,0,0:0:0:0:
448,192,144391,1,0,0:0:0:0:
192,192,144557,1,0,0:0:0:0:
448,192,144724,128,0,145057:0:0:0:0:
320,192,145057,128,0,145391:0:0:0:0:
64,192,145391,128,0,145724:0:0:0:0:
448,192,145391,128,0,145724:0:0:0:0:
192,192,145724,1,0,0:0:0:0:
320,192,145891,1,0,0:0:0:0:
64,192,146057,128,0,146391:0:0:0:0:
448,192,146057,128,0,146391:0:0:0:0:
320,192,146391,128,0,146724:0:0:0:0:
192,192,146391,128,0,146724:0:0:0:0:
64,192,146724,128,0,147057:0:0:0:0:
448,192,146724,128,0,147057:0:0:0:0:
192,192,147057,1,0,0:0:0:0:
64,192,147224,1,0,0:0:0:0:
448,192,147391,1,0,0:0:0:0:
320,192,147391,1,0,0:0:0:0:
192,192,147557,1,0,0:0:0:0:
64,192,147724,1,0,0:0:0:0:
320,192,147891,1,0,0:0:0:0:
192,192,147891,1,0,0:0:0:0:
448,192,148057,128,0,148391:0:0:0:0:
64,192,148057,128,0,148391:0:0:0:0:
320,192,148391,1,0,0:0:0:0:
192,192,148557,1,0,0:0:0:0:
320,192,148724,128,0,149057:0:0:0:0:
448,192,148724,128,0,149057:0:0:0:0:
64,192,149057,128,0,149391:0:0:0:0:
192,192,149057,128,0,149391:0:0:0:0:
448,192,149391,1,0,0:0:0:0:
320,192,149391,1,0,0:0:0:0:
192,192,149557,1,0,0:0:0:0:
320,192,149724,1,0,0:0:0:0:
192,192,149891,1,0,0:0:0:0:
64,192,150057,128,0,150391:0:0:0:0:
448,192,150057,128,0,150391:0:0:0:0:
192,192,150391,1,0,0:0:0:0:
64,192,150557,1,0,0:0:0:0:
320,192,150724,1,0,0:0:0:0:
448,192,150724,1,0,0:0:0:0:
192,192,150891,1,0,0:0:0:0:
448,192,151057,1,0,0:0:0:0:
64,192,151224,1,0,0:0:0:0:
320,192,151391,128,0,151724:0:0:0:0:
448,192,151391,128,0,151724:0:0:0:0:
192,192,151724,128,0,152057:0:0:0:0:
64,192,151724,128,0,152057:0:0:0:0:
320,192,152057,1,0,0:0:0:0:
448,192,152057,1,0,0:0:0:0:
192,192,152224,1,0,0:0:0:0:
448,192,152391,1,0,0:0:0:0:
64,192,152557,1,0,0:0:0:0:
448,192,152724,1,0,0:0:0:0:
320,192,152724,1,0,0:0:0:0:
192,192,152891,1,0,0:0:0:0:
448,192,153057,1,0,0:0:0:0:
64,192,153224,1,0,0:0:0:0:
448,192,153391,1,0,0:0:0:0:
320,192,153391,1,0,0:0:0:0:
192,192,153557,1,0,0:0:0:0:
64,192,153724,128,0,154057:0:0:0:0:
448,192,153724,128,0,154057:0:0:0:0:
320,192,154057,128,0,154391:0:0:0:0:
192,192,154057,128,0,154391:0:0:0:0:
448,192,154391,128,0,154724:0:0:0:0:
64,192,154724,1,0,0:0:0:0:
192,192,154724,1,0,0:0:0:0:
320,192,154891,1,0,0:0:0:0:
448,192,154891,1,0,0:0:0:0:
64,192,155057,1,0,0:0:0:0:
192,192,155057,1,0,0:0:0:0:
320,192,155224,1,0,0:0:0:0:
448,192,155224,1,0,0:0:0:0:
192,192,155391,1,0,0:0:0:0:
64,192,155391,1,0,0:0:0:0:
320,192,155557,1,0,0:0:0:0:
64,192,155724,128,0,156057:0:0:0:0:
448,192,155724,128,0,156057:0:0:0:0:
192,192,156057,1,0,0:0:0:0:
320,192,156057,1,0,0:0:0:0:
448,192,156224,1,0,0:0:0:0:
320,192,156391,1,0,0:0:0:0:
448,192,156557,1,0,0:0:0:0:
192,192,156724,1,0,0:0:0:0:
64,192,156891,1,0,0:0:0:0:
320,192,157057,1,0,0:0:0:0:
192,192,157224,1,0,0:0:0:0:
320,192,157391,1,0,0:0:0:0:
64,192,157391,1,0,0:0:0:0:
448,192,157557,1,0,0:0:0:0:
320,192,157724,1,0,0:0:0:0:
64,192,157891,1,0,0:0:0:0:
192,192,158057,1,0,0:0:0:0:
64,192,158224,1,0,0:0:0:0:
320,192,158391,1,0,0:0:0:0:
448,192,158557,1,0,0:0:0:0:
64,192,158724,128,0,159057:0:0:0:0:
192,192,158891,1,0,0:0:0:0:
448,192,159057,128,0,159391:0:0:0:0:
320,192,159224,1,0,0:0:0:0:
64,192,159391,128,0,159724:0:0:0:0:
192,192,159557,1,0,0:0:0:0:
448,192,159724,1,0,0:0:0:0:
64,192,159891,1,0,0:0:0:0:
320,192,160057,1,0,0:0:0:0:
192,192,160224,1,0,0:0:0:0:
448,192,160391,1,0,0:0:0:0:
64,192,160557,1,0,0:0:0:0:
320,192,160724,1,0,0:0:0:0:
64,192,160891,1,0,0:0:0:0:
192,192,161057,1,0,0:0:0:0:
320,192,161224,1,0,0:0:0:0:
64,192,161391,1,0,0:0:0:0:
448,192,161391,1,0,0:0:0:0:
192,192,161557,1,0,0:0:0:0:
448,192,161724,1,0,0:0:0:0:
64,192,161891,1,0,0:0:0:0:
192,192,162057,128,0,162391:0:0:0:0:
320,192,162057,128,0,162391:0:0:0:0:
448,192,162391,1,0,0:0:0:0:
192,192,162557,1,0,0:0:0:0:
320,192,162724,1,0,0:0:0:0:
64,192,162891,1,0,0:0:0:0:
448,192,163057,1,0,0:0:0:0:
192,192,163224,1,0,0:0:0:0:
320,192,163391,1,0,0:0:0:0:
448,192,163557,1,0,0:0:0:0:
64,192,163724,1,0,0:0:0:0:
448,192,163891,1,0,0:0:0:0:
64,192,164057,128,0,164391:0:0:0:0:
192,192,164057,128,0,164391:0:0:0:0:
320,192,164391,128,0,164724:0:0:0:0:
448,192,164391,128,0,164724:0:0:0:0:
64,192,164724,128,0,165391:0:0:0:0:
448,192,164891,1,0,0:0:0:0:
320,192,165057,1,0,0:0:0:0:
192,192,165224,1,0,0:0:0:0:
448,192,165391,1,0,0:0:0:0:
320,192,165391,1,0,0:0:0:0:
192,192,165557,1,0,0:0:0:0:
64,192,165557,1,0,0:0:0:0:
448,192,165724,1,0,0:0:0:0:
320,192,165724,1,0,0:0:0:0:
192,192,165891,1,0,0:0:0:0:
64,192,165891,1,0,0:0:0:0:
448,192,166057,1,0,0:0:0:0:
320,192,166224,1,0,0:0:0:0:
192,192,166391,1,0,0:0:0:0:
64,192,166557,1,0,0:0:0:0:
192,192,168224,5,0,0:0:0:0:
320,192,168391,1,0,0:0:0:0:
448,192,168557,1,0,0:0:0:0:
64,192,168724,1,0,0:0:0:0:
192,192,168891,1,0,0:0:0:0:
320,192,169057,1,0,0:0:0:0:
448,192,169224,1,0,0:0:0:0:
64,192,169391,128,0,169724:0:0:0:0:
448,192,169724,1,0,0:0:0:0:
320,192,169891,1,0,0:0:0:0:
448,192,170057,128,0,170391:0:0:0:0:
64,192,170391,1,0,0:0:0:0:
192,192,170557,1,0,0:0:0:0:
64,192,170724,128,0,171057:0:0:0:0:
448,192,170724,128,0,171057:0:0:0:0:
192,192,171057,1,0,0:0:0:0:
320,192,171057,1,0,0:0:0:0:
448,192,171224,1,0,0:0:0:0:
64,192,171224,1,0,0:0:0:0:
192,192,171391,1,0,0:0:0:0:
64,192,171557,1,0,0:0:0:0:
320,192,171724,1,0,0:0:0:0:
448,192,171891,1,0,0:0:0:0:
64,192,172057,1,0,0:0:0:0:
320,192,172057,1,0,0:0:0:0:
192,192,172224,1,0,0:0:0:0:
448,192,172391,1,0,0:0:0:0:
320,192,172557,1,0,0:0:0:0:
64,192,172724,1,0,0:0:0:0:
192,192,172724,1,0,0:0:0:0:
448,192,172891,1,0,0:0:0:0:
192,192,173057,1,0,0:0:0:0:
320,192,173224,1,0,0:0:0:0:
64,192,173391,1,0,0:0:0:0:
192,192,173557,1,0,0:0:0:0:
320,192,173724,1,0,0:0:0:0:
448,192,173891,1,0,0:0:0:0:
320,192,174057,1,0,0:0:0:0:
448,192,174224,1,0,0:0:0:0:
192,192,174391,1,0,0:0:0:0:
320,192,174557,1,0,0:0:0:0:
64,192,174724,128,0,174891:0:0:0:0:
192,192,174891,128,0,175057:0:0:0:0:
64,192,175057,128,0,175224:0:0:0:0:
192,192,175224,128,0,175391:0:0:0:0:
320,192,175391,128,0,175557:0:0:0:0:
448,192,175557,128,0,175724:0:0:0:0:
320,192,175724,128,0,175891:0:0:0:0:
448,192,175891,128,0,176057:0:0:0:0:
320,192,176057,128,0,176224:0:0:0:0:
64,192,176224,128,0,176557:0:0:0:0:
192,192,176557,128,0,176891:0:0:0:0:
448,192,176891,1,0,0:0:0:0:
320,192,177057,1,0,0:0:0:0:
192,192,177224,1,0,0:0:0:0:
64,192,177391,1,0,0:0:0:0:
320,192,177391,1,0,0:0:0:0:
192,192,177557,1,0,0:0:0:0:
320,192,177724,1,0,0:0:0:0:
192,192,177891,1,0,0:0:0:0:
448,192,177891,1,0,0:0:0:0:
320,192,178057,1,0,0:0:0:0:
192,192,178224,1,0,0:0:0:0:
64,192,178391,1,0,0:0:0:0:
320,192,178391,1,0,0:0:0:0:
192,192,178557,1,0,0:0:0:0:
64,192,178724,1,0,0:0:0:0:
448,192,178891,1,0,0:0:0:0:
192,192,178891,1,0,0:0:0:0:
320,192,179057,1,0,0:0:0:0:
448,192,179224,1,0,0:0:0:0:
64,192,179391,128,0,179724:0:0:0:0:
192,192,179391,128,0,179724:0:0:0:0:
320,192,179724,128,0,180057:0:0:0:0:
448,192,179724,128,0,180057:0:0:0:0:
64,192,180057,1,0,0:0:0:0:
192,192,180057,128,0,181057:0:0:0:0:
448,192,180391,1,0,0:0:0:0:
64,192,180557,1,0,0:0:0:0:
448,192,180891,1,0,0:0:0:0:
320,192,181057,1,0,0:0:0:0:
64,192,181224,1,0,0:0:0:0:
320,192,181391,128,0,182391:0:0:0:0:
448,192,181391,1,0,0:0:0:0:
64,192,181724,1,0,0:0:0:0:
448,192,181891,1,0,0:0:0:0:
64,192,182224,1,0,0:0:0:0:
192,192,182391,1,0,0:0:0:0:
448,192,182557,1,0,0:0:0:0:
64,192,182724,128,0,183724:0:0:0:0:
192,192,182891,1,0,0:0:0:0:
320,192,183057,1,0,0:0:0:0:
448,192,183224,1,0,0:0:0:0:
192,192,183391,1,0,0:0:0:0:
320,192,183557,1,0,0:0:0:0:
448,192,183724,1,0,0:0:0:0:
320,192,183891,1,0,0:0:0:0:
64,192,184057,1,0,0:0:0:0:
192,192,184224,1,0,0:0:0:0:
448,192,184391,1,0,0:0:0:0:
320,192,184557,1,0,0:0:0:0:
64,192,184724,128,0,185057:0:0:0:0:
320,192,184891,1,0,0:0:0:0:
448,192,185057,128,0,185391:0:0:0:0:
192,192,185057,128,0,185391:0:0:0:0:
64,192,185391,1,0,0:0:0:0:
320,192,185391,1,0,0:0:0:0:
320,192,185724,1,0,0:0:0:0:
64,192,185891,1,0,0:0:0:0:
448,192,186057,1,0,0:0:0:0:
320,192,186057,1,0,0:0:0:0:
192,192,186391,1,0,0:0:0:0:
448,192,186557,1,0,0:0:0:0:
192,192,186724,1,0,0:0:0:0:
64,192,186724,1,0,0:0:0:0:
448,192,187057,1,0,0:0:0:0:
64,192,187224,1,0,0:0:0:0:
320,192,187391,1,0,0:0:0:0:
192,192,187557,1,0,0:0:0:0:
64,192,187724,1,0,0:0:0:0:
448,192,187891,1,0,0:0:0:0:
320,192,188057,1,0,0:0:0:0:
448,192,188224,1,0,0:0:0:0:
192,192,188391,1,0,0:0:0:0:
320,192,188557,1,0,0:0:0:0:
64,192,188724,1,0,0:0:0:0:
192,192,188891,1,0,0:0:0:0:
64,192,189057,1,0,0:0:0:0:
320,192,189224,1,0,0:0:0:0:
192,192,189391,1,0,0:0:0:0:
448,192,189557,1,0,0:0:0:0:
64,192,189724,1,0,0:0:0:0:
320,192,189891,1,0,0:0:0:0:
64,192,190057,1,0,0:0:0:0:
320,192,190224,1,0,0:0:0:0:
192,192,190391,1,0,0:0:0:0:
448,192,190557,1,0,0:0:0:0:
64,192,190724,1,0,0:0:0:0:
320,192,190724,1,0,0:0:0:0:
192,192,191057,1,0,0:0:0:0:
448,192,191057,1,0,0:0:0:0:
192,192,191391,1,0,0:0:0:0:
64,192,191391,1,0,0:0:0:0:
320,192,191557,1,0,0:0:0:0:
448,192,191557,1,0,0:0:0:0:
192,192,191724,1,0,0:0:0:0:
64,192,191724,1,0,0:0:0:0:
192,192,192057,1,0,0:0:0:0:
320,192,192057,1,0,0:0:0:0:
64,192,192391,1,0,0:0:0:0:
448,192,192391,1,0,0:0:0:0:
192,192,192557,1,0,0:0:0:0:
320,192,192557,1,0,0:0:0:0:
64,192,192724,1,0,0:0:0:0:
448,192,192724,1,0,0:0:0:0:
448,192,192891,1,0,0:0:0:0:
320,192,193057,1,0,0:0:0:0:
192,192,193224,1,0,0:0:0:0:
448,192,193391,1,0,0:0:0:0:
64,192,193391,1,0,0:0:0:0:
320,192,193391,1,0,0:0:0:0:
