osu file format v13

[General]
AudioFilename: Reol.mp3
AudioLeadIn: 0
PreviewTime: 56000
Countdown: 0
SampleSet: None
StackLeniency: 0.7
Mode: 1
LetterboxInBreaks: 0
WidescreenStoryboard: 1

[Editor]
DistanceSpacing: 0.5
BeatDivisor: 1
GridSize: 32
TimelineZoom: 1

[Metadata]
Title:+Danshi
TitleUnicode:+Danshi
Artist:Reol
ArtistUnicode:れをる
Creator:lZenxl
Version:Kantan
Source:
Tags:GigaP neonat Tagre Plus Boy Hinsvar Fort Papcio [I]MMoRTal[S] mike91lau Player_X Soldsaga_KunG Okoratu
BeatmapID:463383
BeatmapSetID:165991

[Difficulty]
HPDrainRate:2
CircleSize:2
OverallDifficulty:2
ApproachRate:5
SliderMultiplier:1.4
SliderTickRate:1

[Events]
//Background and Video events
0,0,"BG.png",0,0
Video,0,"new.avi"
//Break Periods
2,48257,56191
2,102924,112191
//Storyboard Layer 0 (Background)
//Storyboard Layer 1 (Fail)
//Storyboard Layer 2 (Pass)
//Storyboard Layer 3 (Foreground)
//Storyboard Sound Samples
//Background Colour Transformations
3,100,163,162,255

[TimingPoints]
12058,333.333333333333,4,1,0,100,1,0
14724,-100,4,1,0,100,0,0
56891,-100,4,1,0,100,0,0
57057,-100,4,1,0,100,0,0
57224,-100,4,1,0,100,0,0
57391,-100,4,1,0,100,0,1
67391,-100,4,1,0,100,0,0
68057,-100,4,1,0,100,0,1
78724,-100,4,1,0,100,0,0
112891,-100,4,1,0,100,0,0
113057,-100,4,1,0,100,0,0
113224,-100,4,1,0,100,0,0
113391,-100,4,1,0,100,0,1
123391,-100,4,1,0,100,0,0
124057,-100,4,1,0,100,0,1
134724,-100,4,1,0,100,0,0
145391,-100,4,1,0,100,0,1
145412,-100,4,1,0,100,0,0
166724,-100,4,1,0,100,0,0
168557,-100,4,1,0,100,0,0
168724,-100,4,1,0,100,0,0
168891,-100,4,1,0,100,0,0
169057,-100,4,1,0,100,0,0
169224,-100,4,1,0,100,0,0
169391,-100,4,1,0,100,0,1
179391,-100,4,1,0,100,0,0
180057,-100,4,1,0,100,0,1
190724,-100,4,1,0,100,0,0
214391,-100,4,1,0,59,0,0

[HitObjects]
256,192,13391,5,0,0:0:0:0:
256,192,13724,1,0,0:0:0:0:
256,192,14058,1,0,0:0:0:0:
256,192,14391,1,12,0:0:0:0:
256,192,14724,1,0,0:0:0:0:
256,192,15058,1,8,0:0:0:0:
256,192,15391,1,8,0:0:0:0:
256,192,15724,1,0,0:0:0:0:
256,192,16058,1,0,0:0:0:0:
256,192,16391,1,8,0:0:0:0:
256,192,17058,1,8,0:0:0:0:
256,192,17391,1,0,0:0:0:0:
256,192,17724,1,8,0:0:0:0:
256,192,18391,1,8,0:0:0:0:
256,192,18724,1,0,0:0:0:0:
256,192,19058,1,8,0:0:0:0:
256,192,19724,1,8,0:0:0:0:
256,192,20058,1,0,0:0:0:0:
256,192,20391,1,8,0:0:0:0:
256,192,20724,1,8,0:0:0:0:
256,192,21058,1,0,0:0:0:0:
256,192,21391,1,0,0:0:0:0:
256,192,21724,1,8,0:0:0:0:
256,192,22391,1,8,0:0:0:0:
256,192,22724,1,0,0:0:0:0:
256,192,22891,12,4,24057,0:0:0:0:
256,192,25391,5,4,0:0:0:0:
256,192,25724,1,8,0:0:0:0:
256,192,26057,1,0,0:0:0:0:
256,192,26391,1,8,0:0:0:0:
256,192,27057,1,8,0:0:0:0:
256,192,27391,1,8,0:0:0:0:
256,192,27724,1,8,0:0:0:0:
256,192,28057,1,0,0:0:0:0:
256,192,28391,1,8,0:0:0:0:
256,192,28724,1,0,0:0:0:0:
256,192,29057,1,8,0:0:0:0:
256,192,29391,1,0,0:0:0:0:
256,192,30057,1,12,0:0:0:0:
256,192,30724,1,0,0:0:0:0:
256,192,31057,1,0,0:0:0:0:
256,192,31391,1,8,0:0:0:0:
256,192,31724,1,8,0:0:0:0:
256,192,32057,1,0,0:0:0:0:
256,192,32391,1,8,0:0:0:0:
256,192,32724,1,0,0:0:0:0:
256,192,33391,1,0,0:0:0:0:
256,192,33724,1,0,0:0:0:0:
256,192,34057,1,0,0:0:0:0:
256,192,34391,1,8,0:0:0:0:
256,192,34724,12,0,35391,0:0:0:0:
256,192,36057,5,0,0:0:0:0:
256,192,36391,1,8,0:0:0:0:
256,192,37057,1,8,0:0:0:0:
256,192,37391,1,0,0:0:0:0:
256,192,37724,1,0,0:0:0:0:
256,192,38057,1,8,0:0:0:0:
256,192,38391,1,8,0:0:0:0:
256,192,38724,1,0,0:0:0:0:
256,192,39391,1,8,0:0:0:0:
256,192,39724,1,8,0:0:0:0:
256,192,40057,12,0,40724,0:0:0:0:
256,192,41391,5,0,0:0:0:0:
256,192,42057,1,8,0:0:0:0:
256,192,42391,1,8,0:0:0:0:
256,192,42724,1,0,0:0:0:0:
256,192,43391,1,8,0:0:0:0:
256,192,43724,1,8,0:0:0:0:
256,192,44057,1,0,0:0:0:0:
256,192,44391,1,0,0:0:0:0:
256,192,44724,1,8,0:0:0:0:
256,192,45391,1,8,0:0:0:0:
256,192,45724,1,8,0:0:0:0:
256,192,46057,1,0,0:0:0:0:
256,192,46391,1,8,0:0:0:0:
256,192,46724,12,0,48057,0:0:0:0:
256,192,57391,5,12,0:0:0:0:
256,192,57724,1,0,0:0:0:0:
256,192,58057,1,8,0:0:0:0:
256,192,58391,1,0,0:0:0:0:
256,192,58724,1,8,0:0:0:0:
256,192,59391,1,8,0:0:0:0:
256,192,59724,1,8,0:0:0:0:
256,192,60057,1,0,0:0:0:0:
256,192,60391,1,0,0:0:0:0:
256,192,60724,1,8,0:0:0:0:
256,192,61224,1,0,0:0:0:0:
224,192,61724,1,8,0:0:0:0:
256,192,62057,1,8,0:0:0:0:
256,192,62724,1,0,0:0:0:0:
256,192,63057,1,8,0:0:0:0:
256,192,63391,1,0,0:0:0:0:
256,192,63724,1,8,0:0:0:0:
256,192,64057,1,0,0:0:0:0:
256,192,64557,1,8,0:0:0:0:
256,192,65391,1,0,0:0:0:0:
256,192,65891,1,0,0:0:0:0:
256,192,66391,1,0,0:0:0:0:
256,192,66891,1,0,0:0:0:0:
256,192,67391,1,8,0:0:0:0:
256,192,67724,1,8,0:0:0:0:
256,192,68057,1,8,0:0:0:0:
256,192,68557,1,8,0:0:0:0:
256,192,69391,1,0,0:0:0:0:
256,192,69891,1,0,0:0:0:0:
256,192,70724,1,8,0:0:0:0:
256,192,71224,1,8,0:0:0:0:
256,192,72057,1,0,0:0:0:0:
256,192,72391,1,0,0:0:0:0:
256,192,72724,1,8,0:0:0:0:
256,192,73057,1,8,0:0:0:0:
256,192,73391,1,8,0:0:0:0:
256,192,74057,1,0,0:0:0:0:
256,192,74724,1,8,0:0:0:0:
256,192,75391,1,0,0:0:0:0:
256,192,75724,1,0,0:0:0:0:
256,192,76057,1,8,0:0:0:0:
256,192,76391,1,8,0:0:0:0:
256,192,76724,1,0,0:0:0:0:
256,192,77224,1,8,0:0:0:0:
256,192,77724,1,0,0:0:0:0:
256,192,78057,1,0,0:0:0:0:
256,192,78391,1,0,0:0:0:0:
256,192,78724,1,0,0:0:0:0:
256,192,81391,1,0,0:0:0:0:
256,192,81724,1,8,0:0:0:0:
256,192,82057,1,0,0:0:0:0:
256,192,82391,1,8,0:0:0:0:
256,192,82724,1,0,0:0:0:0:
256,192,83391,1,8,0:0:0:0:
256,192,83724,1,8,0:0:0:0:
256,192,84057,1,0,0:0:0:0:
256,192,84391,1,8,0:0:0:0:
256,192,84724,1,0,0:0:0:0:
256,192,85057,1,8,0:0:0:0:
256,192,85724,1,8,0:0:0:0:
256,192,86057,1,8,0:0:0:0:
256,192,86391,1,8,0:0:0:0:
256,192,86724,1,0,0:0:0:0:
256,192,87057,1,8,0:0:0:0:
256,192,87724,1,8,0:0:0:0:
256,192,88057,1,0,0:0:0:0:
256,192,88391,1,0,0:0:0:0:
256,192,88724,1,8,0:0:0:0:
256,192,89057,1,8,0:0:0:0:
256,192,89391,1,0,0:0:0:0:
256,192,89724,1,8,0:0:0:0:
256,192,90057,1,8,0:0:0:0:
256,192,90724,1,0,0:0:0:0:
256,192,91057,1,0,0:0:0:0:
256,192,91391,1,8,0:0:0:0:
256,192,91724,1,8,0:0:0:0:
256,192,92057,1,0,0:0:0:0:
256,192,92724,1,0,0:0:0:0:
256,192,93057,1,8,0:0:0:0:
256,192,93391,1,0,0:0:0:0:
256,192,94057,1,0,0:0:0:0:
256,192,94391,1,8,0:0:0:0:
256,192,94724,1,0,0:0:0:0:
256,192,95391,1,8,0:0:0:0:
256,192,95724,1,8,0:0:0:0:
256,192,96057,1,0,0:0:0:0:
256,192,96391,1,8,0:0:0:0:
256,192,97057,1,8,0:0:0:0:
256,192,97391,1,0,0:0:0:0:
256,192,97724,1,0,0:0:0:0:
256,192,98057,1,8,0:0:0:0:
256,192,98391,1,8,0:0:0:0:
256,192,98724,1,0,0:0:0:0:
256,192,99057,1,0,0:0:0:0:
256,192,99391,1,8,0:0:0:0:
256,192,99724,1,0,0:0:0:0:
256,192,100391,1,8,0:0:0:0:
256,192,100724,1,8,0:0:0:0:
256,192,101057,1,8,0:0:0:0:
256,192,101391,1,0,0:0:0:0:
256,192,101724,1,0,0:0:0:0:
256,192,102057,1,0,0:0:0:0:
256,192,102391,1,0,0:0:0:0:
256,192,102724,1,0,0:0:0:0:
256,192,113391,5,0,0:0:0:0:
256,192,114057,1,8,0:0:0:0:
256,192,114724,1,0,0:0:0:0:
256,192,115391,1,8,0:0:0:0:
256,192,115724,1,8,0:0:0:0:
256,192,116057,1,0,0:0:0:0:
256,192,116391,1,0,0:0:0:0:
256,192,116724,1,8,0:0:0:0:
256,192,117224,1,8,0:0:0:0:
256,192,117724,1,0,0:0:0:0:
256,192,118057,1,8,0:0:0:0:
256,192,118724,1,8,0:0:0:0:
256,192,119057,1,0,0:0:0:0:
256,192,119391,1,8,0:0:0:0:
256,192,119724,1,0,0:0:0:0:
256,192,120057,1,8,0:0:0:0:
256,192,120557,1,8,0:0:0:0:
256,192,121057,1,0,0:0:0:0:
256,192,121391,1,8,0:0:0:0:
256,192,121891,1,8,0:0:0:0:
256,192,122391,1,8,0:0:0:0:
256,192,122891,1,8,0:0:0:0:
256,192,123391,1,8,0:0:0:0:
256,192,123724,1,8,0:0:0:0:
256,192,124057,1,0,0:0:0:0:
256,192,124557,1,0,0:0:0:0:
256,192,125057,1,0,0:0:0:0:
256,192,125391,1,8,0:0:0:0:
256,192,125891,1,8,0:0:0:0:
256,192,126391,1,8,0:0:0:0:
256,192,126724,1,0,0:0:0:0:
256,192,127224,1,0,0:0:0:0:
256,192,127724,1,0,0:0:0:0:
256,192,128057,1,0,0:0:0:0:
256,192,128391,1,0,0:0:0:0:
256,192,128724,1,8,0:0:0:0:
256,192,129057,1,0,0:0:0:0:
256,192,129391,1,8,0:0:0:0:
256,192,130057,1,8,0:0:0:0:
256,192,130724,1,8,0:0:0:0:
256,192,131391,1,8,0:0:0:0:
256,192,131724,1,8,0:0:0:0:
256,192,132057,1,0,0:0:0:0:
256,192,132391,1,8,0:0:0:0:
256,192,132724,1,0,0:0:0:0:
256,192,133224,1,8,0:0:0:0:
256,192,133724,1,0,0:0:0:0:
256,192,134057,1,0,0:0:0:0:
256,192,134391,1,0,0:0:0:0:
256,192,134724,1,0,0:0:0:0:
256,192,135391,1,4,0:0:0:0:
256,192,136057,1,4,0:0:0:0:
256,192,136391,1,4,0:0:0:0:
256,192,136724,1,4,0:0:0:0:
256,192,137391,1,4,0:0:0:0:
256,192,138057,1,4,0:0:0:0:
256,192,138724,1,4,0:0:0:0:
256,192,139057,1,4,0:0:0:0:
256,192,139391,1,4,0:0:0:0:
256,192,139724,1,4,0:0:0:0:
256,192,140057,1,4,0:0:0:0:
256,192,140724,1,4,0:0:0:0:
256,192,141391,1,4,0:0:0:0:
256,192,141724,1,4,0:0:0:0:
256,192,142057,1,4,0:0:0:0:
256,192,142724,1,4,0:0:0:0:
256,192,143391,1,4,0:0:0:0:
256,192,144057,1,4,0:0:0:0:
256,192,144391,1,4,0:0:0:0:
256,192,144724,1,4,0:0:0:0:
256,192,145391,1,8,0:0:0:0:
256,192,145724,1,0,0:0:0:0:
256,192,146057,1,8,0:0:0:0:
256,192,146391,1,8,0:0:0:0:
256,192,146724,1,0,0:0:0:0:
256,192,147391,1,8,0:0:0:0:
256,192,147724,1,8,0:0:0:0:
256,192,148057,1,8,0:0:0:0:
256,192,148391,1,0,0:0:0:0:
256,192,148724,1,8,0:0:0:0:
256,192,149057,1,8,0:0:0:0:
256,192,149391,1,8,0:0:0:0:
256,192,150057,1,0,0:0:0:0:
256,192,150391,1,8,0:0:0:0:
256,192,150724,1,8,0:0:0:0:
256,192,151057,1,0,0:0:0:0:
256,192,151391,1,8,0:0:0:0:
256,192,151724,1,8,0:0:0:0:
256,192,152057,1,0,0:0:0:0:
256,192,152724,1,8,0:0:0:0:
256,192,153391,1,0,0:0:0:0:
256,192,153724,1,8,0:0:0:0:
256,192,154057,1,8,0:0:0:0:
256,192,154391,1,8,0:0:0:0:
256,192,154724,1,8,0:0:0:0:
256,192,155057,1,0,0:0:0:0:
256,192,155391,1,8,0:0:0:0:
256,192,156057,5,8,0:0:0:0:
256,192,156391,1,8,0:0:0:0:
256,192,156724,1,8,0:0:0:0:
256,192,157391,1,8,0:0:0:0:
256,192,157724,1,0,0:0:0:0:
256,192,158057,1,8,0:0:0:0:
256,192,158391,1,8,0:0:0:0:
256,192,158724,1,0,0:0:0:0:
256,192,159391,1,8,0:0:0:0:
256,192,160057,1,0,0:0:0:0:
256,192,160391,1,0,0:0:0:0:
256,192,160724,1,8,0:0:0:0:
256,192,161391,1,0,0:0:0:0:
256,192,162057,1,8,0:0:0:0:
256,192,162724,1,0,0:0:0:0:
256,192,163057,1,0,0:0:0:0:
256,192,163391,1,8,0:0:0:0:
256,192,164057,1,0,0:0:0:0:
256,192,164391,1,0,0:0:0:0:
256,192,164724,1,8,0:0:0:0:
256,192,165057,1,8,0:0:0:0:
256,192,165391,12,0,166557,0:0:0:0:
256,192,166724,5,0,0:0:0:0:
258,188,169391,5,0,0:0:0:0:
258,188,170057,1,8,0:0:0:0:
258,188,170724,1,0,0:0:0:0:
258,188,171391,1,8,0:0:0:0:
258,188,171724,1,8,0:0:0:0:
258,188,172057,1,0,0:0:0:0:
258,188,172391,1,0,0:0:0:0:
258,188,172724,1,8,0:0:0:0:
258,188,173224,1,8,0:0:0:0:
258,188,173724,1,0,0:0:0:0:
258,188,174057,1,8,0:0:0:0:
258,188,174391,1,8,0:0:0:0:
258,188,174724,1,0,0:0:0:0:
258,188,175057,1,8,0:0:0:0:
258,188,175724,1,8,0:0:0:0:
258,188,176057,1,0,0:0:0:0:
258,188,176557,1,8,0:0:0:0:
258,188,177057,1,8,0:0:0:0:
258,188,177391,1,8,0:0:0:0:
258,188,177891,1,0,0:0:0:0:
258,188,178391,1,8,0:0:0:0:
258,188,178891,1,0,0:0:0:0:
258,188,179391,1,8,0:0:0:0:
258,188,179724,1,8,0:0:0:0:
258,188,180057,1,8,0:0:0:0:
258,188,180557,1,8,0:0:0:0:
258,188,181057,1,0,0:0:0:0:
258,188,181391,1,0,0:0:0:0:
258,188,181891,1,0,0:0:0:0:
258,188,182391,1,8,0:0:0:0:
258,188,182724,1,8,0:0:0:0:
258,188,183224,1,8,0:0:0:0:
258,188,183724,1,0,0:0:0:0:
258,188,184057,1,0,0:0:0:0:
258,188,184724,1,8,0:0:0:0:
258,188,185057,1,8,0:0:0:0:
258,188,185391,5,8,0:0:0:0:
258,188,186057,1,0,0:0:0:0:
258,188,186724,1,8,0:0:0:0:
258,188,187391,1,0,0:0:0:0:
258,188,187724,1,0,0:0:0:0:
258,188,188057,1,0,0:0:0:0:
258,188,188724,1,8,0:0:0:0:
258,188,189224,1,8,0:0:0:0:
258,188,189724,1,0,0:0:0:0:
258,188,190057,1,0,0:0:0:0:
258,188,190391,1,0,0:0:0:0:
258,188,190724,1,0,0:0:0:0:
258,188,193391,1,0,0:0:0:0:
258,188,193724,1,8,0:0:0:0:
258,188,194057,1,8,0:0:0:0:
258,188,194391,1,0,0:0:0:0:
258,188,194724,1,0,0:0:0:0:
258,188,195057,1,8,0:0:0:0:
258,188,195724,1,8,0:0:0:0:
258,188,196057,1,0,0:0:0:0:
258,188,196391,1,8,0:0:0:0:
258,188,196724,1,0,0:0:0:0:
258,188,197057,1,8,0:0:0:0:
258,188,197391,1,8,0:0:0:0:
258,188,198057,1,8,0:0:0:0:
258,188,198724,1,0,0:0:0:0:
258,188,199057,1,8,0:0:0:0:
258,188,199391,1,0,0:0:0:0:
258,188,199724,1,8,0:0:0:0:
258,188,200057,1,8,0:0:0:0:
258,188,200391,1,8,0:0:0:0:
258,188,201057,1,8,0:0:0:0:
258,188,201391,1,0,0:0:0:0:
258,188,201724,1,8,0:0:0:0:
258,188,202057,1,0,0:0:0:0:
258,188,202391,1,8,0:0:0:0:
258,188,202724,1,8,0:0:0:0:
256,192,202891,12,12,203724,0:0:0:0:
258,188,204057,5,0,0:0:0:0:
258,188,204391,1,8,0:0:0:0:
258,188,205057,1,8,0:0:0:0:
258,188,205391,1,0,0:0:0:0:
258,188,205724,1,8,0:0:0:0:
258,188,206057,1,8,0:0:0:0:
258,188,206391,1,0,0:0:0:0:
258,188,206724,1,0,0:0:0:0:
258,188,207057,1,8,0:0:0:0:
258,188,207724,1,8,0:0:0:0:
258,188,208057,1,0,0:0:0:0:
258,188,208391,1,8,0:0:0:0:
258,188,209057,1,8,0:0:0:0:
258,188,209391,1,0,0:0:0:0:
258,188,209724,1,8,0:0:0:0:
258,188,210057,1,0,0:0:0:0:
258,188,210391,1,8,0:0:0:0:
258,188,210724,1,8,0:0:0:0:
258,188,211057,1,8,0:0:0:0:
258,188,211724,1,8,0:0:0:0:
258,188,212057,1,0,0:0:0:0:
256,192,212224,12,4,213057,0:0:0:0:
258,188,213391,5,0,0:0:0:0:
258,188,214391,1,8,0:0:0:0:
