osu file format v13

[General]
AudioFilename: Reol.mp3
AudioLeadIn: 0
PreviewTime: 56000
Countdown: 0
SampleSet: None
StackLeniency: 0.7
Mode: 1
LetterboxInBreaks: 0
WidescreenStoryboard: 0

[Editor]
Bookmarks: 156057
DistanceSpacing: 1.1
BeatDivisor: 4
GridSize: 32
TimelineZoom: 2.699999

[Metadata]
Title:+Danshi
TitleUnicode:+Danshi
Artist:Reol
ArtistUnicode:れをる
Creator:lZenxl
Version:IMT's Inner Oni
Source:
Tags:GigaP neonat Tagre Plus Boy Hinsvar Fort Papcio [I]MMoRTal[S] mike91lau Player_X Soldsaga_KunG Okoratu
BeatmapID:439529
BeatmapSetID:165991

[Difficulty]
HPDrainRate:5
CircleSize:5
OverallDifficulty:6
ApproachRate:9
SliderMultiplier:1.4
SliderTickRate:1

[Events]
//Background and Video events
0,0,"BG.png",0,0
Video,0,"new.avi"
//Break Periods
//Storyboard Layer 0 (Background)
//Storyboard Layer 1 (Fail)
//Storyboard Layer 2 (Pass)
//Storyboard Layer 3 (Foreground)
//Storyboard Sound Samples
//Background Colour Transformations
3,100,163,162,255

[TimingPoints]
12058,333.333333333333,4,1,0,70,1,0
56057,-100,4,1,0,40,0,0
57391,-100,4,1,0,80,0,1
67391,-100,4,1,0,80,0,0
68057,-100,4,1,0,80,0,1
78724,-100,4,1,0,80,0,0
80724,-100,4,1,0,60,0,0
81391,-100,4,1,0,80,0,0
102724,-100,4,1,0,60,0,0
112807,-100,4,1,0,60,0,0
113391,-100,4,1,0,80,0,1
123391,-100,4,1,0,80,0,0
124057,-100,4,1,0,80,0,1
134724,-100,4,1,0,60,0,0
145391,-100,4,1,0,100,0,1
145412,-100,4,1,0,80,0,0
166724,-100,4,1,0,30,0,0
169391,-100,4,1,0,80,0,1
179391,-100,4,1,0,80,0,0
180057,-100,4,1,0,80,0,1
190724,-100,4,1,0,80,0,0
193057,-100,4,1,0,80,0,0

[Colours]
Combo1 : 0,128,255
Combo2 : 255,0,0

[HitObjects]
256,192,10724,12,0,13224,0:0:0:0:
256,192,13391,5,8,0:0:0:0:
256,192,13724,1,8,0:0:0:0:
256,192,14058,1,8,0:0:0:0:
256,192,14224,1,8,0:0:0:0:
256,192,14391,1,4,0:0:0:0:
256,192,14724,1,0,0:0:0:0:
256,192,15058,1,8,0:0:0:0:
128,192,15224,1,0,0:0:0:0:
192,192,15308,1,0,0:0:0:0:
256,192,15391,1,0,0:0:0:0:
224,160,15558,1,8,0:0:0:0:
256,256,15724,1,0,0:0:0:0:
256,320,15891,1,8,0:0:0:0:
256,192,16058,1,0,0:0:0:0:
128,192,16224,1,0,0:0:0:0:
192,192,16308,1,8,0:0:0:0:
256,192,16391,1,0,0:0:0:0:
320,192,16558,1,8,0:0:0:0:
256,192,16724,1,0,0:0:0:0:
384,192,16891,1,8,0:0:0:0:
256,192,17058,1,0,0:0:0:0:
320,128,17141,1,0,0:0:0:0:
256,128,17224,1,0,0:0:0:0:
256,64,17308,1,8,0:0:0:0:
256,192,17391,1,0,0:0:0:0:
256,256,17558,1,0,0:0:0:0:
256,192,17724,1,0,0:0:0:0:
384,256,17808,1,0,0:0:0:0:
448,256,17891,1,8,0:0:0:0:
320,256,17974,1,8,0:0:0:0:
256,192,18058,1,0,0:0:0:0:
192,192,18224,1,8,0:0:0:0:
256,192,18391,1,0,0:0:0:0:
320,192,18558,1,8,0:0:0:0:
256,192,18724,1,0,0:0:0:0:
448,192,18808,1,0,0:0:0:0:
384,192,18891,1,8,0:0:0:0:
320,192,18974,1,8,0:0:0:0:
256,192,19058,1,0,0:0:0:0:
192,192,19224,1,0,0:0:0:0:
256,192,19391,1,0,0:0:0:0:
256,256,19474,1,8,0:0:0:0:
320,256,19558,1,0,0:0:0:0:
384,256,19641,1,8,0:0:0:0:
256,192,19724,1,0,0:0:0:0:
128,320,19891,1,2,0:0:0:0:
160,320,19946,1,2,0:0:0:0:
192,320,20002,1,2,0:0:0:0:
256,192,20058,1,0,0:0:0:0:
192,192,20224,1,0,0:0:0:0:
256,192,20391,1,0,0:0:0:0:
128,192,20558,1,0,0:0:0:0:
192,192,20641,1,8,0:0:0:0:
256,192,20724,1,0,0:0:0:0:
128,192,20891,1,8,0:0:0:0:
256,192,21058,1,0,0:0:0:0:
128,192,21224,1,8,0:0:0:0:
192,192,21308,1,8,0:0:0:0:
256,192,21391,1,0,0:0:0:0:
128,192,21558,1,0,0:0:0:0:
192,192,21641,1,0,0:0:0:0:
256,192,21724,1,0,0:0:0:0:
192,192,21891,1,8,0:0:0:0:
256,192,22058,1,0,0:0:0:0:
192,192,22224,1,8,0:0:0:0:
256,192,22391,1,0,0:0:0:0:
192,192,22558,1,0,0:0:0:0:
256,192,22724,1,0,0:0:0:0:
256,256,22891,1,8,0:0:0:0:
320,256,22974,1,0,0:0:0:0:
256,192,23057,1,0,0:0:0:0:
448,256,23224,1,8,0:0:0:0:
512,256,23307,1,8,0:0:0:0:
256,192,23391,1,0,0:0:0:0:
320,128,23557,1,8,0:0:0:0:
352,96,23613,1,8,0:0:0:0:
384,64,23669,1,8,0:0:0:0:
416,32,23724,1,0,0:0:0:0:
448,64,23807,1,8,0:0:0:0:
448,128,23891,1,8,0:0:0:0:
448,192,23974,1,8,0:0:0:0:
448,256,24057,1,0,0:0:0:0:
256,192,24224,1,8,0:0:0:0:
256,192,24391,1,0,0:0:0:0:
256,192,24557,1,0,0:0:0:0:
256,192,24724,1,8,0:0:0:0:
256,192,24891,1,12,0:0:0:0:
256,192,25057,1,4,0:0:0:0:
256,192,25224,1,4,0:0:0:0:
256,192,25391,1,0,0:0:0:0:
32,96,25474,1,8,0:0:0:0:
32,160,25557,1,8,0:0:0:0:
32,224,25641,1,0,0:0:0:0:
32,288,25724,1,0,0:0:0:0:
96,160,25891,1,8,0:0:0:0:
96,288,26057,1,0,0:0:0:0:
160,160,26224,1,0,0:0:0:0:
160,288,26391,1,0,0:0:0:0:
224,160,26557,1,8,0:0:0:0:
224,288,26724,1,0,0:0:0:0:
288,160,26891,1,8,0:0:0:0:
288,224,26974,1,8,0:0:0:0:
288,288,27057,1,0,0:0:0:0:
352,160,27224,1,8,0:0:0:0:
352,288,27391,1,0,0:0:0:0:
416,160,27557,1,8,0:0:0:0:
416,224,27641,1,8,0:0:0:0:
416,288,27724,1,0,0:0:0:0:
480,160,27891,1,8,0:0:0:0:
480,224,27974,1,0,0:0:0:0:
480,288,28057,1,0,0:0:0:0:
32,160,28224,1,8,0:0:0:0:
32,224,28307,1,8,0:0:0:0:
32,288,28391,1,0,0:0:0:0:
96,160,28557,1,8,0:0:0:0:
96,288,28724,1,0,0:0:0:0:
160,160,28891,1,0,0:0:0:0:
160,224,28974,1,8,0:0:0:0:
160,288,29058,1,0,0:0:0:0:
224,160,29224,1,8,0:0:0:0:
224,288,29391,1,0,0:0:0:0:
288,160,29557,1,8,0:0:0:0:
288,224,29641,1,0,0:0:0:0:
288,288,29724,1,0,0:0:0:0:
352,96,29807,1,10,0:0:0:0:
352,160,29891,1,10,0:0:0:0:
352,224,29974,1,10,0:0:0:0:
352,288,30058,1,0,0:0:0:0:
416,160,30224,1,0,0:0:0:0:
416,224,30307,1,8,0:0:0:0:
416,288,30391,1,0,0:0:0:0:
480,160,30557,1,0,0:0:0:0:
480,288,30724,1,0,0:0:0:0:
32,160,30891,1,8,0:0:0:0:
32,288,31057,1,0,0:0:0:0:
96,160,31224,1,8,0:0:0:0:
96,288,31390,1,0,0:0:0:0:
160,160,31557,1,8,0:0:0:0:
160,224,31641,1,8,0:0:0:0:
160,288,31724,1,0,0:0:0:0:
224,96,31807,1,8,0:0:0:0:
224,160,31891,1,8,0:0:0:0:
224,224,31974,1,0,0:0:0:0:
224,288,32057,1,0,0:0:0:0:
288,160,32224,1,8,0:0:0:0:
288,224,32307,1,8,0:0:0:0:
288,288,32390,1,0,0:0:0:0:
352,160,32557,1,8,0:0:0:0:
352,288,32724,1,0,0:0:0:0:
416,160,32891,1,8,0:0:0:0:
416,224,32974,1,8,0:0:0:0:
416,288,33057,1,0,0:0:0:0:
480,160,33224,1,8,0:0:0:0:
480,224,33307,1,8,0:0:0:0:
480,288,33390,1,0,0:0:0:0:
32,160,33557,1,8,0:0:0:0:
32,288,33724,1,0,0:0:0:0:
96,160,33891,1,8,0:0:0:0:
96,288,34057,1,0,0:0:0:0:
160,160,34224,1,8,0:0:0:0:
160,224,34307,1,8,0:0:0:0:
160,288,34391,1,0,0:0:0:0:
224,96,34474,1,0,0:0:0:0:
224,160,34557,1,8,0:0:0:0:
224,288,34724,1,0,0:0:0:0:
288,160,34891,1,8,0:0:0:0:
288,288,35057,1,0,0:0:0:0:
352,160,35224,1,0,0:0:0:0:
352,288,35391,1,0,0:0:0:0:
416,160,35557,1,8,0:0:0:0:
416,224,35641,1,8,0:0:0:0:
416,288,35724,1,0,0:0:0:0:
480,160,35891,1,8,0:0:0:0:
480,288,36057,1,0,0:0:0:0:
32,96,36141,1,0,0:0:0:0:
32,160,36224,1,8,0:0:0:0:
32,224,36307,1,8,0:0:0:0:
32,288,36391,1,0,0:0:0:0:
96,160,36557,1,0,0:0:0:0:
96,288,36724,1,0,0:0:0:0:
160,160,36891,1,8,0:0:0:0:
160,288,37058,1,0,0:0:0:0:
224,160,37224,1,8,0:0:0:0:
224,288,37391,1,0,0:0:0:0:
288,160,37557,1,0,0:0:0:0:
288,224,37641,1,8,0:0:0:0:
288,288,37724,1,0,0:0:0:0:
352,160,37891,1,8,0:0:0:0:
352,288,38058,1,0,0:0:0:0:
416,160,38224,1,8,0:0:0:0:
416,224,38307,1,8,0:0:0:0:
416,288,38391,1,0,0:0:0:0:
480,160,38557,1,8,0:0:0:0:
480,288,38724,1,0,0:0:0:0:
32,160,38891,1,0,0:0:0:0:
32,224,38974,1,8,0:0:0:0:
32,288,39057,1,0,0:0:0:0:
96,160,39224,1,8,0:0:0:0:
96,288,39390,1,0,0:0:0:0:
160,160,39557,1,0,0:0:0:0:
160,288,39724,1,0,0:0:0:0:
224,160,39891,1,8,0:0:0:0:
224,288,40057,1,0,0:0:0:0:
288,160,40224,1,8,0:0:0:0:
288,288,40390,1,0,0:0:0:0:
352,160,40557,1,8,0:0:0:0:
352,224,40641,1,0,0:0:0:0:
352,288,40724,1,0,0:0:0:0:
416,96,40807,1,0,0:0:0:0:
416,160,40891,1,8,0:0:0:0:
416,224,40974,1,8,0:0:0:0:
416,288,41057,1,0,0:0:0:0:
480,160,41224,1,0,0:0:0:0:
480,288,41390,1,0,0:0:0:0:
32,160,41557,1,8,0:0:0:0:
32,288,41724,1,0,0:0:0:0:
96,160,41891,1,8,0:0:0:0:
96,288,42057,1,0,0:0:0:0:
160,96,42141,1,8,0:0:0:0:
160,160,42224,1,8,0:0:0:0:
160,224,42307,1,0,0:0:0:0:
160,288,42391,1,0,0:0:0:0:
224,96,42474,1,8,0:0:0:0:
224,160,42557,1,8,0:0:0:0:
224,224,42641,1,0,0:0:0:0:
224,288,42724,1,0,0:0:0:0:
288,160,42891,1,0,0:0:0:0:
288,224,42974,1,8,0:0:0:0:
288,288,43057,1,0,0:0:0:0:
352,160,43224,1,8,0:0:0:0:
352,288,43391,1,0,0:0:0:0:
416,160,43557,1,8,0:0:0:0:
416,224,43641,1,8,0:0:0:0:
416,288,43724,1,0,0:0:0:0:
480,160,43891,1,8,0:0:0:0:
480,224,43974,1,8,0:0:0:0:
480,288,44057,1,0,0:0:0:0:
32,160,44224,1,0,0:0:0:0:
32,224,44307,1,8,0:0:0:0:
32,288,44391,1,0,0:0:0:0:
96,160,44557,1,0,0:0:0:0:
96,288,44724,1,0,0:0:0:0:
160,160,44891,1,8,0:0:0:0:
160,288,45058,1,0,0:0:0:0:
224,160,45224,1,8,0:0:0:0:
224,288,45391,1,0,0:0:0:0:
288,96,45474,1,8,0:0:0:0:
288,160,45557,1,8,0:0:0:0:
288,224,45641,1,0,0:0:0:0:
288,288,45724,1,0,0:0:0:0:
352,160,45891,1,8,0:0:0:0:
352,288,46058,1,0,0:0:0:0:
416,96,46141,1,8,0:0:0:0:
416,160,46224,1,8,0:0:0:0:
416,224,46307,1,8,0:0:0:0:
416,288,46391,1,0,0:0:0:0:
480,96,46474,1,0,0:0:0:0:
480,160,46557,1,0,0:0:0:0:
480,224,46641,1,8,0:0:0:0:
480,288,46724,1,0,0:0:0:0:
256,192,49391,1,4,0:0:0:0:
160,32,51724,1,8,0:0:0:0:
384,64,51807,1,8,0:0:0:0:
32,96,51891,1,8,0:0:0:0:
480,128,51974,1,8,0:0:0:0:
256,192,52057,1,0,0:0:0:0:
256,192,54724,1,4,0:0:0:0:
256,192,56057,1,0,0:0:0:0:
64,32,56891,1,8,0:0:0:0:
192,32,57057,1,8,0:0:0:0:
448,32,57224,1,8,0:0:0:0:
320,32,57391,1,4,0:0:0:0:
320,96,57557,1,0,0:0:0:0:
320,160,57641,1,8,0:0:0:0:
64,64,57724,1,0,0:0:0:0:
128,64,57807,1,0,0:0:0:0:
192,64,57891,1,8,0:0:0:0:
256,64,57974,1,8,0:0:0:0:
64,128,58057,1,0,0:0:0:0:
128,128,58224,1,8,0:0:0:0:
192,128,58307,1,8,0:0:0:0:
64,192,58391,1,0,0:0:0:0:
128,192,58557,1,8,0:0:0:0:
64,256,58724,1,0,0:0:0:0:
128,256,58807,1,8,0:0:0:0:
192,256,58891,1,0,0:0:0:0:
256,256,58974,1,8,0:0:0:0:
64,320,59057,1,0,0:0:0:0:
128,320,59224,1,0,0:0:0:0:
192,320,59307,1,8,0:0:0:0:
448,64,59391,1,0,0:0:0:0:
384,64,59557,1,8,0:0:0:0:
448,128,59724,1,0,0:0:0:0:
416,128,59807,1,0,0:0:0:0:
384,128,59891,1,8,0:0:0:0:
352,128,59974,1,8,0:0:0:0:
448,192,60058,1,0,0:0:0:0:
384,192,60224,1,8,0:0:0:0:
320,192,60307,1,8,0:0:0:0:
448,256,60391,1,0,0:0:0:0:
384,256,60557,1,0,0:0:0:0:
320,256,60641,1,8,0:0:0:0:
448,320,60724,1,0,0:0:0:0:
384,320,60891,1,8,0:0:0:0:
320,320,60974,1,8,0:0:0:0:
64,64,61057,1,0,0:0:0:0:
256,320,61141,1,0,0:0:0:0:
128,64,61224,1,8,0:0:0:0:
192,64,61307,1,0,0:0:0:0:
64,128,61390,1,0,0:0:0:0:
128,128,61557,1,8,0:0:0:0:
192,128,61641,1,8,0:0:0:0:
64,192,61724,1,0,0:0:0:0:
128,192,61891,1,0,0:0:0:0:
192,192,61974,1,8,0:0:0:0:
64,256,62057,1,8,0:0:0:0:
256,192,62141,1,0,0:0:0:0:
320,192,62224,1,0,0:0:0:0:
384,192,62307,1,8,0:0:0:0:
64,320,62390,1,0,0:0:0:0:
128,320,62474,1,0,0:0:0:0:
192,320,62557,1,8,0:0:0:0:
448,64,62724,1,0,0:0:0:0:
384,64,62891,1,8,0:0:0:0:
320,64,62975,1,8,0:0:0:0:
448,128,63057,1,0,0:0:0:0:
384,128,63224,1,8,0:0:0:0:
320,128,63307,1,8,0:0:0:0:
448,192,63391,1,0,0:0:0:0:
384,192,63557,1,8,0:0:0:0:
320,192,63640,1,8,0:0:0:0:
448,256,63724,1,0,0:0:0:0:
384,256,63891,1,0,0:0:0:0:
320,256,63975,1,8,0:0:0:0:
448,320,64057,1,0,0:0:0:0:
384,320,64141,1,8,0:0:0:0:
320,320,64224,1,8,0:0:0:0:
256,320,64307,1,8,0:0:0:0:
64,64,64391,1,0,0:0:0:0:
128,64,64474,1,0,0:0:0:0:
192,64,64557,1,8,0:0:0:0:
64,128,64724,1,0,0:0:0:0:
128,128,64807,1,0,0:0:0:0:
192,128,64891,1,8,0:0:0:0:
256,128,64974,1,8,0:0:0:0:
64,192,65058,1,0,0:0:0:0:
128,192,65224,1,8,0:0:0:0:
64,256,65391,1,0,0:0:0:0:
128,256,65557,1,8,0:0:0:0:
64,320,65724,1,0,0:0:0:0:
128,320,65891,1,8,0:0:0:0:
448,64,66058,1,0,0:0:0:0:
384,64,66224,1,0,0:0:0:0:
448,128,66391,1,8,0:0:0:0:
384,128,66557,1,0,0:0:0:0:
448,192,66724,1,4,0:0:0:0:
384,192,66891,1,8,0:0:0:0:
448,256,67057,1,4,0:0:0:0:
384,288,67224,1,8,0:0:0:0:
448,320,67391,1,8,0:0:0:0:
416,320,67446,1,8,0:0:0:0:
384,320,67502,1,8,0:0:0:0:
352,320,67557,1,0,0:0:0:0:
256,192,67724,1,12,0:0:0:0:
256,192,68057,1,4,0:0:0:0:
64,192,68224,1,8,0:0:0:0:
64,128,68307,1,8,0:0:0:0:
64,64,68391,1,0,0:0:0:0:
160,192,68557,1,8,0:0:0:0:
160,64,68724,1,0,0:0:0:0:
256,192,68891,1,0,0:0:0:0:
256,128,68974,1,8,0:0:0:0:
256,64,69057,1,0,0:0:0:0:
352,192,69224,1,0,0:0:0:0:
352,64,69391,1,0,0:0:0:0:
448,256,69474,1,8,0:0:0:0:
448,192,69557,1,8,0:0:0:0:
448,128,69641,1,0,0:0:0:0:
448,64,69724,1,0,0:0:0:0:
64,256,69807,1,0,0:0:0:0:
64,192,69891,1,8,0:0:0:0:
64,128,69974,1,8,0:0:0:0:
64,320,70057,1,0,0:0:0:0:
160,192,70224,1,8,0:0:0:0:
160,320,70390,1,0,0:0:0:0:
256,128,70474,1,8,0:0:0:0:
256,192,70557,1,0,0:0:0:0:
256,320,70723,1,0,0:0:0:0:
352,128,70807,1,8,0:0:0:0:
352,192,70891,1,8,0:0:0:0:
352,256,70974,1,0,0:0:0:0:
352,320,71057,1,0,0:0:0:0:
448,128,71141,1,8,0:0:0:0:
448,192,71224,1,8,0:0:0:0:
448,256,71307,1,0,0:0:0:0:
448,320,71390,1,0,0:0:0:0:
64,192,71557,1,8,0:0:0:0:
64,64,71724,1,0,0:0:0:0:
160,192,71891,1,0,0:0:0:0:
160,64,72057,1,0,0:0:0:0:
256,192,72224,1,8,0:0:0:0:
256,64,72390,1,0,0:0:0:0:
352,192,72557,1,8,0:0:0:0:
352,64,72724,1,0,0:0:0:0:
448,192,72891,1,0,0:0:0:0:
448,64,73057,1,0,0:0:0:0:
64,128,73141,1,0,0:0:0:0:
64,192,73224,1,0,0:0:0:0:
64,256,73307,1,8,0:0:0:0:
64,320,73390,1,0,0:0:0:0:
160,192,73557,1,0,0:0:0:0:
160,256,73641,1,8,0:0:0:0:
160,320,73723,1,0,0:0:0:0:
256,192,73891,1,8,0:0:0:0:
256,320,74056,1,0,0:0:0:0:
352,192,74224,1,8,0:0:0:0:
352,256,74307,1,8,0:0:0:0:
352,320,74390,1,0,0:0:0:0:
448,192,74557,1,0,0:0:0:0:
448,256,74641,1,8,0:0:0:0:
448,320,74723,1,0,0:0:0:0:
64,256,74807,1,0,0:0:0:0:
64,192,74891,1,8,0:0:0:0:
64,128,74974,1,8,0:0:0:0:
64,64,75057,1,0,0:0:0:0:
160,192,75224,1,8,0:0:0:0:
160,64,75390,1,0,0:0:0:0:
256,192,75557,1,0,0:0:0:0:
256,64,75723,1,0,0:0:0:0:
352,192,75891,1,8,0:0:0:0:
352,64,76057,1,0,0:0:0:0:
448,192,76224,1,8,0:0:0:0:
448,64,76390,1,0,0:0:0:0:
64,192,76557,1,8,0:0:0:0:
64,320,76723,1,0,0:0:0:0:
160,192,76891,1,8,0:0:0:0:
160,256,76974,1,8,0:0:0:0:
160,320,77056,1,0,0:0:0:0:
256,128,77141,1,8,0:0:0:0:
256,192,77224,1,8,0:0:0:0:
256,256,77307,1,0,0:0:0:0:
256,320,77389,1,0,0:0:0:0:
352,192,77557,1,8,0:0:0:0:
352,256,77641,1,8,0:0:0:0:
352,320,77723,1,0,0:0:0:0:
448,192,77891,1,8,0:0:0:0:
448,320,78056,1,0,0:0:0:0:
352,256,78224,1,8,0:0:0:0:
256,192,78391,1,0,0:0:0:0:
160,128,78557,1,8,0:0:0:0:
64,64,78724,1,0,0:0:0:0:
256,192,79057,1,0,0:0:0:0:
256,192,79391,1,8,0:0:0:0:
256,192,79557,1,0,0:0:0:0:
256,192,79724,1,12,0:0:0:0:
256,192,79891,1,8,0:0:0:0:
256,192,80057,1,8,0:0:0:0:
256,192,80224,1,0,0:0:0:0:
256,192,80391,1,4,0:0:0:0:
256,192,80557,1,0,0:0:0:0:
256,192,80724,1,8,0:0:0:0:
320,192,80891,1,4,0:0:0:0:
256,96,81057,1,4,0:0:0:0:
192,192,81224,1,4,0:0:0:0:
256,288,81391,1,4,0:0:0:0:
32,32,81557,1,8,0:0:0:0:
96,32,81641,1,8,0:0:0:0:
416,96,81724,1,0,0:0:0:0:
32,224,81891,1,8,0:0:0:0:
416,96,82057,1,0,0:0:0:0:
96,224,82141,1,0,0:0:0:0:
160,224,82224,1,8,0:0:0:0:
224,224,82307,1,8,0:0:0:0:
416,96,82391,1,0,0:0:0:0:
32,96,82557,1,8,0:0:0:0:
96,96,82641,1,0,0:0:0:0:
416,96,82724,1,0,0:0:0:0:
32,160,82891,1,8,0:0:0:0:
96,160,82974,1,8,0:0:0:0:
416,96,83057,1,0,0:0:0:0:
160,32,83224,1,8,0:0:0:0:
416,96,83391,1,0,0:0:0:0:
288,224,83474,1,0,0:0:0:0:
160,96,83557,1,8,0:0:0:0:
224,96,83641,1,8,0:0:0:0:
416,96,83724,1,0,0:0:0:0:
352,224,83807,1,0,0:0:0:0:
160,160,83891,1,8,0:0:0:0:
224,160,83974,1,8,0:0:0:0:
416,96,84057,1,0,0:0:0:0:
32,224,84224,1,8,0:0:0:0:
416,96,84391,1,0,0:0:0:0:
96,224,84557,1,0,0:0:0:0:
416,96,84724,1,0,0:0:0:0:
160,224,84891,1,8,0:0:0:0:
416,96,85057,1,0,0:0:0:0:
224,224,85224,1,8,0:0:0:0:
416,96,85391,1,0,0:0:0:0:
32,288,85474,1,0,0:0:0:0:
96,288,85557,1,8,0:0:0:0:
160,288,85641,1,8,0:0:0:0:
416,96,85724,1,0,0:0:0:0:
96,352,85807,1,8,0:0:0:0:
160,352,85891,1,8,0:0:0:0:
224,352,85974,1,8,0:0:0:0:
416,96,86057,1,0,0:0:0:0:
288,224,86141,1,0,0:0:0:0:
96,224,86224,1,8,0:0:0:0:
160,224,86307,1,8,0:0:0:0:
416,96,86391,1,0,0:0:0:0:
224,224,86557,1,0,0:0:0:0:
416,96,86724,1,0,0:0:0:0:
352,224,86891,1,8,0:0:0:0:
416,96,87057,1,0,0:0:0:0:
416,224,87224,1,0,0:0:0:0:
416,96,87391,1,0,0:0:0:0:
480,224,87557,1,8,0:0:0:0:
416,96,87724,1,0,0:0:0:0:
32,32,87891,1,8,0:0:0:0:
416,96,88057,1,0,0:0:0:0:
32,96,88224,1,0,0:0:0:0:
96,96,88307,1,8,0:0:0:0:
416,96,88391,1,0,0:0:0:0:
32,160,88557,1,8,0:0:0:0:
416,96,88724,1,0,0:0:0:0:
160,32,88891,1,8,0:0:0:0:
224,32,88974,1,8,0:0:0:0:
416,96,89057,1,0,0:0:0:0:
160,96,89224,1,8,0:0:0:0:
224,96,89307,1,8,0:0:0:0:
416,96,89391,1,0,0:0:0:0:
160,224,89474,1,0,0:0:0:0:
224,224,89557,1,8,0:0:0:0:
288,224,89641,1,0,0:0:0:0:
416,96,89724,1,0,0:0:0:0:
160,288,89891,1,8,0:0:0:0:
224,288,89974,1,8,0:0:0:0:
416,96,90057,1,0,0:0:0:0:
288,288,90141,1,8,0:0:0:0:
352,288,90224,1,8,0:0:0:0:
416,288,90307,1,0,0:0:0:0:
416,96,90391,1,0,0:0:0:0:
160,352,90557,1,8,0:0:0:0:
224,352,90641,1,0,0:0:0:0:
416,96,90724,1,0,0:0:0:0:
32,224,90891,1,8,0:0:0:0:
96,224,90974,1,8,0:0:0:0:
416,96,91057,1,0,0:0:0:0:
160,224,91224,1,8,0:0:0:0:
416,96,91391,1,0,0:0:0:0:
224,224,91557,1,0,0:0:0:0:
416,96,91724,1,0,0:0:0:0:
320,224,91807,1,8,0:0:0:0:
384,224,91891,1,8,0:0:0:0:
448,224,91974,1,8,0:0:0:0:
416,96,92057,1,0,0:0:0:0:
32,288,92224,1,8,0:0:0:0:
416,96,92391,1,0,0:0:0:0:
96,288,92557,1,8,0:0:0:0:
416,96,92724,1,0,0:0:0:0:
32,32,92891,1,0,0:0:0:0:
416,96,93057,1,0,0:0:0:0:
32,96,93224,1,8,0:0:0:0:
416,96,93391,1,0,0:0:0:0:
32,160,93557,1,0,0:0:0:0:
96,160,93641,1,8,0:0:0:0:
416,96,93724,1,0,0:0:0:0:
160,160,93891,1,8,0:0:0:0:
416,96,94057,1,0,0:0:0:0:
160,32,94224,1,8,0:0:0:0:
224,32,94307,1,8,0:0:0:0:
416,96,94391,1,0,0:0:0:0:
160,96,94557,1,0,0:0:0:0:
224,96,94641,1,8,0:0:0:0:
416,96,94724,1,0,0:0:0:0:
160,160,94807,1,8,0:0:0:0:
224,160,94891,1,8,0:0:0:0:
288,160,94974,1,0,0:0:0:0:
416,96,95057,1,0,0:0:0:0:
160,224,95141,1,8,0:0:0:0:
224,224,95224,1,0,0:0:0:0:
288,224,95307,1,8,0:0:0:0:
416,96,95391,1,0,0:0:0:0:
160,288,95557,1,0,0:0:0:0:
224,288,95641,1,8,0:0:0:0:
416,96,95724,1,0,0:0:0:0:
288,288,95891,1,8,0:0:0:0:
416,96,96057,1,0,0:0:0:0:
352,224,96224,1,0,0:0:0:0:
416,96,96391,1,0,0:0:0:0:
352,288,96557,1,8,0:0:0:0:
416,288,96641,1,8,0:0:0:0:
416,96,96724,1,0,0:0:0:0:
480,288,96807,1,0,0:0:0:0:
416,288,96891,1,8,0:0:0:0:
416,288,96974,1,8,0:0:0:0:
416,96,97057,1,0,0:0:0:0:
352,288,97141,1,0,0:0:0:0:
224,288,97224,1,8,0:0:0:0:
416,96,97391,1,0,0:0:0:0:
32,224,97557,1,8,0:0:0:0:
416,96,97724,1,0,0:0:0:0:
96,224,97891,1,8,0:0:0:0:
416,96,98057,1,0,0:0:0:0:
160,224,98224,1,0,0:0:0:0:
416,96,98391,1,0,0:0:0:0:
224,224,98557,1,8,0:0:0:0:
416,96,98724,1,0,0:0:0:0:
32,32,98891,1,8,0:0:0:0:
96,32,98974,1,0,0:0:0:0:
416,96,99057,1,0,0:0:0:0:
160,32,99224,1,8,0:0:0:0:
416,96,99391,1,0,0:0:0:0:
32,96,99557,1,8,0:0:0:0:
96,96,99641,1,8,0:0:0:0:
416,96,99724,1,0,0:0:0:0:
32,160,99891,1,8,0:0:0:0:
96,160,99974,1,8,0:0:0:0:
416,96,100057,1,0,0:0:0:0:
288,224,100141,1,8,0:0:0:0:
32,224,100224,1,8,0:0:0:0:
96,224,100307,1,0,0:0:0:0:
416,96,100391,1,0,0:0:0:0:
160,224,100474,1,8,0:0:0:0:
224,224,100557,1,8,0:0:0:0:
416,96,100724,1,0,0:0:0:0:
64,288,100891,1,8,0:0:0:0:
128,288,100974,1,0,0:0:0:0:
416,96,101057,1,0,0:0:0:0:
192,288,101224,1,8,0:0:0:0:
416,96,101391,1,0,0:0:0:0:
256,288,101557,1,12,0:0:0:0:
416,96,101724,1,0,0:0:0:0:
352,288,101891,1,4,0:0:0:0:
416,96,102057,1,0,0:0:0:0:
416,288,102224,1,12,0:0:0:0:
416,96,102391,1,0,0:0:0:0:
416,96,102724,1,4,0:0:0:0:
256,192,103057,1,0,0:0:0:0:
256,192,103280,1,0,0:0:0:0:
256,192,103391,1,8,0:0:0:0:
256,192,103613,1,8,0:0:0:0:
256,192,103724,1,0,0:0:0:0:
256,192,103946,1,0,0:0:0:0:
256,192,104057,1,0,0:0:0:0:
256,192,104280,1,0,0:0:0:0:
256,192,104391,1,0,0:0:0:0:
256,192,104613,1,0,0:0:0:0:
256,192,104724,1,8,0:0:0:0:
256,192,104946,1,0,0:0:0:0:
256,192,105057,1,8,0:0:0:0:
256,192,105280,1,8,0:0:0:0:
256,192,105391,1,0,0:0:0:0:
256,192,105724,1,0,0:0:0:0:
256,192,105946,1,0,0:0:0:0:
256,192,106057,1,8,0:0:0:0:
256,192,106280,1,0,0:0:0:0:
256,192,106391,1,8,0:0:0:0:
256,192,106613,1,0,0:0:0:0:
256,192,106724,1,8,0:0:0:0:
256,192,106835,1,0,0:0:0:0:
256,192,106946,1,0,0:0:0:0:
256,192,107057,1,0,0:0:0:0:
256,192,107169,1,0,0:0:0:0:
256,192,107280,1,0,0:0:0:0:
256,192,107391,1,0,0:0:0:0:
256,192,107613,1,8,0:0:0:0:
256,192,107724,1,8,0:0:0:0:
256,192,107946,1,8,0:0:0:0:
256,192,108057,1,0,0:0:0:0:
256,192,108169,1,0,0:0:0:0:
256,192,108280,1,0,0:0:0:0:
256,192,108391,1,0,0:0:0:0:
256,192,108613,1,8,0:0:0:0:
256,192,108724,1,0,0:0:0:0:
256,192,108946,1,8,0:0:0:0:
256,192,109057,1,0,0:0:0:0:
256,192,109280,1,8,0:0:0:0:
256,192,109391,1,8,0:0:0:0:
256,192,109613,1,0,0:0:0:0:
256,192,109724,1,8,0:0:0:0:
256,192,109946,1,0,0:0:0:0:
256,192,110057,1,8,0:0:0:0:
256,192,110280,1,0,0:0:0:0:
256,192,110391,1,8,0:0:0:0:
256,192,110613,1,8,0:0:0:0:
256,192,110724,1,0,0:0:0:0:
256,192,110835,1,0,0:0:0:0:
256,192,110946,1,0,0:0:0:0:
256,192,111057,1,0,0:0:0:0:
256,192,111280,1,0,0:0:0:0:
256,192,111391,1,8,0:0:0:0:
256,192,111613,1,8,0:0:0:0:
256,192,111724,1,0,0:0:0:0:
256,192,111946,1,0,0:0:0:0:
256,192,112057,1,8,0:0:0:0:
256,192,112391,1,8,0:0:0:0:
256,192,112724,1,0,0:0:0:0:
256,192,112891,1,12,0:0:0:0:
256,192,113057,1,12,0:0:0:0:
256,192,113224,1,12,0:0:0:0:
256,192,113391,1,4,0:0:0:0:
480,128,113557,1,0,0:0:0:0:
512,192,113724,1,0,0:0:0:0:
448,192,113891,1,8,0:0:0:0:
480,256,113974,1,8,0:0:0:0:
512,192,114057,1,0,0:0:0:0:
384,192,114224,1,8,0:0:0:0:
320,192,114307,1,0,0:0:0:0:
512,192,114391,1,0,0:0:0:0:
192,192,114557,1,0,0:0:0:0:
512,192,114724,1,0,0:0:0:0:
480,128,114891,1,0,0:0:0:0:
512,160,114974,1,8,0:0:0:0:
512,192,115057,1,0,0:0:0:0:
448,192,115224,1,8,0:0:0:0:
384,192,115307,1,8,0:0:0:0:
512,192,115391,1,0,0:0:0:0:
480,256,115557,1,0,0:0:0:0:
448,320,115641,1,8,0:0:0:0:
512,192,115724,1,0,0:0:0:0:
448,192,115891,1,0,0:0:0:0:
384,192,115974,1,8,0:0:0:0:
512,192,116057,1,0,0:0:0:0:
320,192,116141,1,0,0:0:0:0:
320,192,116224,1,8,0:0:0:0:
256,192,116307,1,8,0:0:0:0:
512,192,116391,1,0,0:0:0:0:
416,256,116557,1,8,0:0:0:0:
352,256,116641,1,8,0:0:0:0:
512,192,116724,1,0,0:0:0:0:
448,128,116891,1,8,0:0:0:0:
384,128,116974,1,8,0:0:0:0:
512,192,117057,1,0,0:0:0:0:
288,128,117141,1,0,0:0:0:0:
352,128,117224,1,8,0:0:0:0:
416,96,117307,1,8,0:0:0:0:
512,192,117391,1,0,0:0:0:0:
448,192,117474,1,0,0:0:0:0:
384,192,117557,1,0,0:0:0:0:
320,192,117641,1,8,0:0:0:0:
512,192,117724,1,0,0:0:0:0:
448,256,117891,1,0,0:0:0:0:
384,256,117974,1,8,0:0:0:0:
512,192,118057,1,0,0:0:0:0:
320,256,118141,1,0,0:0:0:0:
256,256,118224,1,0,0:0:0:0:
512,192,118391,1,0,0:0:0:0:
0,192,118557,1,8,0:0:0:0:
512,192,118724,1,0,0:0:0:0:
0,192,118891,1,8,0:0:0:0:
512,192,119057,1,0,0:0:0:0:
0,192,119224,1,8,0:0:0:0:
512,192,119391,1,0,0:0:0:0:
0,192,119557,1,8,0:0:0:0:
512,192,119724,1,0,0:0:0:0:
0,192,119891,1,8,0:0:0:0:
512,192,120057,1,0,0:0:0:0:
448,192,120224,1,8,0:0:0:0:
384,192,120307,1,8,0:0:0:0:
512,192,120391,1,0,0:0:0:0:
416,256,120557,1,8,0:0:0:0:
352,256,120641,1,8,0:0:0:0:
512,192,120724,1,0,0:0:0:0:
448,128,120891,1,0,0:0:0:0:
384,128,120974,1,8,0:0:0:0:
512,192,121057,1,0,0:0:0:0:
320,192,121224,1,0,0:0:0:0:
320,256,121307,1,8,0:0:0:0:
512,192,121391,1,0,0:0:0:0:
448,288,121474,1,8,0:0:0:0:
352,320,121557,1,8,0:0:0:0:
512,192,121724,1,0,0:0:0:0:
352,224,121891,1,8,0:0:0:0:
256,256,121974,1,8,0:0:0:0:
512,192,122057,1,0,0:0:0:0:
416,192,122141,1,0,0:0:0:0:
288,192,122224,1,8,0:0:0:0:
384,192,122307,1,8,0:0:0:0:
512,192,122391,1,0,0:0:0:0:
384,224,122557,1,0,0:0:0:0:
512,192,122724,1,4,0:0:0:0:
512,192,123057,1,4,0:0:0:0:
512,192,123391,1,0,0:0:0:0:
416,192,123446,1,8,0:0:0:0:
288,192,123502,1,8,0:0:0:0:
160,192,123557,1,8,0:0:0:0:
384,288,123724,1,0,0:0:0:0:
256,256,123807,1,8,0:0:0:0:
320,256,123891,1,8,0:0:0:0:
512,192,124057,1,4,0:0:0:0:
256,320,124224,1,0,0:0:0:0:
512,192,124391,1,0,0:0:0:0:
448,224,124557,1,8,0:0:0:0:
384,224,124641,1,8,0:0:0:0:
512,192,124724,1,0,0:0:0:0:
256,160,124807,1,0,0:0:0:0:
416,288,124891,1,0,0:0:0:0:
512,192,125057,1,8,0:0:0:0:
416,192,125224,1,8,0:0:0:0:
352,192,125307,1,8,0:0:0:0:
512,192,125391,1,0,0:0:0:0:
352,288,125474,1,0,0:0:0:0:
416,160,125557,1,8,0:0:0:0:
512,192,125724,1,0,0:0:0:0:
384,224,125891,1,8,0:0:0:0:
288,224,125974,1,8,0:0:0:0:
512,192,126057,1,0,0:0:0:0:
320,288,126224,1,0,0:0:0:0:
224,256,126307,1,0,0:0:0:0:
512,192,126391,1,0,0:0:0:0:
384,128,126474,1,0,0:0:0:0:
416,288,126557,1,8,0:0:0:0:
512,192,126724,1,0,0:0:0:0:
320,192,126807,1,8,0:0:0:0:
256,160,126891,1,0,0:0:0:0:
320,128,126974,1,0,0:0:0:0:
512,192,127057,1,0,0:0:0:0:
448,192,127224,1,8,0:0:0:0:
416,256,127307,1,8,0:0:0:0:
512,192,127391,1,0,0:0:0:0:
256,224,127557,1,0,0:0:0:0:
512,192,127724,1,0,0:0:0:0:
320,256,127891,1,8,0:0:0:0:
512,192,128057,1,0,0:0:0:0:
192,192,128224,1,0,0:0:0:0:
512,192,128391,1,0,0:0:0:0:
352,160,128557,1,8,0:0:0:0:
512,192,128724,1,0,0:0:0:0:
384,224,128891,1,8,0:0:0:0:
512,192,129057,1,0,0:0:0:0:
256,256,129141,1,0,0:0:0:0:
288,256,129224,1,8,0:0:0:0:
320,192,129307,1,0,0:0:0:0:
512,192,129391,1,0,0:0:0:0:
352,224,129557,1,8,0:0:0:0:
352,288,129641,1,0,0:0:0:0:
512,192,129724,1,0,0:0:0:0:
320,192,129891,1,8,0:0:0:0:
512,192,130057,1,0,0:0:0:0:
320,256,130224,1,8,0:0:0:0:
416,320,130307,1,8,0:0:0:0:
512,192,130391,1,0,0:0:0:0:
416,224,130557,1,8,0:0:0:0:
512,192,130724,1,0,0:0:0:0:
448,288,130891,1,8,0:0:0:0:
384,256,130974,1,8,0:0:0:0:
512,192,131057,1,0,0:0:0:0:
416,192,131224,1,0,0:0:0:0:
512,192,131391,1,0,0:0:0:0:
352,288,131557,1,0,0:0:0:0:
512,192,131724,1,0,0:0:0:0:
352,192,131807,1,8,0:0:0:0:
320,224,131891,1,8,0:0:0:0:
384,256,131974,1,8,0:0:0:0:
512,192,132057,1,0,0:0:0:0:
0,192,132224,1,8,0:0:0:0:
512,192,132391,1,0,0:0:0:0:
0,192,132557,1,8,0:0:0:0:
512,192,132724,1,0,0:0:0:0:
0,192,132891,1,8,0:0:0:0:
512,192,133057,1,0,0:0:0:0:
0,192,133224,1,0,0:0:0:0:
512,192,133391,1,4,0:0:0:0:
512,192,133724,1,4,0:0:0:0:
512,192,134057,1,4,0:0:0:0:
512,192,134391,1,4,0:0:0:0:
512,192,134724,1,4,0:0:0:0:
256,256,135057,1,8,0:0:0:0:
320,256,135224,1,8,0:0:0:0:
512,192,135391,1,4,0:0:0:0:
256,192,135724,1,8,0:0:0:0:
512,192,136057,1,4,0:0:0:0:
224,256,136391,1,0,0:0:0:0:
352,224,136557,1,8,0:0:0:0:
512,192,136724,1,4,0:0:0:0:
288,288,136891,1,8,0:0:0:0:
384,288,137057,1,8,0:0:0:0:
448,288,137224,1,0,0:0:0:0:
512,192,137391,1,4,0:0:0:0:
224,192,137724,1,0,0:0:0:0:
352,160,137891,1,8,0:0:0:0:
512,192,138057,1,4,0:0:0:0:
320,224,138391,1,8,0:0:0:0:
256,256,138557,1,0,0:0:0:0:
512,192,138724,1,4,0:0:0:0:
192,256,138891,1,8,0:0:0:0:
384,288,139057,1,0,0:0:0:0:
352,128,139224,1,8,0:0:0:0:
512,192,139391,1,4,0:0:0:0:
256,192,139557,1,0,0:0:0:0:
352,192,139724,1,8,0:0:0:0:
352,224,139891,1,8,0:0:0:0:
512,192,140057,1,4,0:0:0:0:
320,192,140391,1,0,0:0:0:0:
352,256,140557,1,0,0:0:0:0:
512,192,140724,1,4,0:0:0:0:
352,192,141057,1,8,0:0:0:0:
512,192,141391,1,4,0:0:0:0:
352,288,141724,1,0,0:0:0:0:
416,288,141891,1,8,0:0:0:0:
512,192,142057,1,4,0:0:0:0:
256,224,142224,1,8,0:0:0:0:
352,224,142391,1,8,0:0:0:0:
288,288,142557,1,0,0:0:0:0:
512,192,142724,1,4,0:0:0:0:
352,160,143057,1,0,0:0:0:0:
416,256,143224,1,0,0:0:0:0:
512,192,143391,1,4,0:0:0:0:
352,160,143724,1,0,0:0:0:0:
352,192,143891,1,8,0:0:0:0:
512,192,144057,1,4,0:0:0:0:
320,224,144224,1,8,0:0:0:0:
384,224,144391,1,8,0:0:0:0:
384,256,144557,1,8,0:0:0:0:
512,192,144724,1,4,0:0:0:0:
288,192,145057,1,8,0:0:0:0:
512,192,145391,1,0,0:0:0:0:
288,288,145557,1,8,0:0:0:0:
512,192,145724,1,0,0:0:0:0:
320,288,145891,1,0,0:0:0:0:
512,192,146057,1,8,0:0:0:0:
320,288,146224,1,8,0:0:0:0:
512,192,146391,1,0,0:0:0:0:
320,288,146557,1,0,0:0:0:0:
512,192,146724,1,8,0:0:0:0:
320,288,146807,1,0,0:0:0:0:
320,288,146891,1,8,0:0:0:0:
352,288,146974,1,0,0:0:0:0:
512,192,147057,1,0,0:0:0:0:
320,288,147224,1,8,0:0:0:0:
320,288,147307,1,8,0:0:0:0:
512,192,147391,1,0,0:0:0:0:
256,224,147557,1,8,0:0:0:0:
512,192,147724,1,0,0:0:0:0:
320,192,147891,1,0,0:0:0:0:
352,256,147974,1,0,0:0:0:0:
512,192,148057,1,0,0:0:0:0:
224,224,148141,1,8,0:0:0:0:
256,256,148224,1,8,0:0:0:0:
512,192,148391,1,0,0:0:0:0:
160,256,148557,1,0,0:0:0:0:
512,192,148724,1,8,0:0:0:0:
224,128,148807,1,0,0:0:0:0:
288,192,148891,1,8,0:0:0:0:
512,192,149057,1,0,0:0:0:0:
384,256,149224,1,0,0:0:0:0:
512,192,149391,1,8,0:0:0:0:
288,288,149474,1,0,0:0:0:0:
384,256,149557,1,8,0:0:0:0:
512,192,149724,1,0,0:0:0:0:
288,256,149891,1,8,0:0:0:0:
352,256,149974,1,8,0:0:0:0:
512,192,150057,1,0,0:0:0:0:
320,160,150224,1,8,0:0:0:0:
512,192,150391,1,0,0:0:0:0:
352,224,150557,1,8,0:0:0:0:
512,192,150724,1,0,0:0:0:0:
352,288,150807,1,0,0:0:0:0:
352,224,150891,1,0,0:0:0:0:
512,192,151057,1,0,0:0:0:0:
320,256,151224,1,0,0:0:0:0:
512,192,151391,1,0,0:0:0:0:
384,288,151557,1,8,0:0:0:0:
512,192,151724,1,0,0:0:0:0:
256,288,151891,1,8,0:0:0:0:
320,320,151974,1,0,0:0:0:0:
512,192,152057,1,0,0:0:0:0:
448,256,152141,1,8,0:0:0:0:
384,256,152224,1,8,0:0:0:0:
512,192,152391,1,0,0:0:0:0:
384,256,152557,1,0,0:0:0:0:
512,192,152724,1,8,0:0:0:0:
384,256,152891,1,8,0:0:0:0:
512,192,153057,1,0,0:0:0:0:
384,256,153224,1,0,0:0:0:0:
512,192,153391,1,8,0:0:0:0:
384,256,153557,1,8,0:0:0:0:
512,192,153724,1,0,0:0:0:0:
224,224,153807,1,0,0:0:0:0:
320,288,153891,1,8,0:0:0:0:
416,288,153974,1,8,0:0:0:0:
512,192,154057,1,0,0:0:0:0:
256,288,154224,1,8,0:0:0:0:
512,192,154391,1,0,0:0:0:0:
320,192,154557,1,8,0:0:0:0:
512,192,154724,1,0,0:0:0:0:
352,256,154891,1,8,0:0:0:0:
512,192,155057,1,0,0:0:0:0:
352,256,155224,1,8,0:0:0:0:
512,192,155391,1,0,0:0:0:0:
224,288,155557,1,8,0:0:0:0:
512,192,155724,1,0,0:0:0:0:
384,288,155891,1,8,0:0:0:0:
0,192,156057,1,0,0:0:0:0:
288,192,156224,1,0,0:0:0:0:
352,192,156307,1,8,0:0:0:0:
0,192,156391,1,0,0:0:0:0:
224,224,156474,1,8,0:0:0:0:
288,224,156557,1,8,0:0:0:0:
320,288,156641,1,8,0:0:0:0:
0,192,156724,1,0,0:0:0:0:
96,224,156891,1,8,0:0:0:0:
160,256,156974,1,8,0:0:0:0:
0,192,157057,1,0,0:0:0:0:
128,128,157224,1,8,0:0:0:0:
0,192,157391,1,0,0:0:0:0:
96,288,157557,1,0,0:0:0:0:
0,192,157724,1,0,0:0:0:0:
64,128,157891,1,8,0:0:0:0:
0,192,158057,1,0,0:0:0:0:
160,192,158224,1,0,0:0:0:0:
128,256,158307,1,0,0:0:0:0:
0,192,158391,1,0,0:0:0:0:
192,288,158557,1,0,0:0:0:0:
0,192,158724,1,0,0:0:0:0:
128,224,158891,1,8,0:0:0:0:
0,192,159057,1,0,0:0:0:0:
192,224,159224,1,8,0:0:0:0:
0,192,159391,1,0,0:0:0:0:
128,224,159557,1,0,0:0:0:0:
0,192,159724,1,0,0:0:0:0:
160,224,159807,1,0,0:0:0:0:
160,224,159891,1,8,0:0:0:0:
160,224,159974,1,8,0:0:0:0:
0,192,160057,1,0,0:0:0:0:
128,256,160224,1,0,0:0:0:0:
224,288,160307,1,0,0:0:0:0:
0,192,160391,1,0,0:0:0:0:
192,288,160557,1,8,0:0:0:0:
0,192,160724,1,0,0:0:0:0:
160,256,160891,1,0,0:0:0:0:
0,192,161057,1,0,0:0:0:0:
160,288,161141,1,8,0:0:0:0:
160,288,161224,1,8,0:0:0:0:
256,256,161307,1,0,0:0:0:0:
0,192,161391,1,0,0:0:0:0:
160,192,161557,1,0,0:0:0:0:
0,192,161724,1,0,0:0:0:0:
160,256,161891,1,8,0:0:0:0:
160,256,161974,1,0,0:0:0:0:
0,192,162057,1,0,0:0:0:0:
160,256,162141,1,8,0:0:0:0:
192,256,162224,1,8,0:0:0:0:
0,192,162391,1,0,0:0:0:0:
128,288,162474,1,8,0:0:0:0:
192,288,162557,1,8,0:0:0:0:
192,288,162641,1,8,0:0:0:0:
0,192,162724,1,0,0:0:0:0:
160,192,162891,1,0,0:0:0:0:
0,192,163057,1,0,0:0:0:0:
96,256,163224,1,8,0:0:0:0:
192,256,163307,1,8,0:0:0:0:
0,192,163391,1,0,0:0:0:0:
160,192,163557,1,0,0:0:0:0:
0,192,163724,1,0,0:0:0:0:
224,224,163891,1,8,0:0:0:0:
0,192,164057,1,0,0:0:0:0:
160,256,164224,1,8,0:0:0:0:
0,192,164391,1,0,0:0:0:0:
160,288,164557,1,8,0:0:0:0:
0,192,164724,1,0,0:0:0:0:
160,256,164891,1,8,0:0:0:0:
0,192,165057,1,0,0:0:0:0:
256,192,165224,1,0,0:0:0:0:
0,192,165391,1,4,0:0:0:0:
0,192,165724,1,4,0:0:0:0:
0,192,166057,1,4,0:0:0:0:
0,192,166391,1,4,0:0:0:0:
0,192,166724,1,12,0:0:0:0:
256,192,167057,1,0,0:0:0:0:
256,192,167391,1,8,0:0:0:0:
256,192,167724,1,0,0:0:0:0:
256,192,168224,1,8,0:0:0:0:
256,192,168391,1,8,0:0:0:0:
256,192,168557,1,8,0:0:0:0:
256,192,168724,1,8,0:0:0:0:
256,192,168891,1,8,0:0:0:0:
256,192,169057,1,8,0:0:0:0:
256,192,169224,1,8,0:0:0:0:
256,192,169391,1,4,0:0:0:0:
320,192,169557,1,0,0:0:0:0:
288,128,169641,1,8,0:0:0:0:
256,192,169724,1,0,0:0:0:0:
224,128,169891,1,8,0:0:0:0:
192,192,169974,1,8,0:0:0:0:
256,192,170057,1,0,0:0:0:0:
160,256,170224,1,8,0:0:0:0:
224,256,170307,1,8,0:0:0:0:
256,192,170391,1,0,0:0:0:0:
288,256,170474,1,0,0:0:0:0:
352,256,170557,1,8,0:0:0:0:
256,320,170641,1,0,0:0:0:0:
256,192,170724,1,0,0:0:0:0:
192,160,170891,1,0,0:0:0:0:
256,128,170974,1,8,0:0:0:0:
256,192,171057,1,0,0:0:0:0:
256,128,171224,1,8,0:0:0:0:
320,160,171307,1,0,0:0:0:0:
256,192,171391,1,0,0:0:0:0:
256,256,171557,1,0,0:0:0:0:
256,192,171724,1,0,0:0:0:0:
192,192,171891,1,8,0:0:0:0:
256,192,172057,1,0,0:0:0:0:
320,192,172224,1,0,0:0:0:0:
256,192,172391,1,0,0:0:0:0:
128,192,172557,1,8,0:0:0:0:
256,256,172641,1,8,0:0:0:0:
256,192,172724,1,0,0:0:0:0:
384,192,172891,1,8,0:0:0:0:
256,192,173057,1,0,0:0:0:0:
256,128,173224,1,8,0:0:0:0:
320,128,173307,1,8,0:0:0:0:
256,192,173391,1,0,0:0:0:0:
256,128,173474,1,0,0:0:0:0:
192,128,173557,1,8,0:0:0:0:
352,256,173641,1,0,0:0:0:0:
256,192,173724,1,0,0:0:0:0:
320,320,173807,1,0,0:0:0:0:
256,256,173891,1,8,0:0:0:0:
256,192,174057,1,0,0:0:0:0:
256,320,174224,1,8,0:0:0:0:
288,224,174307,1,8,0:0:0:0:
256,192,174391,1,0,0:0:0:0:
256,128,174557,1,0,0:0:0:0:
256,192,174724,1,0,0:0:0:0:
256,64,174891,1,8,0:0:0:0:
256,192,175057,1,0,0:0:0:0:
256,128,175224,1,8,0:0:0:0:
256,192,175391,1,0,0:0:0:0:
256,256,175557,1,8,0:0:0:0:
256,192,175724,1,0,0:0:0:0:
256,320,175891,1,8,0:0:0:0:
256,192,176057,1,0,0:0:0:0:
192,192,176224,1,0,0:0:0:0:
320,192,176307,1,8,0:0:0:0:
256,192,176391,1,8,0:0:0:0:
224,288,176474,1,0,0:0:0:0:
256,256,176557,1,8,0:0:0:0:
256,128,176641,1,8,0:0:0:0:
256,192,176724,1,0,0:0:0:0:
288,192,176891,1,0,0:0:0:0:
256,192,177057,1,0,0:0:0:0:
256,256,177224,1,8,0:0:0:0:
256,192,177391,1,4,0:0:0:0:
352,256,177557,1,0,0:0:0:0:
256,192,177724,1,0,0:0:0:0:
288,288,177891,1,8,0:0:0:0:
256,192,178057,1,4,0:0:0:0:
288,288,178224,1,0,0:0:0:0:
256,192,178391,1,4,0:0:0:0:
352,224,178557,1,8,0:0:0:0:
256,192,178724,1,4,0:0:0:0:
256,192,179057,1,4,0:0:0:0:
256,192,179391,1,8,0:0:0:0:
256,192,179446,1,8,0:0:0:0:
256,192,179502,1,8,0:0:0:0:
256,192,179557,1,0,0:0:0:0:
256,192,179724,1,0,0:0:0:0:
256,288,179807,1,8,0:0:0:0:
320,288,179891,1,8,0:0:0:0:
256,192,180057,1,0,0:0:0:0:
320,192,180224,1,8,0:0:0:0:
320,128,180307,1,8,0:0:0:0:
256,192,180391,1,0,0:0:0:0:
256,224,180557,1,8,0:0:0:0:
256,192,180724,1,0,0:0:0:0:
192,192,180891,1,8,0:0:0:0:
192,128,180974,1,8,0:0:0:0:
256,192,181057,1,0,0:0:0:0:
192,256,181141,1,8,0:0:0:0:
256,128,181224,1,8,0:0:0:0:
320,192,181307,1,8,0:0:0:0:
256,192,181391,1,0,0:0:0:0:
352,256,181474,1,0,0:0:0:0:
320,128,181557,1,8,0:0:0:0:
320,192,181641,1,8,0:0:0:0:
256,192,181724,1,0,0:0:0:0:
320,192,181891,1,8,0:0:0:0:
256,192,182057,1,0,0:0:0:0:
256,288,182224,1,0,0:0:0:0:
256,192,182391,1,0,0:0:0:0:
384,256,182557,1,8,0:0:0:0:
256,192,182724,1,0,0:0:0:0:
416,288,182807,1,8,0:0:0:0:
416,224,182891,1,8,0:0:0:0:
416,160,182974,1,0,0:0:0:0:
256,192,183057,1,0,0:0:0:0:
192,224,183224,1,8,0:0:0:0:
320,192,183307,1,8,0:0:0:0:
256,192,183391,1,0,0:0:0:0:
320,128,183474,1,0,0:0:0:0:
352,128,183557,1,8,0:0:0:0:
256,192,183724,1,0,0:0:0:0:
192,128,183891,1,0,0:0:0:0:
256,192,184057,1,0,0:0:0:0:
256,288,184224,1,8,0:0:0:0:
352,288,184307,1,8,0:0:0:0:
256,192,184391,1,0,0:0:0:0:
160,288,184557,1,8,0:0:0:0:
256,192,184724,1,0,0:0:0:0:
384,192,184891,1,8,0:0:0:0:
384,224,184974,1,8,0:0:0:0:
256,192,185057,1,0,0:0:0:0:
320,128,185141,1,0,0:0:0:0:
160,160,185224,1,8,0:0:0:0:
256,192,185391,1,4,0:0:0:0:
96,224,185557,1,0,0:0:0:0:
160,256,185641,1,0,0:0:0:0:
256,192,185724,1,0,0:0:0:0:
256,256,185891,1,8,0:0:0:0:
256,192,186057,1,0,0:0:0:0:
256,288,186224,1,8,0:0:0:0:
352,256,186307,1,8,0:0:0:0:
256,192,186391,1,0,0:0:0:0:
192,288,186557,1,8,0:0:0:0:
256,192,186724,1,0,0:0:0:0:
160,160,186891,1,8,0:0:0:0:
192,224,186974,1,0,0:0:0:0:
256,192,187057,1,0,0:0:0:0:
128,256,187224,1,0,0:0:0:0:
160,256,187307,1,8,0:0:0:0:
256,192,187391,1,0,0:0:0:0:
288,128,187557,1,8,0:0:0:0:
256,192,187724,1,0,0:0:0:0:
288,224,187891,1,8,0:0:0:0:
320,224,187974,1,8,0:0:0:0:
256,192,188057,1,0,0:0:0:0:
224,256,188224,1,8,0:0:0:0:
256,192,188391,1,0,0:0:0:0:
224,256,188557,1,8,0:0:0:0:
256,192,188724,1,0,0:0:0:0:
224,256,188891,1,8,0:0:0:0:
256,192,189057,1,0,0:0:0:0:
224,256,189224,1,8,0:0:0:0:
256,192,189391,1,4,0:0:0:0:
192,256,189557,1,0,0:0:0:0:
256,192,189724,1,4,0:0:0:0:
192,256,189891,1,8,0:0:0:0:
256,192,190057,1,4,0:0:0:0:
352,224,190224,1,0,0:0:0:0:
256,192,190391,1,4,0:0:0:0:
320,256,190557,1,8,0:0:0:0:
256,192,190724,1,4,0:0:0:0:
384,192,191057,1,0,0:0:0:0:
384,192,191224,1,0,0:0:0:0:
384,192,191391,1,12,0:0:0:0:
384,192,191557,1,0,0:0:0:0:
384,192,191724,1,8,0:0:0:0:
384,192,191891,1,0,0:0:0:0:
384,192,192057,1,4,0:0:0:0:
384,192,192224,1,8,0:0:0:0:
384,192,192391,1,4,0:0:0:0:
384,192,192557,1,0,0:0:0:0:
384,192,192724,1,12,0:0:0:0:
384,192,192891,1,12,0:0:0:0:
384,192,193057,1,12,0:0:0:0:
384,192,193224,1,12,0:0:0:0:
256,192,193391,1,0,0:0:0:0:
192,192,193557,1,8,0:0:0:0:
128,192,193641,1,8,0:0:0:0:
256,192,193724,1,0,0:0:0:0:
192,96,193891,1,0,0:0:0:0:
224,128,193974,1,0,0:0:0:0:
256,192,194057,1,0,0:0:0:0:
320,192,194224,1,8,0:0:0:0:
256,192,194391,1,0,0:0:0:0:
256,320,194557,1,8,0:0:0:0:
256,256,194641,1,8,0:0:0:0:
256,192,194724,1,0,0:0:0:0:
256,64,194891,1,8,0:0:0:0:
256,128,194974,1,8,0:0:0:0:
256,192,195057,1,0,0:0:0:0:
192,192,195224,1,8,0:0:0:0:
256,192,195391,1,0,0:0:0:0:
320,192,195557,1,0,0:0:0:0:
256,192,195724,1,0,0:0:0:0:
384,192,195891,1,8,0:0:0:0:
256,192,196057,1,0,0:0:0:0:
192,192,196224,1,8,0:0:0:0:
256,192,196391,1,0,0:0:0:0:
192,192,196474,1,8,0:0:0:0:
128,192,196557,1,8,0:0:0:0:
64,192,196641,1,8,0:0:0:0:
256,192,196724,1,0,0:0:0:0:
352,192,196891,1,8,0:0:0:0:
256,192,197057,1,0,0:0:0:0:
256,256,197224,1,0,0:0:0:0:
320,256,197307,1,8,0:0:0:0:
256,192,197391,1,0,0:0:0:0:
224,256,197557,1,8,0:0:0:0:
256,192,197724,1,0,0:0:0:0:
320,192,197891,1,0,0:0:0:0:
256,192,198057,1,0,0:0:0:0:
192,192,198141,1,8,0:0:0:0:
320,192,198224,1,0,0:0:0:0:
384,192,198307,1,8,0:0:0:0:
256,192,198391,1,0,0:0:0:0:
192,320,198557,1,8,0:0:0:0:
256,320,198613,1,8,0:0:0:0:
320,320,198669,1,8,0:0:0:0:
256,192,198724,1,0,0:0:0:0:
288,128,198891,1,0,0:0:0:0:
256,192,199057,1,0,0:0:0:0:
256,256,199224,1,8,0:0:0:0:
256,192,199391,1,0,0:0:0:0:
352,256,199557,1,8,0:0:0:0:
288,256,199641,1,8,0:0:0:0:
256,192,199724,1,0,0:0:0:0:
352,192,199891,1,8,0:0:0:0:
256,192,200057,1,0,0:0:0:0:
320,128,200224,1,8,0:0:0:0:
256,128,200307,1,8,0:0:0:0:
256,192,200391,1,0,0:0:0:0:
192,192,200557,1,8,0:0:0:0:
256,192,200724,1,0,0:0:0:0:
256,256,200891,1,0,0:0:0:0:
256,192,201057,1,0,0:0:0:0:
256,320,201224,1,8,0:0:0:0:
256,192,201391,1,0,0:0:0:0:
256,256,201557,1,8,0:0:0:0:
256,192,201724,1,0,0:0:0:0:
288,192,201807,1,8,0:0:0:0:
320,256,201891,1,8,0:0:0:0:
384,256,201974,1,0,0:0:0:0:
256,192,202057,1,0,0:0:0:0:
160,256,202224,1,0,0:0:0:0:
192,288,202307,1,0,0:0:0:0:
256,192,202391,1,0,0:0:0:0:
160,224,202557,1,0,0:0:0:0:
192,256,202641,1,8,0:0:0:0:
256,192,202724,1,0,0:0:0:0:
256,256,202807,1,0,0:0:0:0:
320,288,202891,1,8,0:0:0:0:
384,192,202974,1,8,0:0:0:0:
256,192,203057,1,0,0:0:0:0:
160,192,203224,1,0,0:0:0:0:
256,192,203391,1,4,0:0:0:0:
256,192,203724,1,4,0:0:0:0:
256,192,204057,1,4,0:0:0:0:
384,224,204224,1,8,0:0:0:0:
320,256,204307,1,8,0:0:0:0:
256,192,204391,1,0,0:0:0:0:
256,256,204557,1,8,0:0:0:0:
384,256,204641,1,8,0:0:0:0:
256,192,204724,1,0,0:0:0:0:
416,128,204807,1,8,0:0:0:0:
288,128,204891,1,8,0:0:0:0:
256,192,205057,1,0,0:0:0:0:
256,288,205141,1,0,0:0:0:0:
320,256,205224,1,8,0:0:0:0:
192,288,205307,1,8,0:0:0:0:
256,192,205391,1,0,0:0:0:0:
352,288,205557,1,8,0:0:0:0:
352,224,205641,1,8,0:0:0:0:
256,192,205724,1,0,0:0:0:0:
192,224,205891,1,0,0:0:0:0:
256,256,205974,1,8,0:0:0:0:
256,192,206057,1,0,0:0:0:0:
160,160,206224,1,0,0:0:0:0:
224,256,206307,1,0,0:0:0:0:
256,192,206391,1,0,0:0:0:0:
352,256,206557,1,0,0:0:0:0:
256,192,206724,1,0,0:0:0:0:
224,288,206891,1,8,0:0:0:0:
256,192,207057,1,0,0:0:0:0:
288,288,207224,1,0,0:0:0:0:
352,224,207307,1,0,0:0:0:0:
256,192,207391,1,0,0:0:0:0:
288,288,207557,1,8,0:0:0:0:
256,192,207724,1,0,0:0:0:0:
288,288,207891,1,0,0:0:0:0:
256,192,208057,1,0,0:0:0:0:
224,288,208224,1,8,0:0:0:0:
256,192,208391,1,0,0:0:0:0:
320,256,208557,1,0,0:0:0:0:
256,192,208724,1,0,0:0:0:0:
352,256,208807,1,8,0:0:0:0:
384,288,208891,1,8,0:0:0:0:
384,160,208974,1,8,0:0:0:0:
256,192,209057,1,0,0:0:0:0:
192,256,209224,1,0,0:0:0:0:
256,192,209391,1,0,0:0:0:0:
288,288,209557,1,8,0:0:0:0:
256,192,209724,1,0,0:0:0:0:
128,256,209891,1,0,0:0:0:0:
224,320,209974,1,8,0:0:0:0:
256,192,210057,1,0,0:0:0:0:
160,288,210224,1,8,0:0:0:0:
256,288,210307,1,8,0:0:0:0:
256,192,210391,1,0,0:0:0:0:
320,256,210557,1,8,0:0:0:0:
320,288,210641,1,8,0:0:0:0:
256,192,210724,1,0,0:0:0:0:
352,288,210807,1,0,0:0:0:0:
352,256,210891,1,8,0:0:0:0:
384,320,210974,1,8,0:0:0:0:
256,192,211057,1,0,0:0:0:0:
192,256,211224,1,0,0:0:0:0:
256,288,211307,1,8,0:0:0:0:
256,192,211391,1,0,0:0:0:0:
192,224,211557,1,8,0:0:0:0:
256,224,211641,1,8,0:0:0:0:
256,192,211724,1,0,0:0:0:0:
320,160,211891,1,8,0:0:0:0:
256,192,212057,1,0,0:0:0:0:
256,192,212391,1,0,0:0:0:0:
256,192,212724,1,0,0:0:0:0:
384,256,212807,1,8,0:0:0:0:
448,256,212891,1,8,0:0:0:0:
480,256,212974,1,0,0:0:0:0:
256,192,213057,1,0,0:0:0:0:
320,288,213141,1,8,0:0:0:0:
352,288,213224,1,8,0:0:0:0:
416,320,213307,1,8,0:0:0:0:
256,192,213391,1,0,0:0:0:0:
256,192,213474,12,0,214391,0:0:0:0:
