osu file format v13

[General]
AudioFilename: Reol.mp3
AudioLeadIn: 0
PreviewTime: 56000
Countdown: 0
SampleSet: None
StackLeniency: 0.7
Mode: 0
LetterboxInBreaks: 0
WidescreenStoryboard: 1

[Editor]
DistanceSpacing: 1.2
BeatDivisor: 4
GridSize: 4
TimelineZoom: 2.999999

[Metadata]
Title:+Danshi
TitleUnicode:+Danshi
Artist:Reol
ArtistUnicode:れをる
Creator:lZenxl
Version:Hinsvar's Extra
Source:
Tags:GigaP neonat Tagre Plus Boy Hinsvar Fort Papcio [I]MMoRTal[S] mike91lau Player_X Soldsaga_KunG Okoratu
BeatmapID:416183
BeatmapSetID:165991

[Difficulty]
HPDrainRate:7
CircleSize:4
OverallDifficulty:9
ApproachRate:9
SliderMultiplier:2.4
SliderTickRate:2

[Events]
//Background and Video events
0,0,"BG.png",0,0
Video,0,"new.avi"
//Break Periods
2,48257,56291
//Storyboard Layer 0 (Background)
//Storyboard Layer 1 (Fail)
//Storyboard Layer 2 (Pass)
//Storyboard Layer 3 (Foreground)
//Storyboard Sound Samples
//Background Colour Transformations
3,100,163,162,255

[TimingPoints]
12058,333.333333333333,4,1,1,70,1,0
24224,-133.333333333333,4,2,1,40,0,0
24724,-100,4,1,1,50,0,0
25391,-100,4,1,1,60,0,0
46724,-100,4,1,1,50,0,0
56057,-100,4,2,1,60,0,0
57391,-80,4,1,1,80,0,1
67391,-80,4,2,1,80,0,0
68057,-80,4,1,1,80,0,1
78724,-100,4,2,1,80,0,0
80724,-100,4,3,1,60,0,0
81391,-100,4,1,1,60,0,0
102724,-133.333333333333,4,3,1,60,0,0
112057,-200,4,3,1,60,0,0
112807,-100,4,2,1,60,0,0
113391,-80,4,1,1,80,0,1
123391,-80,4,2,1,80,0,0
124057,-80,4,1,1,80,0,1
134724,-133.333333333333,4,2,1,60,0,0
145391,-100,4,1,1,80,0,1
145412,-100,4,1,1,80,0,0
166724,-200,4,2,1,40,0,0
168057,-133.333333333333,4,2,1,40,0,0
168391,-114.942528735632,4,2,1,50,0,0
168724,-100,4,2,1,60,0,0
169057,-80,4,2,1,70,0,0
169391,-66.6666666666667,4,1,1,90,0,1
179391,-66.6666666666667,4,2,1,90,0,0
180057,-66.6666666666667,4,1,1,90,0,1
190724,-100,4,3,1,80,0,0
193391,-80,4,1,1,80,0,0
212057,-100,4,1,1,60,0,0
213391,-133.333333333333,4,2,1,40,0,0

[Colours]
Combo1 : 245,167,230
Combo2 : 253,232,113
Combo3 : 245,184,150
Combo4 : 135,186,243

[HitObjects]
80,316,13391,5,8,0:0:0:0:
432,316,13724,1,8,0:0:0:0:
136,192,13891,5,0,0:0:0:0:
136,192,13974,1,0,0:0:0:0:
136,192,14058,1,8,0:0:0:0:
424,115,14224,1,8,0:0:0:0:
264,344,14391,5,4,0:0:0:0:
284,332,14724,5,6,0:0:0:0:
304,288,14808,1,0,0:0:0:0:
312,240,14891,1,0,0:0:0:0:
296,196,14974,1,0,0:0:0:0:
264,160,15058,1,8,0:0:0:0:
75,263,15224,1,0,0:0:0:0:
75,263,15308,1,0,0:0:0:0:
75,263,15391,2,0,L|197:256,2,120,2|0|8,0:0|0:0|0:0,0:0:0:0:
132,54,15891,1,2,0:0:0:0:
132,54,15974,1,0,0:0:0:0:
132,54,16058,5,0,0:0:0:0:
375,194,16224,1,0,0:0:0:0:
403,154,16308,1,2,0:0:0:0:
417,108,16391,1,8,0:0:0:0:
216,302,16558,1,0,0:0:0:0:
168,302,16641,1,0,0:0:0:0:
120,302,16724,6,0,P|67:278|44:220,1,120,2|0,0:0|0:0,0:0:0:0:
206,76,17058,2,0,P|259:100|282:158,1,120,8|2,0:0|0:0,0:0:0:0:
272,201,17308,1,0,0:0:0:0:
238,234,17391,5,0,0:0:0:0:
121,23,17558,1,0,0:0:0:0:
362,128,17724,5,10,0:0:0:0:
409,135,17808,1,0,0:0:0:0:
453,118,17891,1,0,0:0:0:0:
478,77,17974,1,0,0:0:0:0:
472,28,18058,1,0,0:0:0:0:
257,13,18224,2,0,L|187:11,2,60,0|0|8,0:0|0:0|0:0,0:0:0:0:
385,240,18558,1,0,0:0:0:0:
385,240,18641,1,0,0:0:0:0:
386,240,18724,6,0,P|327:255|270:234,1,120,2|0,0:0|0:0,0:0:0:0:
240,199,18974,2,0,L|231:134,1,60,0|8,0:0|0:0,0:0:0:0:
437,41,19224,1,0,0:0:0:0:
437,41,19308,1,0,0:0:0:0:
437,41,19391,5,2,0:0:0:0:
454,85,19474,1,0,0:0:0:0:
440,131,19558,1,2,0:0:0:0:
452,177,19641,1,0,0:0:0:0:
431,236,19724,5,8,0:0:0:0:
374,264,19808,1,0,0:0:0:0:
311,264,19891,1,2,0:0:0:0:
255,235,19974,1,0,0:0:0:0:
224,183,20058,6,0,P|216:123|248:65,1,120,2|0,0:0|0:0,0:0:0:0:
433,61,20391,1,8,0:0:0:0:
459,100,20474,1,0,0:0:0:0:
469,147,20558,1,0,0:0:0:0:
467,194,20641,1,0,0:0:0:0:
445,236,20724,2,0,B|380:248|380:248|305:232,1,120,0|2,0:0|0:0,0:0:0:0:
161,89,21058,1,8,0:0:0:0:
42,268,21224,1,2,0:0:0:0:
42,268,21308,1,0,0:0:0:0:
42,268,21391,5,0,0:0:0:0:
231,299,21558,2,0,L|315:297,2,60,0|0|8,0:0|0:0|0:0,0:0:0:0:
64,125,21891,1,0,0:0:0:0:
64,125,21974,1,0,0:0:0:0:
64,125,22058,6,0,P|64:58|97:8,1,120,2|0,0:0|0:0,0:0:0:0:
323,72,22391,2,0,P|323:139|290:189,1,120,8|0,0:0|0:0,0:0:0:0:
81,207,22724,5,2,0:0:0:0:
228,49,22891,1,0,0:0:0:0:
228,49,22974,1,0,0:0:0:0:
228,49,23057,1,8,0:0:0:0:
415,157,23224,1,0,0:0:0:0:
415,157,23307,1,0,0:0:0:0:
415,157,23391,2,0,P|430:221|412:284,1,120,2|0,0:0|0:0,0:0:0:0:
163,308,23724,5,8,0:0:0:0:
125,253,23807,1,0,0:0:0:0:
105,189,23891,1,0,0:0:0:0:
123,125,23974,1,0,0:0:0:0:
163,73,24057,1,0,0:0:0:0:
299,195,24224,6,0,P|346:202|396:183,1,90.0000034332277,2|0,0:0|0:0,0:0:0:0:
385,189,24724,5,2,0:0:0:0:
252,46,24891,1,0,3:0:0:0:
110,175,25057,1,0,3:0:0:0:
241,317,25224,1,0,3:0:0:0:
47,108,25391,6,0,P|20:169|42:230,1,120,2|0,0:0|0:0,0:0:0:0:
68,251,25641,1,0,0:0:0:0:
114,262,25724,1,8,0:0:0:0:
290,223,25891,1,0,0:0:0:0:
290,223,25974,1,0,0:0:0:0:
290,223,26057,2,0,B|302:166|302:166|286:100,1,120,2|0,0:0|0:0,0:0:0:0:
113,55,26391,2,0,B|101:112|101:112|117:178,1,120,8|0,0:0|0:0,0:0:0:0:
314,306,26724,6,0,L|386:308,2,60,0|0|2,0:0|0:0|0:0,0:0:0:0:
168,164,27057,1,8,0:0:0:0:
120,174,27141,1,0,0:0:0:0:
80,201,27224,1,0,0:0:0:0:
56,242,27307,1,0,0:0:0:0:
55,290,27391,6,0,P|93:328|168:318,1,120,2|0,0:0|0:0,0:0:0:0:
202,282,27641,1,0,0:0:0:0:
258,255,27724,1,8,0:0:0:0:
320,250,27807,1,0,0:0:0:0:
380,268,27891,1,0,0:0:0:0:
429,307,27974,1,0,0:0:0:0:
470,354,28057,6,0,L|481:227,1,120,2|0,0:0|0:0,0:0:0:0:
287,45,28391,2,0,L|276:172,1,120,8|0,0:0|0:0,0:0:0:0:
297,208,28641,1,0,0:0:0:0:
297,208,28724,6,0,P|361:223|415:191,1,120,2|0,0:0|0:0,0:0:0:0:
287,46,29057,2,0,P|223:31|169:63,1,120,8|0,0:0|0:0,0:0:0:0:
141,87,29307,1,0,0:0:0:0:
118,130,29391,6,0,P|102:187|105:256,1,120,2|0,0:0|0:0,0:0:0:0:
330,325,29724,2,0,P|346:268|343:199,1,120,8|0,0:0|0:0,0:0:0:0:
325,163,29974,1,0,0:0:0:0:
316,115,30057,1,2,0:0:0:0:
325,67,30141,1,0,0:0:0:0:
356,30,30224,1,0,0:0:0:0:
403,24,30307,1,0,0:0:0:0:
447,41,30391,5,8,0:0:0:0:
325,246,30557,1,0,0:0:0:0:
189,47,30724,5,2,0:0:0:0:
141,39,30807,1,0,0:0:0:0:
95,55,30891,1,0,0:0:0:0:
56,83,30974,1,0,0:0:0:0:
44,135,31057,5,8,0:0:0:0:
71,181,31141,1,0,0:0:0:0:
41,226,31224,1,0,0:0:0:0:
63,274,31307,1,0,0:0:0:0:
37,322,31391,6,0,B|94:338|94:338|158:318,1,120,2|0,0:0|0:0,0:0:0:0:
287,200,31724,1,8,0:0:0:0:
344,173,31807,1,0,0:0:0:0:
407,177,31891,1,0,0:0:0:0:
458,212,31974,1,0,0:0:0:0:
489,266,32057,6,0,P|505:208|501:132,1,120,0|2,0:0|0:0,0:0:0:0:
347,34,32391,1,8,0:0:0:0:
294,21,32474,1,0,0:0:0:0:
242,36,32557,1,0,0:0:0:0:
189,21,32641,1,0,0:0:0:0:
137,36,32724,1,0,0:0:0:0:
86,17,32807,1,0,0:0:0:0:
31,50,32891,5,2,0:0:0:0:
4,107,32974,1,0,0:0:0:0:
38,159,33057,1,8,0:0:0:0:
14,216,33140,1,0,0:0:0:0:
53,265,33224,1,0,0:0:0:0:
29,322,33307,1,0,0:0:0:0:
69,371,33391,6,0,P|127:373|190:339,1,120,0|2,0:0|0:0,0:0:0:0:
157,155,33724,2,0,P|99:153|36:187,1,120,8|2,0:0|0:0,0:0:0:0:
226,240,34057,2,0,L|364:234,1,120,0|2,0:0|0:0,0:0:0:0:
495,45,34391,1,8,0:0:0:0:
443,30,34474,1,0,0:0:0:0:
389,33,34557,1,0,0:0:0:0:
341,59,34641,1,0,0:0:0:0:
307,101,34724,5,2,0:0:0:0:
487,221,34891,1,0,0:0:0:0:
487,221,34974,1,0,0:0:0:0:
487,221,35057,2,0,P|433:244|365:234,1,120,8|0,0:0|0:0,0:0:0:0:
218,102,35391,5,2,0:0:0:0:
164,93,35474,1,0,0:0:0:0:
111,106,35557,1,0,0:0:0:0:
56,100,35641,1,0,0:0:0:0:
8,141,35724,5,8,0:0:0:0:
16,203,35807,1,0,0:0:0:0:
79,208,35891,1,0,0:0:0:0:
97,148,35974,1,0,0:0:0:0:
56,100,36057,6,0,P|81:53|147:22,1,120,2|0,0:0|0:0,0:0:0:0:
295,113,36391,1,8,0:0:0:0:
156,307,36557,6,0,P|143:260|173:188,1,120,0|2,0:0|0:0,0:0:0:0:
343,273,36891,1,0,0:0:0:0:
156,306,37057,2,0,L|31:296,1,120,8|0,0:0|0:0,0:0:0:0:
45,54,37391,5,2,0:0:0:0:
89,37,37474,1,0,0:0:0:0:
129,62,37557,1,0,0:0:0:0:
135,109,37641,1,0,0:0:0:0:
123,155,37724,1,8,0:0:0:0:
143,198,37807,1,0,0:0:0:0:
188,215,37891,1,0,0:0:0:0:
233,201,37974,1,0,0:0:0:0:
273,153,38057,6,0,P|285:128|313:98,3,60,2|0|0|0,0:0|0:0|0:0|0:0,0:0:0:0:
365,125,38391,1,8,0:0:0:0:
380,185,38474,1,0,0:0:0:0:
395,245,38557,1,0,0:0:0:0:
410,306,38641,1,0,0:0:0:0:
425,366,38724,6,0,L|291:355,1,120,2|0,0:0|0:0,0:0:0:0:
127,194,39057,2,0,L|261:205,1,120,8|0,0:0|0:0,0:0:0:0:
433,49,39391,6,0,P|471:32|519:39,2,80,2|0|0,0:0|0:0|0:0,0:0:0:0:
282,102,39724,2,0,P|293:61|329:29,2,80,8|0|0,0:0|0:0|0:0,0:0:0:0:
304,260,40057,6,0,P|359:274|425:245,1,120,2|0,0:0|0:0,0:0:0:0:
490,86,40391,2,0,P|435:72|369:101,1,120,8|0,0:0|0:0,0:0:0:0:
235,204,40724,1,2,0:0:0:0:
187,212,40807,1,0,0:0:0:0:
139,201,40891,1,2,0:0:0:0:
100,173,40974,1,0,0:0:0:0:
76,131,41057,2,0,P|69:70|96:6,1,120,8|2,0:0|0:0,0:0:0:0:
253,91,41391,5,0,0:0:0:0:
423,34,41557,1,0,0:0:0:0:
423,34,41641,1,0,0:0:0:0:
424,33,41724,2,0,B|444:92|444:92|426:152,1,120,8|0,0:0|0:0,0:0:0:0:
228,195,42057,2,0,B|208:136|208:136|226:76,1,120,2|0,0:0|0:0,0:0:0:0:
342,291,42391,5,8,0:0:0:0:
108,341,42557,1,0,0:0:0:0:
108,341,42641,1,0,0:0:0:0:
108,341,42724,6,0,L|51:315,3,60,0|0|2|0,0:0|0:0|0:0|0:0,0:0:0:0:
25,276,43057,1,8,0:0:0:0:
13,229,43141,1,0,0:0:0:0:
21,182,43224,1,0,0:0:0:0:
47,142,43307,1,0,0:0:0:0:
96,120,43391,5,2,0:0:0:0:
147,137,43474,1,0,0:0:0:0:
199,147,43557,1,0,0:0:0:0:
253,148,43641,1,0,0:0:0:0:
302,128,43724,1,10,0:0:0:0:
352,112,43807,1,0,0:0:0:0:
407,112,43891,1,0,0:0:0:0:
455,135,43974,1,0,0:0:0:0:
495,170,44057,6,0,P|507:228|476:294,1,120,2|0,0:0|0:0,0:0:0:0:
449,315,44307,1,0,0:0:0:0:
404,333,44391,1,8,0:0:0:0:
357,322,44474,1,0,0:0:0:0:
313,342,44557,1,0,0:0:0:0:
266,328,44641,1,0,0:0:0:0:
220,286,44724,5,2,0:0:0:0:
218,223,44807,1,0,0:0:0:0:
273,192,44891,1,0,0:0:0:0:
328,221,44974,1,0,0:0:0:0:
390,217,45057,1,8,0:0:0:0:
419,161,45141,1,0,0:0:0:0:
404,100,45224,1,0,0:0:0:0:
345,77,45307,1,0,0:0:0:0:
282,67,45391,6,0,L|215:73,3,60,2|0|0|0,0:0|0:0|0:0|0:0,0:0:0:0:
174,79,45724,1,8,0:0:0:0:
126,83,45807,1,0,0:0:0:0:
77,88,45891,1,0,0:0:0:0:
29,93,45974,1,0,0:0:0:0:
64,133,46057,5,2,0:0:0:0:
87,182,46141,1,0,0:0:0:0:
89,235,46224,1,0,0:0:0:0:
69,285,46307,1,0,0:0:0:0:
29,334,46391,5,8,0:0:0:0:
89,316,46474,1,0,0:0:0:0:
151,309,46557,2,0,P|183:310|221:317,1,60,2|0,0:0|0:0,0:0:0:0:
333,365,46724,5,0,0:0:0:0:
256,192,46807,12,2,48057,0:0:0:0:
152,312,56891,5,2,0:0:0:0:
360,312,57057,1,2,0:0:0:0:
152,312,57224,1,2,0:0:0:0:
360,311,57391,6,0,P|381:241|355:158,1,150,6|0,0:0|0:0,0:0:0:0:
314,130,57641,1,0,0:0:0:0:
314,130,57724,2,0,L|487:117,1,150,8|0,0:0|0:0,0:0:0:0:
225,302,58057,6,0,P|152:279|124:212,1,150,2|0,0:0|0:0,0:0:0:0:
121,156,58307,1,0,0:0:0:0:
121,156,58391,2,0,B|124:116|124:116|174:60|174:60|178:23,1,150,8|0,0:0|0:0,0:0:0:0:
346,274,58724,6,0,P|437:225|419:106,1,225,2|0,0:0|0:0,0:0:0:0:
381,79,59057,1,8,0:0:0:0:
229,246,59224,1,0,0:0:0:0:
64,92,59391,1,2,0:0:0:0:
321,167,59557,1,0,0:0:0:0:
321,167,59641,1,0,0:0:0:0:
321,167,59724,2,0,P|394:184|458:143,1,150,8|0,0:0|0:0,0:0:0:0:
218,15,60057,5,2,0:0:0:0:
162,39,60141,1,0,0:0:0:0:
132,91,60224,1,0,0:0:0:0:
121,149,60307,1,0,0:0:0:0:
144,204,60391,1,8,0:0:0:0:
309,134,60557,1,0,0:0:0:0:
309,134,60641,1,0,0:0:0:0:
309,133,60724,2,0,P|387:125|456:167,1,150,2|0,0:0|0:0,0:0:0:0:
287,337,61057,1,8,0:0:0:0:
134,150,61224,1,0,0:0:0:0:
134,150,61307,1,0,0:0:0:0:
134,150,61391,5,2,0:0:0:0:
286,244,61557,2,0,L|383:249,2,75,0|0|8,0:0|0:0|0:0,0:0:0:0:
112,295,61891,2,0,L|15:290,2,75,0|0|2,0:0|0:0|0:0,0:0:0:0:
263,108,62224,1,0,0:0:0:0:
263,108,62307,1,0,0:0:0:0:
263,108,62391,2,0,P|338:98|411:129,1,150,8|0,0:0|0:0,0:0:0:0:
440,174,62641,1,0,0:0:0:0:
455,231,62724,5,2,0:0:0:0:
240,369,62891,1,0,0:0:0:0:
240,369,62974,1,0,0:0:0:0:
240,369,63057,2,0,L|249:215,1,150,8|0,0:0|0:0,0:0:0:0:
348,67,63391,1,2,0:0:0:0:
146,164,63557,1,0,0:0:0:0:
146,164,63641,1,0,0:0:0:0:
146,164,63724,2,0,P|116:103|159:33,1,150,8|0,0:0|0:0,0:0:0:0:
378,46,64057,5,0,0:0:0:0:
421,88,64141,1,0,0:0:0:0:
431,146,64224,1,2,0:0:0:0:
398,196,64307,1,0,0:0:0:0:
344,225,64391,2,0,L|185:223,1,150,8|0,0:0|0:0,0:0:0:0:
270,59,64724,5,2,0:0:0:0:
248,328,64891,1,0,0:0:0:0:
248,328,64974,1,0,0:0:0:0:
248,328,65057,2,0,B|172:343|172:343|97:310,1,150,8|0,0:0|0:0,0:0:0:0:
58,45,65391,5,2,3:1:0:0:
289,104,65557,1,2,3:1:0:0:
118,273,65724,1,8,3:1:0:0:
158,35,65891,5,2,3:1:0:0:
383,114,66057,1,2,3:1:0:0:
198,268,66224,1,8,3:1:0:0:
260,35,66391,5,2,3:1:0:0:
477,133,66557,1,2,3:1:0:0:
279,270,66724,1,8,3:1:0:0:
362,44,66891,5,2,3:1:0:0:
389,97,66974,1,0,3:1:0:0:
353,145,67057,1,8,3:1:0:0:
381,198,67141,1,0,3:1:0:0:
352,250,67224,1,2,3:1:0:0:
375,304,67307,1,0,3:1:0:0:
352,360,67391,5,2,3:1:0:0:
4,29,67724,1,6,0:0:0:0:
483,18,68057,6,0,P|496:88|471:175,1,150,6|0,0:0|0:0,0:0:0:0:
442,212,68307,1,0,0:0:0:0:
384,232,68391,1,8,0:0:0:0:
190,215,68557,2,0,P|145:159|162:77,1,150,2|0,0:0|0:0,0:0:0:0:
385,160,68891,1,0,0:0:0:0:
385,160,68974,1,0,0:0:0:0:
385,160,69057,2,0,L|366:322,1,150,8|0,0:0|0:0,0:0:0:0:
322,349,69307,1,0,0:0:0:0:
262,361,69391,6,0,P|184:346|145:288,1,150,2|0,0:0|0:0,0:0:0:0:
273,142,69724,1,8,0:0:0:0:
273,142,69807,1,0,0:0:0:0:
273,142,69891,1,2,0:0:0:0:
389,297,70057,1,0,0:0:0:0:
165,194,70224,5,0,0:0:0:0:
288,42,70391,1,8,0:0:0:0:
360,222,70557,1,0,0:0:0:0:
360,222,70641,1,0,0:0:0:0:
360,222,70724,6,0,B|393:238|422:240|422:240|462:210|521:215,2,150,2|0|8,0:0|0:0|0:0,0:0:0:0:
190,318,71224,1,2,0:0:0:0:
190,318,71307,1,0,0:0:0:0:
190,318,71391,2,0,P|114:309|73:250,1,150,0|0,0:0|0:0,0:0:0:0:
179,88,71724,1,8,0:0:0:0:
319,224,71891,1,0,0:0:0:0:
319,224,71974,1,0,0:0:0:0:
319,224,72057,6,0,B|394:242|394:242|474:198,2,150,0|2|8,0:0|0:0|0:0,0:0:0:0:
103,157,72557,1,0,0:0:0:0:
60,200,72641,1,0,0:0:0:0:
39,256,72724,6,0,P|79:316|162:298,1,150
287,169,73057,1,8,0:0:0:0:
340,140,73141,1,0,0:0:0:0:
399,145,73224,1,0,0:0:0:0:
453,170,73307,1,0,0:0:0:0:
487,219,73391,6,0,B|496:294|496:294|460:371,1,150,6|0,0:0|0:0,0:0:0:0:
309,241,73724,2,0,P|234:222|167:263,1,150,8|0,0:0|0:0,0:0:0:0:
137,303,73974,1,0,0:0:0:0:
137,303,74057,6,0,L|151:146,1,150,2|0,0:0|0:0,0:0:0:0:
362,74,74391,2,0,L|348:231,1,150,8|0,0:0|0:0,0:0:0:0:
101,52,74724,5,2,0:0:0:0:
230,318,74891,1,0,0:0:0:0:
282,26,75057,1,8,0:0:0:0:
69,231,75224,1,0,0:0:0:0:
361,191,75391,5,2,0:0:0:0:
361,191,75474,1,0,0:0:0:0:
361,191,75557,1,0,0:0:0:0:
156,140,75724,2,0,P|82:133|11:154,1,150,8|0,0:0|0:0,0:0:0:0:
207,339,76057,5,2,0:0:0:0:
264,318,76141,1,0,0:0:0:0:
310,281,76224,1,0,0:0:0:0:
340,229,76307,1,0,0:0:0:0:
348,169,76391,2,0,P|337:129|317:94,3,75,8|0|0|0,0:0|0:0|0:0|0:0,0:0:0:0:
271,64,76724,5,2,0:0:0:0:
449,247,76891,1,0,0:0:0:0:
196,221,77057,1,8,0:0:0:0:
406,76,77224,1,0,0:0:0:0:
406,76,77307,1,0,0:0:0:0:
406,76,77391,6,0,P|380:143|305:148,1,150,2|0,0:0|0:0,0:0:0:0:
90,50,77724,1,8,0:0:0:0:
83,109,77807,1,0,0:0:0:0:
76,169,77891,1,0,0:0:0:0:
69,228,77974,1,0,0:0:0:0:
62,287,78057,5,2,0:0:0:0:
118,264,78141,1,0,0:0:0:0:
177,257,78224,1,0,0:0:0:0:
234,274,78307,1,0,0:0:0:0:
289,313,78391,5,8,0:0:0:0:
356,312,78474,1,0,0:0:0:0:
406,268,78557,1,0,0:0:0:0:
407,199,78641,1,0,0:0:0:0:
370,143,78724,5,0,3:0:0:0:
156,369,79057,1,0,0:0:0:0:
156,369,79391,5,0,0:0:0:0:
156,369,79557,1,0,0:0:0:0:
263,154,79724,5,4,0:0:0:0:
395,355,79891,1,0,0:0:0:0:
139,246,80057,5,2,3:0:0:0:
417,50,80224,1,2,3:0:0:0:
406,114,80307,1,2,3:0:0:0:
394,179,80391,1,2,3:0:0:0:
216,301,80557,1,2,3:0:0:0:
82,130,80724,1,2,3:0:0:0:
313,64,80891,5,8,0:0:0:0:
313,64,81057,1,8,0:0:0:0:
313,64,81224,1,8,0:0:0:0:
473,146,81391,6,0,P|452:204|402:238,1,120,2|0,0:0|0:0,0:0:0:0:
357,238,81641,1,0,0:0:0:0:
357,238,81724,2,0,L|231:228,1,120,8|0,0:0|0:0,0:0:0:0:
180,56,82057,1,2,0:0:0:0:
132,67,82141,1,0,0:0:0:0:
93,95,82224,1,0,0:0:0:0:
67,135,82307,1,0,0:0:0:0:
59,182,82391,2,0,L|63:249,3,60,8|0|0|0,0:0|0:0|0:0|0:0,0:0:0:0:
78,287,82724,6,0,P|132:314|204:308,1,120,2|0,0:0|0:0,0:0:0:0:
353,170,83057,2,0,P|299:143|227:149,1,120,8|0,0:0|0:0,0:0:0:0:
198,168,83307,1,0,0:0:0:0:
157,194,83391,1,2,0:0:0:0:
109,194,83474,1,0,0:0:0:0:
65,175,83557,1,0,0:0:0:0:
43,131,83641,1,0,0:0:0:0:
91,91,83724,5,8,0:0:0:0:
144,123,83807,1,0,0:0:0:0:
167,182,83891,1,0,0:0:0:0:
157,244,83974,1,0,0:0:0:0:
128,299,84057,6,0,P|64:313|21:282,1,120,2|0,0:0|0:0,0:0:0:0:
3,239,84307,1,0,0:0:0:0:
16,192,84391,1,8,0:0:0:0:
226,145,84557,1,0,0:0:0:0:
226,145,84641,1,0,0:0:0:0:
226,145,84724,2,0,P|264:199|260:257,1,120,2|0,0:0|0:0,0:0:0:0:
420,163,85057,2,0,P|408:97|436:47,1,120,8|0,0:0|0:0,0:0:0:0:
479,288,85391,6,0,L|415:318,3,60,2|0|0|0,0:0|0:0|0:0|0:0,0:0:0:0:
378,326,85724,1,8,0:0:0:0:
330,327,85807,1,0,0:0:0:0:
284,311,85891,1,0,0:0:0:0:
264,72,86057,5,2,0:0:0:0:
324,52,86141,1,0,0:0:0:0:
386,49,86224,1,0,0:0:0:0:
444,73,86307,1,0,0:0:0:0:
490,116,86391,6,0,L|503:193,1,60,8|0,0:0|0:0,0:0:0:0:
363,187,86557,2,0,L|345:259,1,60
217,204,86724,6,0,P|156:213|84:186,1,120,2|0,0:0|0:0,0:0:0:0:
88,16,87057,2,0,L|28:24,2,60,8|0|0,0:0|0:0|0:0,0:0:0:0:
329,24,87391,6,0,L|425:32,2,80,2|0|0,0:0|0:0|0:0,0:0:0:0:
276,94,87724,2,0,B|261:120|271:151|271:151|282:184|269:215,1,120,8|0,3:1|0:0,0:0:0:0:
25,334,88057,5,2,0:0:0:0:
70,318,88141,1,0,0:0:0:0:
115,332,88224,1,0,0:0:0:0:
158,351,88307,1,0,0:0:0:0:
203,333,88391,1,8,0:0:0:0:
328,205,88557,1,0,0:0:0:0:
442,344,88724,6,0,L|502:328,3,60,2|0|0|0,0:0|0:0|0:0|0:0,0:0:0:0:
507,262,89057,1,8,0:0:0:0:
467,208,89141,1,0,0:0:0:0:
501,151,89224,1,0,0:0:0:0:
471,92,89307,1,0,0:0:0:0:
499,32,89391,6,0,L|416:19,2,80,2|0|0,0:0|0:0|0:0,0:0:0:0:
398,161,89724,2,0,L|308:173,1,80,8|0,0:0|0:0,0:0:0:0:
338,215,89891,2,0,L|208:198,1,120,0|2,0:0|0:0,0:0:0:0:
167,26,90224,1,0,0:0:0:0:
110,201,90391,2,0,P|79:262|31:307,1,120,8|0,0:0|0:0,0:0:0:0:
264,110,90724,6,0,L|388:104,1,120,2|0,0:0|0:0,0:0:0:0:
264,313,91057,2,0,L|140:319,1,120,8|0,0:0|0:0,0:0:0:0:
25,181,91391,1,2,0:0:0:0:
235,223,91557,1,0,0:0:0:0:
281,235,91641,1,0,0:0:0:0:
325,218,91724,1,8,0:0:0:0:
365,191,91807,1,0,0:0:0:0:
409,171,91891,1,0,0:0:0:0:
456,172,91974,1,0,0:0:0:0:
499,193,92057,6,0,P|511:136|491:70,1,120,2|0,0:0|0:0,0:0:0:0:
316,46,92391,2,0,P|304:103|324:169,1,120,8|0,0:0|0:0,0:0:0:0:
418,353,92724,2,0,P|430:296|410:230,1,120,2|0,0:0|0:0,0:0:0:0:
235,206,93058,2,0,P|223:263|243:329,1,120,8|0,0:0|0:0,0:0:0:0:
274,353,93307,1,0,0:0:0:0:
274,353,93391,6,0,L|140:344,1,120,2|0,0:0|0:0,0:0:0:0:
113,132,93724,1,8,0:0:0:0:
251,246,93891,1,0,0:0:0:0:
251,246,93974,1,0,0:0:0:0:
251,246,94057,2,0,P|310:248|364:211,1,120,2|0,0:0|0:0,0:0:0:0:
300,19,94391,5,0,0:0:0:0:
237,19,94474,1,0,0:0:0:0:
174,19,94557,1,0,0:0:0:0:
110,19,94641,1,0,0:0:0:0:
47,19,94724,6,0,P|31:80|52:143,1,120,2|0,0:0|0:0,0:0:0:0:
195,234,95057,2,0,L|279:239,2,80,8|0|0,0:0|0:0|0:0,0:0:0:0:
335,306,95391,6,0,P|361:258|351:193,1,120,2|0,0:0|0:0,0:0:0:0:
132,166,95724,2,0,P|106:214|116:279,1,120,8|0,0:0|0:0,0:0:0:0:
255,128,96057,6,0,P|266:66|255:6,1,120,2|0,0:0|0:0,0:0:0:0:
86,181,96391,1,8,0:0:0:0:
256,300,96557,1,0,0:0:0:0:
426,181,96724,2,0,L|490:196,3,60,2|0|0|0,0:0|0:0|0:0|0:0,0:0:0:0:
509,252,97057,1,8,0:0:0:0:
501,315,97141,1,0,0:0:0:0:
450,351,97224,1,0,0:0:0:0:
387,351,97307,1,0,0:0:0:0:
330,322,97391,6,0,P|273:318|206:345,2,120,2|0|8,0:0|0:0|0:0,0:0:0:0:
434,174,97891,1,0,0:0:0:0:
434,174,97974,2,0,P|385:118|284:138,1,180,2|0,0:0|0:0,0:0:0:0:
183,279,98391,1,8,0:0:0:0:
74,65,98557,1,0,0:0:0:0:
264,167,98724,5,2,0:0:0:0:
311,158,98807,1,0,0:0:0:0:
349,128,98891,1,0,0:0:0:0:
363,82,98974,1,0,0:0:0:0:
349,35,99057,2,0,L|224:25,1,120,8|0,0:0|0:0,0:0:0:0:
26,104,99391,6,0,L|11:176,3,60,2|0|0|0,0:0|0:0|0:0|0:0,0:0:0:0:
12,216,99724,1,8,0:0:0:0:
27,267,99807,1,0,0:0:0:0:
61,309,99891,1,0,0:0:0:0:
276,305,100057,5,2,0:0:0:0:
276,305,100141,1,0,0:0:0:0:
276,305,100224,1,0,0:0:0:0:
276,305,100307,1,0,0:0:0:0:
275,305,100391,2,0,B|303:251|303:251|290:184,1,120,8|0,0:0|0:0,0:0:0:0:
152,77,100724,1,2,0:0:0:0:
31,211,100891,1,0,0:0:0:0:
20,257,100974,1,0,0:0:0:0:
32,303,101057,2,0,P|86:320|158:296,1,120,8|0,0:0|0:0,0:0:0:0:
220,74,101391,5,2,0:0:0:0:
220,74,101474,1,0,0:0:0:0:
220,74,101557,1,0,0:0:0:0:
366,264,101724,5,8,0:0:0:0:
366,264,101807,1,0,0:0:0:0:
366,264,101891,1,0,0:0:0:0:
435,35,102057,5,2,0:0:0:0:
57,191,102391,1,8,0:0:0:0:
435,349,102724,6,0,P|471:281|441:183,1,180.000006866455,2|8,3:1|0:0,0:0:0:0:
289,162,103280,1,0,0:0:0:0:
289,162,103391,2,0,L|164:145,1,120.000004577637,4|0,0:0|0:0,0:0:0:0:
130,78,103724,1,8,0:0:0:0:
175,226,103946,1,0,0:0:0:0:
175,226,104057,6,0,P|258:264|353:217,2,180.000006866455,4|8|4,0:0|0:0|0:0,0:0:0:0:
165,69,104946,1,0,0:0:0:0:
165,69,105057,1,8,0:0:0:0:
369,71,105280,1,0,0:0:0:0:
369,71,105391,6,0,P|439:118|450:212,1,180.000006866455,4|8,3:2|0:0,0:0:0:0:
346,307,105891,1,0,0:0:0:0:
249,201,106057,1,10,3:2:0:0:
147,303,106224,1,0,0:0:0:0:
59,188,106391,2,0,P|56:122|111:72,1,120.000004577637,8|8,0:0|0:0,0:0:0:0:
147,72,106724,5,8,0:0:0:0:
206,74,106835,1,8,0:0:0:0:
265,76,106946,1,8,0:0:0:0:
324,78,107057,1,8,0:0:0:0:
384,80,107169,1,8,0:0:0:0:
443,82,107280,1,8,0:0:0:0:
502,84,107391,2,0,P|506:142|468:194,1,120.000004577637,4|0,0:0|0:0,0:0:0:0:
412,202,107724,2,0,L|289:198,1,120.000004577637,8|8,0:0|0:0,0:0:0:0:
244,161,108057,5,4,0:0:0:0:
53,297,108391,2,0,L|44:173,1,120.000004577637,8|0,0:0|0:0,0:0:0:0:
134,246,108724,2,0,L|166:52,1,180.000006866455,4|8,0:0|0:0,0:0:0:0:
211,31,109169,1,0,0:0:0:0:
270,24,109280,1,0,0:0:0:0:
322,53,109391,6,0,P|403:74|493:11,2,180.000006866455,4|8|4,0:0|0:0|0:0,0:0:0:0:
174,105,110280,2,0,L|144:173,1,60.0000022888184,0|8,0:0|0:0,0:0:0:0:
264,265,110613,1,0,0:0:0:0:
264,265,110724,6,0,B|321:268|321:268|379:221|379:221|446:224,2,180.000006866455,4|8|4,0:0|0:0|0:0,0:0:0:0:
143,165,111613,1,0,0:0:0:0:
143,165,111724,1,8,0:0:0:0:
291,116,111946,1,0,0:0:0:0:
291,116,112057,6,0,P|373:185|284:218,1,240,4|4,0:0|0:0,0:0:0:0:
178,173,112891,5,2,0:0:0:0:
344,37,113057,1,2,0:0:0:0:
482,203,113224,1,2,0:0:0:0:
214,339,113391,6,0,P|126:329|119:197,1,225,6|0,0:0|0:0,0:0:0:0:
155,174,113724,2,0,L|306:176,1,150,8|0,0:0|0:0,0:0:0:0:
491,302,114057,6,0,P|509:241|489:153,1,150,2|0,0:0|0:0,0:0:0:0:
463,104,114307,1,0,0:0:0:0:
419,62,114391,2,0,B|379:46|379:46|310:71|267:54,1,150,8|0,0:0|0:0,0:0:0:0:
65,141,114724,6,0,P|82:217|61:289,1,150,2|0,0:0|0:0,0:0:0:0:
17,324,114974,1,0,0:0:0:0:
17,324,115057,2,0,L|191:311,1,150,8|0,0:0|0:0,0:0:0:0:
215,138,115391,2,0,P|284:106|357:139,1,150,2|0,0:0|0:0,0:0:0:0:
380,182,115641,1,0,0:0:0:0:
397,239,115724,5,8,0:0:0:0:
338,224,115807,1,0,0:0:0:0:
283,249,115891,1,0,0:0:0:0:
252,300,115974,1,0,0:0:0:0:
226,354,116057,6,0,P|156:359|98:294,1,150,2|0,0:0|0:0,0:0:0:0:
251,179,116391,2,0,L|409:174,1,150,8|0,0:0|0:0,0:0:0:0:
457,151,116641,2,0,P|459:109|444:68,1,75,0|2,0:0|0:0,0:0:0:0:
259,30,116891,1,0,0:0:0:0:
199,37,116974,1,0,0:0:0:0:
141,54,117057,2,0,P|86:107|81:181,1,150,8|0,0:0|0:0,0:0:0:0:
206,327,117391,5,2,0:0:0:0:
264,337,117474,1,0,0:0:0:0:
323,334,117557,1,0,0:0:0:0:
380,316,117641,1,0,0:0:0:0:
429,279,117724,2,0,L|442:126,1,150,8|0,0:0|0:0,0:0:0:0:
261,53,118057,2,0,L|274:206,1,150,2|0,0:0|0:0,0:0:0:0:
455,42,118391,1,8,0:0:0:0:
455,42,118474,1,0,0:0:0:0:
455,42,118557,1,0,0:0:0:0:
455,42,118641,1,0,0:0:0:0:
454,41,118724,6,0,B|407:30|407:30|362:60|288:46,1,150,2|0,0:0|0:0,0:0:0:0:
411,159,119057,2,0,P|431:237|392:306,1,150,8|0,0:0|0:0,0:0:0:0:
352,330,119307,1,0,0:0:0:0:
292,337,119391,6,0,L|134:305,1,150,2|0,0:0|0:0,0:0:0:0:
319,219,119724,2,0,L|161:187,1,150,8|0,0:0|0:0,0:0:0:0:
118,160,119974,1,0,0:0:0:0:
118,160,120057,6,0,P|99:83|146:19,1,150,2|0,0:0|0:0,0:0:0:0:
193,13,120307,1,0,0:0:0:0:
250,32,120391,1,8,0:0:0:0:
379,176,120557,2,0,P|416:173|456:178,2,75,0|0|2,0:0|0:0|0:0,0:0:0:0:
370,235,120807,1,0,0:0:0:0:
331,281,120891,1,0,0:0:0:0:
276,304,120974,1,0,0:0:0:0:
216,295,121057,1,8,0:0:0:0:
167,258,121141,1,0,0:0:0:0:
109,243,121224,1,0,0:0:0:0:
49,250,121307,1,0,0:0:0:0:
8,294,121391,5,2,0:0:0:0:
107,76,121557,1,0,0:0:0:0:
107,76,121641,1,0,0:0:0:0:
107,76,121724,1,8,0:0:0:0:
6,327,121891,5,2,0:0:0:0:
209,150,122057,1,0,0:0:0:0:
209,150,122141,1,0,0:0:0:0:
209,150,122224,1,8,0:0:0:0:
4,359,122391,5,2,0:0:0:0:
285,258,122557,1,0,0:0:0:0:
285,258,122641,1,0,0:0:0:0:
285,258,122724,6,0,L|369:254,1,75,8|0,0:0|0:0,0:0:0:0:
293,182,122891,2,0,L|377:178,1,75,2|0,0:0|0:0,0:0:0:0:
301,107,123057,2,0,L|385:103,1,75,8|0,0:0|0:0,0:0:0:0:
309,31,123224,2,0,L|393:27,1,75,2|0,0:0|0:0,0:0:0:0:
492,191,123391,5,2,3:1:0:0:
36,31,123724,1,6,0:0:0:0:
394,349,124057,6,0,P|405:283|396:198,1,150,6|0,0:0|0:0,0:0:0:0:
346,167,124307,1,0,0:0:0:0:
286,176,124391,1,8,0:0:0:0:
137,301,124557,1,0,0:0:0:0:
137,301,124641,1,0,0:0:0:0:
137,301,124724,2,0,B|121:263|134:227|134:227|146:188|134:153,1,150,2|0,0:0|0:0,0:0:0:0:
311,77,125057,1,8,0:0:0:0:
74,33,125224,1,0,0:0:0:0:
74,33,125307,1,0,0:0:0:0:
74,33,125391,6,0,P|146:23|208:80,2,150,2|0|8,0:0|0:0|0:0,0:0:0:0:
15,219,125891,1,0,0:0:0:0:
43,271,125974,1,0,0:0:0:0:
91,306,126057,2,0,P|160:323|246:304,1,150,2|0,0:0|0:0,0:0:0:0:
318,129,126391,2,0,P|249:112|163:131,1,150,8|0,0:0|0:0,0:0:0:0:
135,174,126641,1,0,0:0:0:0:
134,173,126724,6,0,B|165:107|165:107|145:12,1,150,2|0,0:0|0:0,0:0:0:0:
92,10,126974,2,0,L|2:13,1,75,0|8,0:0|0:0,0:0:0:0:
68,231,127224,1,0,0:0:0:0:
122,256,127307,1,0,0:0:0:0:
181,242,127391,6,0,P|255:233|339:252,1,150,2|0,0:0|0:0,0:0:0:0:
483,366,127724,1,8,0:0:0:0:
387,161,127891,1,0,0:0:0:0:
387,161,127974,1,0,0:0:0:0:
387,161,128057,6,0,P|426:96|511:93,1,150,2|0,0:0|0:0,0:0:0:0:
344,295,128391,2,0,L|181:303,1,150,8|0,0:0|0:0,0:0:0:0:
137,282,128641,1,0,0:0:0:0:
101,233,128724,1,2,0:0:0:0:
164,32,128891,1,0,0:0:0:0:
221,14,128974,1,0,0:0:0:0:
277,33,129057,1,0,0:0:0:0:
329,63,129141,1,8,0:0:0:0:
380,92,129224,1,0,0:0:0:0:
438,105,129307,1,0,0:0:0:0:
495,84,129391,6,0,P|510:161|494:248,1,150,6|0,0:0|0:0,0:0:0:0:
327,322,129724,1,8,0:0:0:0:
327,322,129807,1,0,0:0:0:0:
327,322,129891,1,0,0:0:0:0:
139,264,130057,2,0,P|102:193|147:149,1,150,2|0,0:0|0:0,0:0:0:0:
201,166,130307,1,0,0:0:0:0:
255,140,130391,1,8,0:0:0:0:
310,162,130474,1,0,0:0:0:0:
365,139,130557,1,0,0:0:0:0:
421,160,130641,1,0,0:0:0:0:
476,137,130724,6,0,P|501:66|469:3,1,150,2|0,0:0|0:0,0:0:0:0:
327,157,131057,1,8,0:0:0:0:
167,20,131224,1,0,0:0:0:0:
167,20,131307,1,0,0:0:0:0:
167,20,131391,6,0,P|91:43|45:116,1,150,2|0,0:0|0:0,0:0:0:0:
145,268,131724,2,0,P|221:245|267:172,1,150,8|0,0:0|0:0,0:0:0:0:
280,132,131974,1,0,0:0:0:0:
316,84,132057,6,0,L|402:71,3,75,2|0|0|0,0:0|0:0|0:0|0:0,0:0:0:0:
389,201,132391,2,0,L|489:217,3,75,8|0|0|0,0:0|0:0|0:0|0:0,0:0:0:0:
412,331,132724,5,2,0:0:0:0:
357,355,132807,1,0,0:0:0:0:
297,364,132891,1,0,0:0:0:0:
241,341,132974,1,0,0:0:0:0:
198,299,133057,2,0,P|179:229|203:155,1,150,8|0,0:0|0:0,0:0:0:0:
242,112,133307,1,0,0:0:0:0:
291,77,133391,6,0,L|447:72,1,150,2|0,3:1|0:0,0:0:0:0:
284,329,133724,2,0,L|128:334,1,150,10|0,3:1|0:0,0:0:0:0:
79,308,133974,1,0,0:0:0:0:
47,257,134057,1,2,0:0:0:0:
60,198,134141,1,0,0:0:0:0:
106,160,134224,1,0,0:0:0:0:
165,153,134307,1,0,0:0:0:0:
215,198,134391,5,8,0:0:0:0:
271,233,134474,1,0,0:0:0:0:
336,249,134557,1,0,0:0:0:0:
401,229,134641,1,0,0:0:0:0:
449,182,134724,6,0,P|473:96|423:21,1,180.000006866455,4|8,0:0|0:0,0:0:0:0:
297,149,135224,2,0,L|286:201,2,45.0000017166138,0|0|2,0:0|0:0|0:0,0:0:0:0:
170,20,135557,2,0,P|123:21|73:53,1,90.0000034332277,0|8,0:0|0:0,0:0:0:0:
54,73,135807,1,0,0:0:0:0:
40,125,135891,1,0,0:0:0:0:
48,178,135974,1,0,0:0:0:0:
71,226,136057,6,0,B|111:243|159:224|159:224|204:203|253:217,1,180.000006866455,2|8,0:0|0:0,0:0:0:0:
398,339,136557,2,0,P|360:362|316:359,1,90.0000034332277,0|2,0:0|0:0,0:0:0:0:
387,175,136891,2,0,P|424:151|468:154,2,90.0000034332277,0|8|0,0:0|0:0|0:0,0:0:0:0:
347,211,137307,1,0,0:0:0:0:
347,211,137391,6,0,B|363:168|338:123|338:123|311:73|334:28,1,180.000006866455,2|8,0:0|0:0,0:0:0:0:
468,210,137891,1,0,0:0:0:0:
468,210,137974,1,0,0:0:0:0:
468,210,138057,2,0,P|450:299|377:343,1,180.000006866455,2|8,0:0|0:0,0:0:0:0:
236,231,138557,1,0,0:0:0:0:
236,231,138641,1,0,0:0:0:0:
236,231,138724,5,0,0:0:0:0:
138,122,138891,2,0,P|128:79|139:32,1,90.0000034332277,0|8,0:0|0:0,0:0:0:0:
310,86,139224,1,2,0:0:0:0:
160,203,139391,2,0,L|55:217,1,90.0000034332277,0|0,0:0|0:0,0:0:0:0:
17,224,139641,1,0,0:0:0:0:
17,224,139724,2,0,P|51:253|72:298,1,90.0000034332277,8|0,0:0|0:0,0:0:0:0:
232,149,140057,6,0,P|313:107|387:152,1,180.000006866455,4|8,0:0|0:0,0:0:0:0:
267,296,140557,1,0,0:0:0:0:
267,296,140641,1,0,0:0:0:0:
267,296,140724,2,0,P|220:305|174:292,1,90.0000034332277,2|0,0:0|0:0,0:0:0:0:
167,78,141057,1,10,0:0:0:0:
308,202,141224,1,0,0:0:0:0:
406,41,141391,5,2,0:0:0:0:
406,41,141474,1,0,0:0:0:0:
406,41,141557,1,0,0:0:0:0:
406,41,141641,1,0,0:0:0:0:
406,41,141724,2,0,P|451:55|477:90,1,90.0000034332277,8|0,0:0|0:0,0:0:0:0:
482,142,141974,1,0,0:0:0:0:
464,192,142057,6,0,L|361:208,1,90.0000034332277,2|0,0:0|0:0,0:0:0:0:
327,180,142307,1,0,0:0:0:0:
278,155,142391,1,8,0:0:0:0:
224,162,142474,1,0,0:0:0:0:
181,195,142557,1,0,0:0:0:0:
335,341,142724,6,0,P|386:279|389:164,1,180.000006866455,2|8,0:0|0:0,0:0:0:0:
273,74,143224,1,0,0:0:0:0:
220,64,143307,1,0,0:0:0:0:
169,85,143391,2,0,P|157:158|164:232,1,135.000005149841,2|0,0:0|0:0,0:0:0:0:
195,260,143724,1,8,0:0:0:0:
355,176,143891,1,0,0:0:0:0:
355,176,143974,1,0,0:0:0:0:
355,176,144057,6,0,P|397:163|457:157,1,90.0000034332277,2|0,0:0|0:0,0:0:0:0:
243,238,144391,2,0,P|201:225|141:219,1,90.0000034332277,8|0,0:0|0:0,0:0:0:0:
104,236,144641,1,0,0:0:0:0:
59,279,144724,5,8,0:0:0:0:
83,221,144807,1,0,0:0:0:0:
93,158,144891,1,0,0:0:0:0:
77,97,144974,1,0,0:0:0:0:
37,48,145057,2,0,L|-3:15,1,45.0000017166138,0|0,3:0|3:0,0:0:0:0:
283,144,145391,5,2,0:0:0:0:
283,144,145474,1,0,0:0:0:0:
283,144,145557,1,0,0:0:0:0:
451,79,145724,2,0,P|469:139|451:204,1,120,8|0,0:0|0:0,0:0:0:0:
281,358,146057,2,0,P|263:298|281:233,1,120,2|0,0:0|0:0,0:0:0:0:
92,84,146391,2,0,P|110:144|92:209,1,120,8|0,0:0|0:0,0:0:0:0:
289,54,146724,5,2,0:0:0:0:
335,45,146807,1,0,0:0:0:0:
383,40,146891,1,0,0:0:0:0:
234,160,147057,2,0,P|181:123|163:61,1,120,8|0,0:0|0:0,0:0:0:0:
169,24,147307,1,0,0:0:0:0:
169,24,147391,2,0,L|293:17,1,120,2|0,0:0|0:0,0:0:0:0:
407,152,147724,1,8,0:0:0:0:
425,196,147807,1,0,0:0:0:0:
403,239,147891,1,0,0:0:0:0:
417,284,147974,1,0,0:0:0:0:
398,328,148057,6,2,L|320:334,1,60
299,302,148224,2,0,P|247:276|176:284,1,120,0|8,0:0|0:0,0:0:0:0:
24,359,148557,1,0,0:0:0:0:
194,188,148724,6,0,P|203:125|180:62,1,120,2|0,0:0|0:0,0:0:0:0:
32,166,149057,2,0,P|23:229|46:292,1,120,8|0,0:0|0:0,0:0:0:0:
77,311,149307,1,0,0:0:0:0:
125,316,149391,5,2,0:0:0:0:
168,297,149474,1,0,0:0:0:0:
214,284,149557,1,0,0:0:0:0:
262,289,149641,1,0,0:0:0:0:
305,309,149724,1,8,0:0:0:0:
344,335,149807,1,0,0:0:0:0:
391,345,149891,2,0,P|420:341|450:327,1,60
501,172,150057,6,0,P|490:110|450:64,1,120,2|0,0:0|0:0,0:0:0:0:
318,187,150391,1,8,0:0:0:0:
186,64,150557,1,0,0:0:0:0:
186,64,150641,1,0,0:0:0:0:
186,64,150724,6,0,L|53:54,2,120,2|0|8,0:0|0:0|0:0,0:0:0:0:
115,229,151224,1,0,0:0:0:0:
335,134,151391,6,0,P|360:186|351:258,1,120,2|0,0:0|0:0,0:0:0:0:
135,343,151724,2,0,P|110:291|119:219,1,120,8|0,0:0|0:0,0:0:0:0:
134,185,151974,1,0,0:0:0:0:
167,151,152057,6,0,L|306:143,1,120,2|0,0:0|0:0,0:0:0:0:
332,160,152307,2,0,P|344:130|347:93,1,60,0|8,0:0|0:0,0:0:0:0:
139,41,152557,1,0,0:0:0:0:
205,246,152724,1,2,0:0:0:0:
238,279,152807,1,0,0:0:0:0:
282,298,152891,1,0,0:0:0:0:
328,308,152974,1,0,0:0:0:0:
372,291,153057,2,0,P|412:264|481:276,1,120,8|0,0:0|0:0,0:0:0:0:
505,315,153307,1,0,0:0:0:0:
488,366,153391,5,2,0:0:0:0:
440,368,153474,1,0,0:0:0:0:
392,370,153557,1,0,0:0:0:0:
343,372,153641,1,0,0:0:0:0:
295,374,153724,2,0,L|224:376,2,60,8|0|0,0:0|0:0|0:0,0:0:0:0:
427,251,154057,2,0,P|437:189|420:119,1,120,2|0,0:0|0:0,0:0:0:0:
208,138,154391,2,0,P|198:200|215:270,1,120,8|0,0:0|0:0,0:0:0:0:
234,296,154641,1,0,0:0:0:0:
277,314,154724,6,0,L|353:310,3,60,2|0|0|0,0:0|0:0|0:0|0:0,0:0:0:0:
382,297,155057,2,0,L|440:271,3,60,8|0|0|0,0:0|0:0|0:0|0:0,0:0:0:0:
476,239,155391,2,0,P|484:181|466:116,1,120,2|0,0:0|0:0,0:0:0:0:
254,92,155724,5,8,0:0:0:0:
220,145,155807,1,0,0:0:0:0:
207,207,155891,1,0,0:0:0:0:
217,268,155974,1,0,0:0:0:0:
246,323,156057,6,0,L|376:320,1,120,4|0,0:0|0:0,0:0:0:0:
412,300,156307,1,0,0:0:0:0:
440,256,156391,2,0,L|448:192,1,60,8|0,0:0|0:0,0:0:0:0:
340,236,156557,2,0,L|340:164,1,60
232,216,156724,6,0,P|216:160|160:108,1,120,2|0,0:0|0:0,0:0:0:0:
44,240,157057,2,0,P|60:296|116:348,1,120,8|0,0:0|0:0,0:0:0:0:
280,312,157391,6,0,L|344:320,3,60,2|0|0|0,0:0|0:0|0:0|0:0,0:0:0:0:
384,300,157724,2,0,L|448:296,3,60,8|0|0|0,0:0|0:0|0:0|0:0,0:0:0:0:
483,268,158057,1,2,0:0:0:0:
504,224,158141,1,0,0:0:0:0:
498,176,158224,1,0,0:0:0:0:
470,137,158307,1,0,0:0:0:0:
424,120,158391,1,8,0:0:0:0:
376,127,158474,1,0,0:0:0:0:
330,140,158557,1,0,0:0:0:0:
281,138,158641,1,0,0:0:0:0:
236,121,158724,6,0,P|176:118|126:152,1,120,2|0,0:0|0:0,0:0:0:0:
120,197,158974,1,0,0:0:0:0:
141,239,159057,1,8,0:0:0:0:
312,293,159224,2,0,L|382:288,2,60,0|0|2,0:0|0:0|0:0,0:0:0:0:
277,259,159474,1,0,0:0:0:0:
267,212,159557,1,0,0:0:0:0:
282,166,159641,1,0,0:0:0:0:
316,133,159724,2,0,L|440:124,1,120,8|0,0:0|0:0,0:0:0:0:
475,96,159974,1,0,0:0:0:0:
475,96,160057,6,0,P|487:159|478:228,1,120,2|0,0:0|0:0,0:0:0:0:
451,251,160307,1,0,0:0:0:0:
406,269,160391,2,0,L|342:278,1,60,8|0,0:0|0:0,0:0:0:0:
299,180,160557,2,0,L|247:216,1,60
206,113,160724,6,0,P|137:151|104:192,1,120,2|0,0:0|0:0,0:0:0:0:
91,226,160974,1,0,0:0:0:0:
92,273,161057,1,8,0:0:0:0:
125,308,161141,1,0,0:0:0:0:
172,308,161224,1,0,0:0:0:0:
203,271,161307,1,0,0:0:0:0:
213,222,161391,6,0,P|204:157|172:103,1,120,2|0,0:0|0:0,0:0:0:0:
25,206,161724,2,0,P|34:271|66:325,1,120,8|0,0:0|0:0,0:0:0:0:
101,342,161974,1,0,0:0:0:0:
147,351,162057,2,0,L|212:348,3,60,2|0|0|0,0:0|0:0|0:0|0:0,0:0:0:0:
259,333,162391,5,8,0:0:0:0:
307,310,162474,1,0,0:0:0:0:
360,305,162557,1,0,0:0:0:0:
409,326,162641,1,0,0:0:0:0:
447,363,162724,6,0,L|525:354,1,60,2|0,0:0|0:0,0:0:0:0:
451,262,162891,2,0,L|529:253,1,60,0|0,0:0|0:0,0:0:0:0:
456,162,163057,2,0,P|401:142|334:156,1,120,8|0,0:0|0:0,0:0:0:0:
152,339,163391,6,0,L|287:332,1,120,2|0,0:0|0:0,0:0:0:0:
310,303,163641,1,0,0:0:0:0:
330,259,163724,1,8,0:0:0:0:
324,211,163807,1,0,0:0:0:0:
281,187,163891,1,0,0:0:0:0:
234,197,163974,1,0,0:0:0:0:
206,236,164057,6,0,L|124:242,3,60,2|0|0|0,0:0|0:0|0:0|0:0,0:0:0:0:
103,217,164391,2,0,P|86:159|103:103,1,120,8|0,0:0|0:0,0:0:0:0:
319,97,164724,2,0,P|336:155|319:211,1,120,2|0,0:0|0:0,0:0:0:0:
213,21,165057,1,8,0:0:0:0:
428,45,165224,1,0,0:0:0:0:
428,45,165307,1,0,0:0:0:0:
428,45,165391,6,0,L|436:118,3,60,2|0|0|0,0:0|0:0|0:0|0:0,0:0:0:0:
442,157,165724,1,8,0:0:0:0:
432,209,165807,1,0,0:0:0:0:
448,260,165891,1,0,0:0:0:0:
429,310,165974,1,0,0:0:0:0:
380,352,166057,6,0,L|311:358,3,60,2|0|0|0,0:0|0:0|0:0|0:0,0:0:0:0:
276,311,166391,1,8,0:0:0:0:
219,284,166474,1,0,0:0:0:0:
156,287,166557,1,0,0:0:0:0:
102,321,166641,1,0,0:0:0:0:
61,364,166724,6,0,L|45:233,2,120,2|0|2,0:0|0:0|0:0,0:0:0:0:
193,224,167724,1,0,0:0:0:0:
320,367,168057,6,0,L|339:277,1,90.0000034332277,0|2,0:0|0:0,0:0:0:0:
252,317,168391,6,0,L|249:203,1,104.40000087616,0|2,0:0|0:0,0:0:0:0:
176,293,168724,6,0,L|144:173,1,120,0|2,0:0|0:0,0:0:0:0:
99,304,169057,6,0,L|25:173,1,150,0|2,0:0|0:0,0:0:0:0:
305,368,169391,6,0,P|386:341|425:252,1,180.000006866455,6|0,0:0|0:0,0:0:0:0:
411,197,169641,1,0,0:0:0:0:
366,152,169724,2,0,L|181:143,1,180.000006866455,8|0,0:0|0:0,0:0:0:0:
24,337,170057,6,0,B|125:343|186:253|186:253|221:268|275:250,1,270.000010299683,2|0,0:0|0:0,0:0:0:0:
223,113,170391,2,0,P|139:97|46:128,1,180.000006866455,8|0,0:0|0:0,0:0:0:0:
406,298,170724,6,0,P|427:216|407:114,1,180.000006866455,2|0,0:0|0:0,0:0:0:0:
367,77,170974,1,0,0:0:0:0:
367,77,171057,2,0,P|434:113|512:54,1,180.000006866455,8|0,0:0|0:0,0:0:0:0:
241,17,171391,5,2,0:0:0:0:
188,51,171474,1,0,0:0:0:0:
158,106,171557,1,0,0:0:0:0:
150,169,171641,1,0,0:0:0:0:
159,231,171724,2,0,P|231:277|317:225,1,180.000006866455,8|0,0:0|0:0,0:0:0:0:
338,182,171974,1,0,0:0:0:0:
346,119,172057,6,0,L|445:103,3,90.0000034332277,2|0|0|0,0:0|0:0|0:0|0:0,0:0:0:0:
417,250,172391,2,0,L|516:234,3,90.0000034332277,8|0|0|0,0:0|0:0|0:0|0:0,0:0:0:0:
295,206,172724,6,0,P|250:287|310:343,1,180.000006866455,2|0,0:0|0:0,0:0:0:0:
467,127,173057,1,8,0:0:0:0:
419,84,173141,1,0,0:0:0:0:
361,58,173224,1,0,0:0:0:0:
298,65,173307,1,0,0:0:0:0:
246,102,173391,6,0,P|179:138|79:88,1,180.000006866455,2|0,0:0|0:0,0:0:0:0:
47,52,173641,2,0,L|27:143,1,90.0000034332277,0|8,0:0|0:0,0:0:0:0:
153,337,173891,1,0,0:0:0:0:
214,350,173974,1,0,0:0:0:0:
271,326,174057,1,2,0:0:0:0:
321,286,174141,1,0,0:0:0:0:
379,263,174224,1,0,0:0:0:0:
438,282,174307,1,0,0:0:0:0:
490,318,174391,2,0,P|511:228|496:141,1,180.000006866455,8|0,0:0|0:0,0:0:0:0:
282,48,174724,6,0,L|187:36,1,90.0000034332277,2|0,0:0|0:0,0:0:0:0:
285,136,174891,2,0,L|190:124,1,90.0000034332277
361,92,175057,6,0,L|456:80,1,90.0000034332277,8|0,0:0|0:0,0:0:0:0:
358,180,175224,2,0,L|453:168,1,90.0000034332277
356,315,175391,6,0,P|315:318|259:301,3,90.0000034332277,2|0|0|0,0:0|0:0|0:0|0:0,0:0:0:0:
213,275,175724,1,8,0:0:0:0:
151,260,175807,1,0,0:0:0:0:
89,273,175891,1,0,0:0:0:0:
41,314,175974,1,0,0:0:0:0:
18,372,176057,6,0,P|41:286|31:186,1,180.000006866455,2|0,0:0|0:0,0:0:0:0:
13,136,176307,1,0,0:0:0:0:
13,136,176391,2,0,B|61:128|61:128|141:147|141:147|196:135,1,180.000006866455,8|0,0:0|0:0,0:0:0:0:
249,116,176641,1,0,0:0:0:0:
310,129,176724,1,2,0:0:0:0:
470,299,176891,1,0,0:0:0:0:
470,299,176974,1,0,0:0:0:0:
470,299,177057,2,0,B|496:257|474:211|474:211|449:160|481:107,1,180.000006866455,8|0,0:0|0:0,0:0:0:0:
285,270,177391,5,2,0:0:0:0:
285,270,177474,1,0,0:0:0:0:
285,270,177557,1,0,0:0:0:0:
180,60,177724,1,8,0:0:0:0:
379,242,177891,5,2,0:0:0:0:
379,242,177974,1,0,0:0:0:0:
379,242,178057,1,0,0:0:0:0:
100,112,178224,1,8,0:0:0:0:
438,165,178391,5,2,0:0:0:0:
438,165,178474,1,0,0:0:0:0:
438,165,178557,1,0,0:0:0:0:
61,198,178724,5,8,0:0:0:0:
115,228,178807,1,0,0:0:0:0:
171,198,178891,1,2,0:0:0:0:
226,228,178974,1,0,0:0:0:0:
281,198,179057,1,8,0:0:0:0:
336,228,179141,1,0,0:0:0:0:
391,198,179224,1,2,0:0:0:0:
445,228,179307,1,0,0:0:0:0:
501,198,179391,5,2,3:1:0:0:
26,29,179724,1,6,0:0:0:0:
324,340,180057,6,0,P|421:313|425:228,2,180.000006866455,6|0|8,0:0|0:0|0:0,0:0:0:0:
202,206,180557,1,0,0:0:0:0:
217,144,180641,1,0,0:0:0:0:
259,97,180724,1,2,0:0:0:0:
438,115,180891,2,0,L|453:204,2,90.0000034332277,0|0|8,0:0|0:0|0:0,0:0:0:0:
409,58,181141,1,0,0:0:0:0:
351,33,181224,1,0,0:0:0:0:
288,31,181307,1,0,0:0:0:0:
230,57,181391,6,0,P|140:79|50:44,1,180.000006866455,2|0,0:0|0:0,0:0:0:0:
161,200,181724,1,8,0:0:0:0:
317,110,181891,1,0,0:0:0:0:
317,110,181974,1,0,0:0:0:0:
317,110,182057,2,0,P|407:113|488:163,1,180.000006866455,2|0,0:0|0:0,0:0:0:0:
496,219,182307,1,0,0:0:0:0:
491,282,182391,1,8,0:0:0:0:
452,331,182474,1,0,0:0:0:0:
391,347,182557,1,0,0:0:0:0:
329,331,182641,1,0,0:0:0:0:
270,309,182724,6,0,L|173:318,3,90.0000034332277,2|0|0|0,0:0|0:0|0:0|0:0,0:0:0:0:
127,283,183057,1,8,0:0:0:0:
95,228,183141,1,0,0:0:0:0:
97,165,183224,2,0,P|115:122|150:80,1,90.0000034332277,0|0,0:0|0:0,0:0:0:0:
253,193,183391,6,0,P|335:215|425:163,1,180.000006866455,2|0,0:0|0:0,0:0:0:0:
452,121,183641,2,0,L|447:26,1,90.0000034332277,0|8,0:0|0:0,0:0:0:0:
230,29,183891,1,0,0:0:0:0:
230,29,183974,1,0,0:0:0:0:
230,29,184057,6,0,P|137:43|78:112,1,180.000006866455,2|0,0:0|0:0,0:0:0:0:
125,279,184391,2,0,L|223:293,3,90.0000034332277,8|0|0|0,0:0|0:0|0:0|0:0,0:0:0:0:
274,276,184724,1,2,0:0:0:0:
331,251,184807,1,0,0:0:0:0:
388,224,184891,1,0,0:0:0:0:
447,203,184974,1,0,0:0:0:0:
505,181,185057,6,0,L|503:91,1,90.0000034332277,8|0,0:0|0:0,0:0:0:0:
366,139,185224,2,0,L|363:45,1,90.0000034332277,0|0,0:0|0:0,0:0:0:0:
183,27,185391,6,0,P|150:113|189:200,1,180.000006866455,6|0,0:0|0:0,0:0:0:0:
229,230,185641,1,0,0:0:0:0:
292,230,185724,1,8,0:0:0:0:
403,88,185891,2,0,L|413:-3,2,90.0000034332277,0|0|2,0:0|0:0|0:0,0:0:0:0:
492,244,186224,1,0,0:0:0:0:
492,244,186307,1,0,0:0:0:0:
492,244,186391,1,8,0:0:0:0:
256,373,186557,1,0,0:0:0:0:
20,244,186724,6,0,P|9:163|67:90,1,180.000006866455,2|0,0:0|0:0,0:0:0:0:
128,73,186974,2,0,L|221:70,1,90.0000034332277,0|8,0:0|0:0,0:0:0:0:
190,302,187224,1,0,0:0:0:0:
155,249,187307,1,0,0:0:0:0:
162,185,187391,2,0,P|254:163|287:242,1,180.000006866455,2|0,0:0|0:0,0:0:0:0:
46,296,187724,1,8,0:0:0:0:
35,234,187807,1,0,0:0:0:0:
35,170,187891,1,0,0:0:0:0:
62,113,187974,1,0,0:0:0:0:
116,81,188057,6,0,L|214:71,3,90.0000034332277,2|0|0|0,0:0|0:0|0:0|0:0,0:0:0:0:
257,108,188391,2,0,L|358:115,3,90.0000034332277,8|0|0|0,0:0|0:0|0:0|0:0,0:0:0:0:
408,101,188724,1,2,0:0:0:0:
438,156,188807,1,0,0:0:0:0:
422,217,188891,1,0,0:0:0:0:
372,255,188974,1,0,0:0:0:0:
311,237,189057,2,0,P|214:224|128:253,1,180.000006866455,8|0,0:0|0:0,0:0:0:0:
100,299,189307,1,0,0:0:0:0:
83,360,189391,6,0,L|-6:370,3,90.0000034332277,2|0|0|0,0:0|0:0|0:0|0:0,0:0:0:0:
99,273,189724,2,0,L|10:283,1,90.0000034332277,8|0,0:0|0:0,0:0:0:0:
118,186,189891,2,0,L|29:196,1,90.0000034332277,0|0,0:0|0:0,0:0:0:0:
139,38,190057,6,0,L|238:46,3,90.0000034332277,2|0|0|0,0:0|0:0|0:0|0:0,0:0:0:0:
280,90,190391,1,8,0:0:0:0:
291,156,190474,1,0,0:0:0:0:
269,219,190557,1,0,0:0:0:0:
301,279,190641,1,0,0:0:0:0:
270,337,190724,6,0,P|155:371|93:266,1,240,4|4,0:0|0:0,0:0:0:0:
231,153,191224,1,0,0:0:0:0:
231,153,191307,1,0,0:0:0:0:
231,153,191391,5,4,2:0:0:0:
412,309,191557,1,4,0:0:0:0:
479,78,191724,1,4,1:0:0:0:
372,192,191891,1,0,0:0:0:0:
174,57,192057,6,0,P|136:102|121:182,1,120,4|0,0:0|0:0,0:0:0:0:
132,206,192307,1,0,0:0:0:0:
166,240,192391,1,2,0:0:0:0:
290,79,192557,1,0,0:0:0:0:
416,238,192724,1,0,0:0:0:0:
117,335,192891,5,2,3:1:0:0:
105,335,193057,1,2,3:1:0:0:
92,335,193224,1,2,3:1:0:0:
41,99,193391,6,0,P|99:59|185:73,1,150,6|0,0:0|0:0,0:0:0:0:
225,100,193641,1,0,0:0:0:0:
247,155,193724,1,8,0:0:0:0:
230,212,193807,1,0,0:0:0:0:
220,271,193891,1,0,0:0:0:0:
241,326,193974,1,0,0:0:0:0:
292,356,194057,2,0,P|356:329|383:248,1,150,2|0,0:0|0:0,0:0:0:0:
262,103,194391,1,8,0:0:0:0:
127,243,194557,1,2,0:0:0:0:
100,297,194641,1,0,0:0:0:0:
94,356,194724,6,0,P|65:287|16:231,1,150,0|0,0:0|0:0,0:0:0:0:
17,170,194974,2,0,P|53:150|82:109,1,75,0|8,0:0|0:0,0:0:0:0:
244,28,195224,1,2,0:0:0:0:
303,23,195307,1,0,0:0:0:0:
362,36,195391,2,0,P|424:77|445:158,1,150,0|2,0:0|0:0,0:0:0:0:
426,203,195641,1,0,0:0:0:0:
426,203,195724,2,0,L|269:210,1,150,8|0,0:0|0:0,0:0:0:0:
225,176,195974,1,0,0:0:0:0:
170,152,196057,6,0,P|131:149|87:163,3,75,2|0|0|0,0:0|0:0|0:0|0:0,0:0:0:0:
73,307,196391,2,0,P|146:327|224:295,1,150,10|0,0:0|0:0,0:0:0:0:
263,269,196641,1,0,0:0:0:0:
290,216,196724,6,0,L|280:128,1,75,2|0,0:0|0:0,0:0:0:0:
386,157,196891,2,0,L|390:75,1,75
490,107,197057,1,8,0:0:0:0:
373,317,197224,1,0,0:0:0:0:
373,317,197307,1,0,0:0:0:0:
373,317,197391,6,0,P|298:336|213:304,1,150,0|2,0:0|0:0,0:0:0:0:
192,268,197641,2,0,L|179:194,1,75,0|8,0:0|0:0,0:0:0:0:
348,45,197891,1,0,0:0:0:0:
348,45,197974,1,0,0:0:0:0:
348,45,198057,6,0,L|437:39,1,75,2|0,0:0|0:0,0:0:0:0:
349,126,198224,2,0,L|427:129,1,75,2|0,0:0|0:0,0:0:0:0:
343,209,198391,2,0,L|418:221,1,75,8|0,0:0|0:0,0:0:0:0:
332,294,198557,2,0,L|421:317,1,75
173,352,198724,6,0,P|111:292|120:225,1,150,2|0,0:0|0:0,0:0:0:0:
157,190,198974,1,0,0:0:0:0:
216,187,199057,1,8,0:0:0:0:
354,302,199224,2,0,L|440:300,1,75
479,266,199391,2,0,P|496:203|464:119,1,150,0|2,0:0|0:0,0:0:0:0:
415,97,199641,1,0,0:0:0:0:
415,97,199724,1,8,0:0:0:0:
292,180,199891,1,2,0:0:0:0:
236,196,199974,1,0,0:0:0:0:
176,198,200057,6,0,P|94:171|73:111,1,150
82,56,200307,1,2,0:0:0:0:
128,17,200391,1,8,0:0:0:0:
333,107,200557,1,0,0:0:0:0:
333,107,200641,1,0,0:0:0:0:
333,107,200724,2,0,P|393:71|411:-3,1,150,2|0,0:0|0:0,0:0:0:0:
218,114,201057,1,8,0:0:0:0:
223,174,201141,1,0,0:0:0:0:
230,233,201224,1,0,0:0:0:0:
233,292,201307,1,0,0:0:0:0:
238,352,201391,6,0,L|320:357,3,75,2|0|0|0,0:0|0:0|0:0|0:0,0:0:0:0:
324,252,201724,2,0,L|406:257,1,75,10|0,0:0|0:0,0:0:0:0:
386,151,201891,2,0,L|468:156,1,75,0|0,0:0|0:0,0:0:0:0:
280,153,202057,6,0,P|253:82|277:7,1,150,2|0,0:0|0:0,0:0:0:0:
331,0,202307,1,0,0:0:0:0:
390,11,202391,2,0,P|413:47|426:93,3,75,8|0|0|0,0:0|0:0|0:0|0:0,0:0:0:0:
413,140,202724,5,2,0:0:0:0:
351,155,202807,1,0,0:0:0:0:
288,171,202891,1,0,0:0:0:0:
226,188,202974,1,0,0:0:0:0:
163,200,203057,6,0,P|95:165|106:93,1,150,8|0,0:0|0:0,0:0:0:0:
149,65,203307,1,0,0:0:0:0:
209,58,203391,2,0,L|292:75,3,75,2|0|0|0,0:0|0:0|0:0|0:0,0:0:0:0:
223,176,203724,2,0,L|290:230,1,75,8|0,0:0|0:0,0:0:0:0:
180,289,203891,2,0,L|198:367,1,75
50,330,204057,6,0,P|17:221|69:124,1,225,2|0,0:0|0:0,0:0:0:0:
123,109,204391,1,8,0:0:0:0:
179,127,204474,1,0,0:0:0:0:
238,133,204557,1,0,0:0:0:0:
297,120,204641,1,0,0:0:0:0:
353,99,204724,2,0,B|423:86|423:86|511:119,1,150,2|0,0:0|0:0,0:0:0:0:
372,319,205057,1,8,0:0:0:0:
196,154,205224,1,2,0:0:0:0:
196,154,205307,1,0,0:0:0:0:
196,154,205391,5,0,0:0:0:0:
421,232,205557,2,0,L|501:236,2,75,0|0|8,0:0|0:0|0:0,0:0:0:0:
179,245,205891,1,0,0:0:0:0:
179,245,205974,1,0,0:0:0:0:
179,245,206057,2,0,P|109:203|104:127,1,150,2|0,0:0|0:0,0:0:0:0:
127,86,206307,1,0,0:0:0:0:
183,65,206391,2,0,L|341:58,1,150,8|0,0:0|0:0,0:0:0:0:
489,220,206724,5,2,0:0:0:0:
443,258,206807,1,0,0:0:0:0:
387,281,206891,1,0,0:0:0:0:
327,288,206974,1,0,0:0:0:0:
269,274,207057,5,10,0:0:0:0:
102,61,207224,2,0,L|24:77,2,75,0|0|2,0:0|0:0|0:0,0:0:0:0:
148,99,207474,1,0,0:0:0:0:
205,116,207557,1,0,0:0:0:0:
263,99,207641,1,0,0:0:0:0:
318,77,207724,1,8,0:0:0:0:
377,71,207807,1,0,0:0:0:0:
431,98,207891,2,0,P|439:140|435:180,1,75
273,334,208057,6,0,P|196:336|126:296,1,150,0|2,0:0|0:0,0:0:0:0:
90,259,208307,1,0,0:0:0:0:
90,259,208391,1,8,0:0:0:0:
222,78,208557,1,0,0:0:0:0:
391,226,208724,6,0,L|474:214,1,75,2|0,0:0|0:0,0:0:0:0:
304,227,208891,2,0,L|221:215,1,75,2|0,0:0|0:0,0:0:0:0:
349,301,209057,5,8,0:0:0:0:
349,105,209224,1,0,0:0:0:0:
349,90,209307,1,0,0:0:0:0:
349,74,209391,6,0,P|275:51|201:77,1,150,2|0,0:0|0:0,0:0:0:0:
273,256,209724,1,8,0:0:0:0:
445,164,209891,1,0,0:0:0:0:
445,164,209974,1,0,0:0:0:0:
445,164,210057,2,0,L|295:163,2,150,2|0|8,0:0|0:0|0:0,0:0:0:0:
302,338,210557,1,2,0:0:0:0:
242,351,210641,1,0,0:0:0:0:
182,343,210724,5,0,0:0:0:0:
71,181,210891,2,0,P|71:145|93:97,1,75
127,67,211057,2,0,P|199:88|272:53,1,150,8|0,0:0|0:0,0:0:0:0:
134,244,211391,6,0,P|117:309|191:363,1,150,2|0,0:0|0:0,0:0:0:0:
378,140,211724,2,0,P|395:75|321:21,1,150,8|0,0:0|0:0,0:0:0:0:
259,248,212057,6,0,P|357:316|446:236,1,240,0|2,0:0|0:0,0:0:0:0:
459,174,212502,2,0,L|447:88,1,80,0|2,0:0|0:0,0:0:0:0:
398,32,212724,5,0,0:0:0:0:
200,121,212891,2,2,L|161:117,9,40,2|2|2|2|2|2|2|2|2|2,0:0|0:0|0:0|0:0|0:0|0:0|0:0|0:0|0:0|0:0,0:0:0:0:
303,273,213557,5,2,0:0:0:0:
303,273,213724,2,0,P|391:291|472:243,1,180.000006866455,0|2,0:0|0:0,0:0:0:0:
362,102,214224,1,0,0:0:0:0:
207,228,214391,1,2,0:0:0:0:
