osu file format v13

[General]
AudioFilename: Reol.mp3
AudioLeadIn: 0
PreviewTime: 56000
Countdown: 0
SampleSet: None
StackLeniency: 0.7
Mode: 1
LetterboxInBreaks: 0
WidescreenStoryboard: 1

[Editor]
DistanceSpacing: 0.5
BeatDivisor: 4
GridSize: 32
TimelineZoom: 1.5

[Metadata]
Title:+Danshi
TitleUnicode:+Danshi
Artist:Reol
ArtistUnicode:れをる
Creator:lZenxl
Version:Futsuu
Source:
Tags:GigaP neonat Tagre Plus Boy Hinsvar Fort Papcio [I]MMoRTal[S] mike91lau Player_X Soldsaga_KunG Okoratu
BeatmapID:463382
BeatmapSetID:165991

[Difficulty]
HPDrainRate:3
CircleSize:2
OverallDifficulty:3
ApproachRate:5
SliderMultiplier:1.4
SliderTickRate:1

[Events]
//Background and Video events
0,0,"BG.png",0,0
Video,0,"new.avi"
//Break Periods
2,46924,55691
2,102924,111691
//Storyboard Layer 0 (Background)
//Storyboard Layer 1 (Fail)
//Storyboard Layer 2 (Pass)
//Storyboard Layer 3 (Foreground)
//Storyboard Sound Samples
//Background Colour Transformations
3,100,163,162,255

[TimingPoints]
12058,333.333333333333,4,1,0,100,1,0
57391,-100,4,1,0,100,0,1
67391,-100,4,1,0,100,0,0
68057,-100,4,1,0,100,0,1
78724,-100,4,1,0,100,0,0
113391,-100,4,1,0,100,0,1
123391,-100,4,1,0,100,0,0
124057,-100,4,1,0,100,0,1
134724,-100,4,1,0,100,0,0
145391,-100,4,1,0,100,0,1
145412,-100,4,1,0,100,0,0
169391,-100,4,1,0,100,0,1
179391,-100,4,1,0,100,0,0
180057,-100,4,1,0,100,0,1
190724,-100,4,1,0,100,0,0
214057,-100,4,1,0,50,0,0

[HitObjects]
256,192,13391,5,0,0:0:0:0:
256,192,13724,1,0,0:0:0:0:
256,192,14057,1,0,0:0:0:0:
256,192,14224,1,0,0:0:0:0:
256,192,14391,1,0,0:0:0:0:
256,192,14724,1,0,0:0:0:0:
256,192,15057,1,8,0:0:0:0:
256,192,15391,1,0,0:0:0:0:
256,192,15557,1,8,0:0:0:0:
256,192,15891,1,8,0:0:0:0:
256,192,16057,1,0,0:0:0:0:
256,192,16391,1,8,0:0:0:0:
256,192,17057,1,8,0:0:0:0:
256,192,17391,1,0,0:0:0:0:
256,192,17724,1,8,0:0:0:0:
256,192,18057,1,0,0:0:0:0:
256,192,18224,1,0,0:0:0:0:
256,192,18391,1,8,0:0:0:0:
256,192,18724,1,0,0:0:0:0:
256,192,18891,1,8,0:0:0:0:
256,192,19224,1,8,0:0:0:0:
256,192,19391,1,0,0:0:0:0:
256,192,19724,1,8,0:0:0:0:
256,192,20057,1,4,0:0:0:0:
256,192,20391,1,8,0:0:0:0:
256,192,20724,1,0,0:0:0:0:
256,192,20891,1,8,0:0:0:0:
256,192,21224,1,8,0:0:0:0:
256,192,21391,1,0,0:0:0:0:
256,192,21724,1,8,0:0:0:0:
256,192,22058,1,0,0:0:0:0:
256,192,22391,1,8,0:0:0:0:
256,192,22557,1,0,0:0:0:0:
256,192,22724,1,8,0:0:0:0:
256,192,23057,1,8,0:0:0:0:
256,192,23391,1,8,0:0:0:0:
256,192,23557,1,0,0:0:0:0:
256,192,24057,1,4,0:0:0:0:
256,192,24891,1,0,0:0:0:0:
256,192,25057,1,0,0:0:0:0:
256,192,25224,1,0,0:0:0:0:
256,192,25391,1,0,0:0:0:0:
256,192,25724,1,8,0:0:0:0:
256,192,26057,1,0,0:0:0:0:
256,192,26224,1,0,0:0:0:0:
256,192,26391,1,8,0:0:0:0:
256,192,26724,1,0,0:0:0:0:
256,192,27057,1,8,0:0:0:0:
256,192,27224,1,0,0:0:0:0:
256,192,27557,1,0,0:0:0:0:
256,192,27724,1,8,0:0:0:0:
256,192,28057,1,0,0:0:0:0:
256,192,28391,1,8,0:0:0:0:
256,192,28557,1,0,0:0:0:0:
256,192,28891,1,0,0:0:0:0:
256,192,29057,1,8,0:0:0:0:
256,192,29224,1,8,0:0:0:0:
256,192,29391,1,0,0:0:0:0:
256,192,30057,1,8,0:0:0:0:
256,192,30224,1,0,0:0:0:0:
256,192,30391,1,8,0:0:0:0:
256,192,30724,1,8,0:0:0:0:
256,192,31057,1,8,0:0:0:0:
256,192,31391,1,0,0:0:0:0:
256,192,31557,1,0,0:0:0:0:
256,192,31724,1,8,0:0:0:0:
256,192,32057,1,0,0:0:0:0:
256,192,32224,1,8,0:0:0:0:
256,192,32391,1,0,0:0:0:0:
256,192,32557,1,8,0:0:0:0:
256,192,32724,1,0,0:0:0:0:
256,192,33057,1,8,0:0:0:0:
256,192,33391,1,0,0:0:0:0:
256,192,33724,1,8,0:0:0:0:
256,192,33891,1,0,0:0:0:0:
256,192,34224,1,0,0:0:0:0:
256,192,34391,1,8,0:0:0:0:
256,192,34557,1,8,0:0:0:0:
256,192,34724,1,0,0:0:0:0:
256,192,35391,1,0,0:0:0:0:
256,192,35557,1,0,0:0:0:0:
256,192,35724,1,8,0:0:0:0:
256,192,36057,1,4,0:0:0:0:
256,192,36391,1,8,0:0:0:0:
256,192,36557,1,0,0:0:0:0:
256,192,36891,1,0,0:0:0:0:
256,192,37057,1,8,0:0:0:0:
256,192,37391,1,0,0:0:0:0:
256,192,37557,1,8,0:0:0:0:
256,192,37724,1,0,0:0:0:0:
256,192,37891,1,8,0:0:0:0:
256,192,38057,1,0,0:0:0:0:
256,192,38391,1,8,0:0:0:0:
256,192,38724,1,0,0:0:0:0:
256,192,39057,1,8,0:0:0:0:
256,192,39391,1,0,0:0:0:0:
256,192,39557,1,0,0:0:0:0:
256,192,39724,1,8,0:0:0:0:
256,192,40057,1,0,0:0:0:0:
256,192,40224,1,8,0:0:0:0:
256,192,40391,1,0,0:0:0:0:
256,192,40724,1,12,0:0:0:0:
256,192,41057,1,0,0:0:0:0:
256,192,41224,1,8,0:0:0:0:
256,192,41391,1,0,0:0:0:0:
256,192,41891,1,0,0:0:0:0:
256,192,42057,1,8,0:0:0:0:
256,192,42391,1,8,0:0:0:0:
256,192,42724,1,0,0:0:0:0:
256,192,43057,1,8,0:0:0:0:
256,192,43391,1,0,0:0:0:0:
256,192,43557,1,0,0:0:0:0:
256,192,43724,1,8,0:0:0:0:
256,192,44057,1,0,0:0:0:0:
256,192,44391,1,8,0:0:0:0:
256,192,44724,1,0,0:0:0:0:
256,192,45057,1,8,0:0:0:0:
256,192,45391,12,0,46557,0:0:0:0:
256,192,46724,5,4,0:0:0:0:
256,192,56891,5,8,0:0:0:0:
256,192,57057,1,8,0:0:0:0:
256,192,57224,1,8,0:0:0:0:
256,192,57391,1,8,0:0:0:0:
256,192,57724,1,8,0:0:0:0:
256,192,57891,1,0,0:0:0:0:
256,192,58057,1,8,0:0:0:0:
256,192,58391,1,0,0:0:0:0:
256,192,58557,1,8,0:0:0:0:
256,192,58724,1,0,0:0:0:0:
256,192,59057,1,8,0:0:0:0:
256,192,59224,1,0,0:0:0:0:
256,192,59391,1,8,0:0:0:0:
256,192,59724,1,8,0:0:0:0:
256,192,60057,1,0,0:0:0:0:
256,192,60224,1,0,0:0:0:0:
256,192,60391,1,8,0:0:0:0:
256,192,60557,1,8,0:0:0:0:
256,192,60724,1,0,0:0:0:0:
256,192,61057,1,8,0:0:0:0:
256,192,61224,1,0,0:0:0:0:
256,192,61557,1,8,0:0:0:0:
256,192,61724,1,0,0:0:0:0:
256,192,61891,1,8,0:0:0:0:
256,192,62057,1,0,0:0:0:0:
256,192,62391,1,8,0:0:0:0:
256,192,62724,1,0,0:0:0:0:
256,192,63057,1,8,0:0:0:0:
256,192,63391,1,0,0:0:0:0:
256,192,63724,1,8,0:0:0:0:
256,192,64057,1,0,0:0:0:0:
256,192,64224,1,0,0:0:0:0:
256,192,64557,1,8,0:0:0:0:
256,192,64891,5,8,0:0:0:0:
256,192,65057,1,8,0:0:0:0:
256,192,65224,1,8,0:0:0:0:
256,192,65391,1,8,0:0:0:0:
256,192,65557,1,0,0:0:0:0:
256,192,65891,1,8,0:0:0:0:
256,192,66057,1,0,0:0:0:0:
256,192,66391,1,8,0:0:0:0:
256,192,66557,1,0,0:0:0:0:
256,192,66891,1,8,0:0:0:0:
256,192,67057,1,0,0:0:0:0:
256,192,67391,5,0,0:0:0:0:
256,192,67724,1,8,0:0:0:0:
320,224,68057,1,8,0:0:0:0:
384,256,68391,1,0,0:0:0:0:
416,256,68557,1,8,0:0:0:0:
384,192,68891,1,0,0:0:0:0:
384,160,69057,1,0,0:0:0:0:
320,224,69391,1,8,0:0:0:0:
384,256,69724,1,0,0:0:0:0:
416,256,69891,1,8,0:0:0:0:
352,256,70224,1,8,0:0:0:0:
320,256,70391,1,8,0:0:0:0:
320,224,70724,1,8,0:0:0:0:
384,256,71057,1,0,0:0:0:0:
416,256,71224,1,8,0:0:0:0:
352,256,71557,1,0,0:0:0:0:
320,256,71724,1,8,0:0:0:0:
256,256,72057,1,8,0:0:0:0:
224,256,72224,1,0,0:0:0:0:
192,256,72391,1,8,0:0:0:0:
160,256,72557,1,0,0:0:0:0:
128,256,72724,1,8,0:0:0:0:
160,192,73057,1,0,0:0:0:0:
224,160,73391,1,8,0:0:0:0:
288,192,73724,1,0,0:0:0:0:
352,224,74057,1,8,0:0:0:0:
288,256,74391,1,0,0:0:0:0:
224,256,74724,1,8,0:0:0:0:
160,256,75057,1,0,0:0:0:0:
128,256,75224,1,0,0:0:0:0:
96,224,75391,1,8,0:0:0:0:
96,192,75557,1,8,0:0:0:0:
96,160,75724,1,0,0:0:0:0:
160,160,76057,1,0,0:0:0:0:
192,160,76224,1,8,0:0:0:0:
224,160,76391,1,0,0:0:0:0:
256,160,76557,1,8,0:0:0:0:
256,160,76724,1,0,0:0:0:0:
288,192,77057,1,0,0:0:0:0:
320,224,77224,1,8,0:0:0:0:
256,224,77557,1,8,0:0:0:0:
224,224,77724,1,8,0:0:0:0:
192,224,77891,1,8,0:0:0:0:
160,256,78057,1,0,0:0:0:0:
128,256,78224,1,0,0:0:0:0:
128,256,78391,1,8,0:0:0:0:
128,256,78724,1,0,0:0:0:0:
416,224,80891,1,8,0:0:0:0:
384,224,81057,1,8,0:0:0:0:
352,224,81224,1,8,0:0:0:0:
320,224,81391,1,0,0:0:0:0:
256,224,81724,1,8,0:0:0:0:
192,224,82057,1,0,0:0:0:0:
160,192,82224,1,0,0:0:0:0:
160,160,82391,1,8,0:0:0:0:
160,160,82557,1,0,0:0:0:0:
192,160,82724,1,0,0:0:0:0:
256,160,83057,1,8,0:0:0:0:
320,192,83391,1,8,0:0:0:0:
352,192,83724,1,8,0:0:0:0:
288,224,84057,1,0,0:0:0:0:
224,224,84391,1,8,0:0:0:0:
192,224,84724,1,0,0:0:0:0:
128,224,84891,1,0,0:0:0:0:
128,224,85057,1,8,0:0:0:0:
192,192,85391,1,8,0:0:0:0:
224,192,85557,1,0,0:0:0:0:
256,192,85724,1,8,0:0:0:0:
320,128,86057,1,8,0:0:0:0:
352,128,86224,1,8,0:0:0:0:
352,160,86391,1,0,0:0:0:0:
320,192,86724,1,0,0:0:0:0:
288,224,87057,1,8,0:0:0:0:
256,256,87391,1,0,0:0:0:0:
192,288,87557,1,0,0:0:0:0:
160,288,87724,1,8,0:0:0:0:
192,288,87891,1,8,0:0:0:0:
224,288,88057,1,0,0:0:0:0:
288,288,88391,1,8,0:0:0:0:
352,288,88724,1,0,0:0:0:0:
384,288,88891,1,8,0:0:0:0:
384,288,89057,1,0,0:0:0:0:
384,288,89224,1,8,0:0:0:0:
384,288,89391,1,0,0:0:0:0:
320,288,89724,1,8,0:0:0:0:
256,256,90057,1,0,0:0:0:0:
224,256,90224,1,0,0:0:0:0:
192,256,90391,1,8,0:0:0:0:
160,224,90557,1,8,0:0:0:0:
128,224,90724,1,0,0:0:0:0:
192,224,91057,1,8,0:0:0:0:
256,192,91391,1,0,0:0:0:0:
256,256,91724,1,8,0:0:0:0:
192,288,92057,1,0,0:0:0:0:
128,288,92391,1,8,0:0:0:0:
64,288,92724,1,0,0:0:0:0:
32,288,92891,1,0,0:0:0:0:
32,288,93057,1,8,0:0:0:0:
32,288,93224,1,8,0:0:0:0:
64,288,93391,1,0,0:0:0:0:
128,288,93724,1,8,0:0:0:0:
160,288,94057,1,0,0:0:0:0:
224,288,94224,1,0,0:0:0:0:
256,288,94391,1,8,0:0:0:0:
288,288,94557,1,8,0:0:0:0:
288,256,94724,1,0,0:0:0:0:
224,192,95057,1,8,0:0:0:0:
224,192,95224,1,0,0:0:0:0:
320,160,95391,1,0,0:0:0:0:
352,160,95724,1,8,0:0:0:0:
352,160,95891,1,8,0:0:0:0:
352,160,96057,1,0,0:0:0:0:
288,192,96391,1,8,0:0:0:0:
224,192,96724,1,0,0:0:0:0:
160,192,97057,1,8,0:0:0:0:
96,224,97391,1,0,0:0:0:0:
128,224,97557,1,0,0:0:0:0:
32,224,97724,1,8,0:0:0:0:
64,224,98057,1,0,0:0:0:0:
128,224,98224,1,0,0:0:0:0:
160,224,98391,1,8,0:0:0:0:
192,224,98557,1,8,0:0:0:0:
224,224,98724,1,0,0:0:0:0:
288,224,99057,1,8,0:0:0:0:
320,224,99224,1,0,0:0:0:0:
384,224,99557,1,0,0:0:0:0:
352,224,99724,1,8,0:0:0:0:
320,256,99891,1,8,0:0:0:0:
288,256,100057,1,0,0:0:0:0:
224,256,100391,1,8,0:0:0:0:
192,256,100557,1,0,0:0:0:0:
160,224,100891,1,0,0:0:0:0:
128,224,101057,1,8,0:0:0:0:
192,192,101391,1,8,0:0:0:0:
256,128,101724,1,8,0:0:0:0:
288,192,102057,1,0,0:0:0:0:
288,256,102391,1,0,0:0:0:0:
288,256,102724,1,8,0:0:0:0:
256,256,112891,5,8,0:0:0:0:
224,256,113057,1,8,0:0:0:0:
192,256,113224,1,8,0:0:0:0:
160,224,113391,1,8,0:0:0:0:
224,224,113724,1,8,0:0:0:0:
256,224,113891,1,0,0:0:0:0:
288,192,114057,1,8,0:0:0:0:
352,192,114391,1,0,0:0:0:0:
384,192,114557,1,0,0:0:0:0:
384,192,114724,1,8,0:0:0:0:
320,192,115057,1,8,0:0:0:0:
288,192,115391,1,0,0:0:0:0:
224,192,115557,1,0,0:0:0:0:
192,224,115724,1,8,0:0:0:0:
224,224,116057,1,8,0:0:0:0:
256,224,116224,1,8,0:0:0:0:
288,224,116391,1,8,0:0:0:0:
256,224,116557,1,0,0:0:0:0:
224,224,116724,1,8,0:0:0:0:
192,224,117057,1,8,0:0:0:0:
160,224,117224,1,0,0:0:0:0:
96,224,117557,1,0,0:0:0:0:
64,256,117724,1,8,0:0:0:0:
64,256,117891,1,0,0:0:0:0:
64,256,118057,1,8,0:0:0:0:
128,256,118391,1,8,0:0:0:0:
192,224,118724,1,8,0:0:0:0:
224,224,118891,1,0,0:0:0:0:
256,224,119057,1,8,0:0:0:0:
320,160,119391,1,8,0:0:0:0:
320,192,119557,1,0,0:0:0:0:
352,192,119724,1,8,0:0:0:0:
352,192,120057,1,8,0:0:0:0:
288,192,120391,1,8,0:0:0:0:
256,192,120557,1,0,0:0:0:0:
192,192,120891,1,0,0:0:0:0:
160,192,121057,1,8,0:0:0:0:
128,192,121224,1,8,0:0:0:0:
288,192,121391,1,8,0:0:0:0:
256,192,121557,1,0,0:0:0:0:
288,192,121891,1,8,0:0:0:0:
256,192,122057,1,0,0:0:0:0:
288,192,122391,1,8,0:0:0:0:
256,192,122557,1,0,0:0:0:0:
288,192,122891,1,8,0:0:0:0:
256,192,123057,1,0,0:0:0:0:
256,192,123391,5,8,0:0:0:0:
256,192,123724,1,8,0:0:0:0:
256,192,124057,1,8,0:0:0:0:
256,192,124391,1,0,0:0:0:0:
256,192,124557,1,8,0:0:0:0:
256,192,124891,1,0,0:0:0:0:
256,192,125057,1,0,0:0:0:0:
256,192,125391,1,8,0:0:0:0:
256,192,125724,1,0,0:0:0:0:
256,192,125891,1,8,0:0:0:0:
256,192,126224,1,8,0:0:0:0:
256,192,126391,1,8,0:0:0:0:
256,192,126724,1,8,0:0:0:0:
256,192,127057,1,0,0:0:0:0:
256,192,127224,1,8,0:0:0:0:
256,192,127557,1,0,0:0:0:0:
256,192,127724,1,8,0:0:0:0:
256,192,128057,1,8,0:0:0:0:
256,192,128224,1,8,0:0:0:0:
256,192,128391,1,0,0:0:0:0:
256,192,128724,1,8,0:0:0:0:
256,192,129057,1,8,0:0:0:0:
256,192,129391,1,8,0:0:0:0:
256,192,129724,1,0,0:0:0:0:
256,192,130057,1,8,0:0:0:0:
256,192,130391,1,0,0:0:0:0:
256,192,130724,1,8,0:0:0:0:
256,192,131057,1,0,0:0:0:0:
256,192,131391,1,8,0:0:0:0:
256,192,131557,1,8,0:0:0:0:
256,192,131724,1,0,0:0:0:0:
256,192,132057,1,0,0:0:0:0:
256,192,132224,1,8,0:0:0:0:
256,192,132391,1,0,0:0:0:0:
256,192,132557,1,8,0:0:0:0:
256,192,132724,1,0,0:0:0:0:
256,192,133057,1,8,0:0:0:0:
256,192,133391,1,8,0:0:0:0:
256,192,133724,1,8,0:0:0:0:
256,192,134057,1,8,0:0:0:0:
256,192,134391,1,8,0:0:0:0:
256,192,134724,1,4,0:0:0:0:
256,192,135391,1,4,0:0:0:0:
256,192,136057,1,4,0:0:0:0:
256,192,136391,1,4,0:0:0:0:
256,192,136724,1,4,0:0:0:0:
256,192,137391,1,4,0:0:0:0:
256,192,138057,1,4,0:0:0:0:
256,192,138724,1,0,0:0:0:0:
256,192,138891,1,8,0:0:0:0:
256,192,139057,1,0,0:0:0:0:
256,192,139224,1,8,0:0:0:0:
256,192,139391,1,0,0:0:0:0:
256,192,139724,1,12,0:0:0:0:
256,192,140057,1,4,0:0:0:0:
256,192,140724,1,4,0:0:0:0:
256,192,141391,1,4,0:0:0:0:
256,192,141724,1,4,0:0:0:0:
256,192,142057,1,4,0:0:0:0:
256,192,142724,1,4,0:0:0:0:
256,192,143391,1,4,0:0:0:0:
256,192,144057,1,4,0:0:0:0:
256,192,144391,1,4,0:0:0:0:
256,192,144724,1,4,0:0:0:0:
256,192,145391,1,0,0:0:0:0:
256,192,145724,1,8,0:0:0:0:
256,192,145891,1,0,0:0:0:0:
256,192,146224,1,0,0:0:0:0:
256,192,146391,1,8,0:0:0:0:
256,192,146724,1,0,0:0:0:0:
256,192,147057,1,8,0:0:0:0:
256,192,147224,1,0,0:0:0:0:
256,192,147557,1,0,0:0:0:0:
256,192,147724,1,8,0:0:0:0:
256,192,147891,1,8,0:0:0:0:
256,192,148057,1,0,0:0:0:0:
256,192,148391,1,8,0:0:0:0:
256,192,148557,1,0,0:0:0:0:
256,192,148891,1,0,0:0:0:0:
256,192,149057,1,8,0:0:0:0:
256,192,149391,1,0,0:0:0:0:
256,192,149724,1,12,0:0:0:0:
256,192,150057,1,0,0:0:0:0:
256,192,150224,1,0,0:0:0:0:
256,192,150391,1,8,0:0:0:0:
256,192,150724,1,4,0:0:0:0:
256,192,151057,1,8,0:0:0:0:
256,192,151391,1,0,0:0:0:0:
256,192,151557,1,0,0:0:0:0:
256,192,151724,1,8,0:0:0:0:
256,192,152057,1,0,0:0:0:0:
256,192,152391,1,8,0:0:0:0:
256,192,152557,1,0,0:0:0:0:
256,192,152724,1,0,0:0:0:0:
256,192,152891,1,0,0:0:0:0:
256,192,153057,1,8,0:0:0:0:
256,192,153391,1,0,0:0:0:0:
256,192,153724,1,8,0:0:0:0:
256,192,154057,1,0,0:0:0:0:
256,192,154224,1,0,0:0:0:0:
256,192,154391,1,8,0:0:0:0:
256,192,154557,1,8,0:0:0:0:
256,192,154724,1,0,0:0:0:0:
256,192,155057,1,0,0:0:0:0:
256,192,155391,1,4,0:0:0:0:
256,192,155724,1,4,0:0:0:0:
256,192,156057,1,0,0:0:0:0:
256,192,156391,1,8,0:0:0:0:
256,192,156724,1,0,0:0:0:0:
256,192,156891,1,0,0:0:0:0:
256,192,157057,1,8,0:0:0:0:
256,192,157224,1,8,0:0:0:0:
256,192,157391,1,0,0:0:0:0:
256,192,157724,1,8,0:0:0:0:
256,192,157891,1,0,0:0:0:0:
256,192,158057,1,8,0:0:0:0:
256,192,158391,1,12,0:0:0:0:
256,192,158724,1,0,0:0:0:0:
256,192,159057,1,8,0:0:0:0:
256,192,159391,1,0,0:0:0:0:
256,192,159724,1,8,0:0:0:0:
256,192,160057,1,0,0:0:0:0:
256,192,160224,1,0,0:0:0:0:
256,192,160391,1,8,0:0:0:0:
256,192,160557,1,8,0:0:0:0:
256,192,160724,1,0,0:0:0:0:
256,192,161057,1,12,0:0:0:0:
256,192,161391,1,0,0:0:0:0:
256,192,161557,1,0,0:0:0:0:
256,192,161724,1,8,0:0:0:0:
256,192,161891,1,8,0:0:0:0:
256,192,162057,1,0,0:0:0:0:
256,192,162391,1,8,0:0:0:0:
256,192,162557,1,8,0:0:0:0:
256,192,162724,1,0,0:0:0:0:
256,192,162891,1,8,0:0:0:0:
256,192,163224,1,8,0:0:0:0:
256,192,163391,1,0,0:0:0:0:
256,192,163557,1,0,0:0:0:0:
256,192,163724,1,8,0:0:0:0:
256,192,164057,1,4,0:0:0:0:
256,192,164391,1,4,0:0:0:0:
256,192,164724,1,12,0:0:0:0:
256,192,165057,1,12,0:0:0:0:
256,192,165391,1,4,0:0:0:0:
256,192,165724,1,4,0:0:0:0:
256,192,166057,1,4,0:0:0:0:
256,192,166391,1,4,0:0:0:0:
256,192,166724,1,0,0:0:0:0:
256,192,168224,1,0,0:0:0:0:
256,192,168391,1,0,0:0:0:0:
256,192,168557,1,0,0:0:0:0:
260,197,168724,5,8,0:0:0:0:
260,197,168891,1,8,0:0:0:0:
260,197,169057,1,8,0:0:0:0:
260,197,169224,1,8,0:0:0:0:
260,197,169391,1,8,0:0:0:0:
260,197,169724,1,0,0:0:0:0:
260,197,169891,1,0,0:0:0:0:
260,197,170057,1,8,0:0:0:0:
260,197,170391,1,8,0:0:0:0:
260,197,170557,1,0,0:0:0:0:
260,197,170724,1,8,0:0:0:0:
260,197,171057,1,0,0:0:0:0:
260,197,171224,1,0,0:0:0:0:
260,197,171391,1,8,0:0:0:0:
260,197,171557,1,8,0:0:0:0:
260,197,171891,1,8,0:0:0:0:
288,224,172057,1,0,0:0:0:0:
288,224,172391,1,8,0:0:0:0:
288,224,172724,1,8,0:0:0:0:
288,224,173057,1,0,0:0:0:0:
288,224,173224,1,8,0:0:0:0:
224,224,173557,1,8,0:0:0:0:
192,224,173724,1,0,0:0:0:0:
160,224,173891,1,8,0:0:0:0:
128,224,174057,1,0,0:0:0:0:
192,160,174391,1,8,0:0:0:0:
256,160,174724,1,0,0:0:0:0:
288,192,175057,1,8,0:0:0:0:
320,224,175391,1,0,0:0:0:0:
352,256,175724,1,8,0:0:0:0:
416,256,176057,1,0,0:0:0:0:
448,256,176224,1,0,0:0:0:0:
480,224,176557,1,12,0:0:0:0:
480,224,176891,1,8,0:0:0:0:
480,224,177057,1,8,0:0:0:0:
480,224,177224,1,0,0:0:0:0:
448,224,177391,1,8,0:0:0:0:
416,224,177557,1,8,0:0:0:0:
352,192,177891,1,0,0:0:0:0:
320,192,178057,1,0,0:0:0:0:
256,192,178391,1,8,0:0:0:0:
256,192,178557,1,8,0:0:0:0:
256,192,178891,1,0,0:0:0:0:
256,192,179057,1,0,0:0:0:0:
256,192,179391,5,0,0:0:0:0:
256,192,179724,1,8,0:0:0:0:
256,192,180057,1,8,0:0:0:0:
256,192,180391,1,8,0:0:0:0:
256,192,180557,1,0,0:0:0:0:
304,227,180891,1,8,0:0:0:0:
332,235,181057,1,8,0:0:0:0:
256,192,181391,1,8,0:0:0:0:
256,192,181724,1,8,0:0:0:0:
256,192,181891,1,0,0:0:0:0:
199,212,182224,1,0,0:0:0:0:
285,197,182391,1,0,0:0:0:0:
256,192,182724,1,8,0:0:0:0:
256,192,183057,1,8,0:0:0:0:
256,192,183224,1,0,0:0:0:0:
256,192,183557,1,8,0:0:0:0:
285,192,183724,1,8,0:0:0:0:
315,192,183891,1,8,0:0:0:0:
256,192,184057,1,0,0:0:0:0:
256,192,184391,1,8,0:0:0:0:
256,192,184557,1,8,0:0:0:0:
256,192,184724,1,8,0:0:0:0:
256,192,185057,1,0,0:0:0:0:
256,192,185391,1,8,0:0:0:0:
256,192,185724,1,0,0:0:0:0:
256,192,186057,1,8,0:0:0:0:
256,192,186391,1,0,0:0:0:0:
256,192,186724,1,8,0:0:0:0:
256,192,187057,1,0,0:0:0:0:
256,192,187224,1,0,0:0:0:0:
256,192,187391,1,8,0:0:0:0:
256,192,187557,1,8,0:0:0:0:
256,192,187724,1,0,0:0:0:0:
256,192,188057,1,0,0:0:0:0:
256,192,188224,1,8,0:0:0:0:
256,192,188391,1,0,0:0:0:0:
256,192,188557,1,8,0:0:0:0:
256,192,188724,1,0,0:0:0:0:
256,192,188891,1,0,0:0:0:0:
256,192,189224,1,8,0:0:0:0:
256,192,189557,1,0,0:0:0:0:
256,192,189724,1,8,0:0:0:0:
256,192,189891,1,0,0:0:0:0:
256,192,190057,1,8,0:0:0:0:
256,192,190224,1,0,0:0:0:0:
256,192,190391,1,8,0:0:0:0:
256,192,190557,1,0,0:0:0:0:
256,192,190724,1,8,0:0:0:0:
256,192,191057,1,8,0:0:0:0:
256,192,191391,1,0,0:0:0:0:
230,207,191557,1,0,0:0:0:0:
256,192,191724,1,8,0:0:0:0:
256,192,192057,1,0,0:0:0:0:
256,192,192391,1,0,0:0:0:0:
256,192,192557,1,0,0:0:0:0:
256,192,192724,1,8,0:0:0:0:
196,193,193057,1,8,0:0:0:0:
135,189,193391,1,0,0:0:0:0:
187,217,193724,1,8,0:0:0:0:
236,250,194057,1,0,0:0:0:0:
263,262,194224,1,0,0:0:0:0:
304,243,194391,1,8,0:0:0:0:
340,290,194724,1,0,0:0:0:0:
340,290,195057,1,8,0:0:0:0:
340,290,195224,1,0,0:0:0:0:
340,290,195557,1,0,0:0:0:0:
340,290,195724,1,8,0:0:0:0:
340,290,195891,1,8,0:0:0:0:
310,288,196057,1,0,0:0:0:0:
251,276,196391,1,8,0:0:0:0:
193,260,196724,1,0,0:0:0:0:
163,253,196891,1,0,0:0:0:0:
133,253,197057,1,8,0:0:0:0:
73,239,197391,1,0,0:0:0:0:
131,226,197724,1,8,0:0:0:0:
188,209,198057,1,0,0:0:0:0:
217,201,198224,1,0,0:0:0:0:
246,194,198391,1,8,0:0:0:0:
305,195,198724,1,0,0:0:0:0:
352,231,199057,1,8,0:0:0:0:
298,258,199391,1,0,0:0:0:0:
271,271,199557,1,8,0:0:0:0:
243,283,199891,1,8,0:0:0:0:
200,241,200057,1,0,0:0:0:0:
156,198,200391,1,8,0:0:0:0:
192,161,200724,1,0,0:0:0:0:
134,177,200891,1,0,0:0:0:0:
220,152,201057,1,8,0:0:0:0:
248,142,201224,1,8,0:0:0:0:
278,143,201391,1,0,0:0:0:0:
320,185,201724,1,8,0:0:0:0:
311,244,202057,1,0,0:0:0:0:
284,298,202391,1,8,0:0:0:0:
271,325,202724,1,0,0:0:0:0:
212,311,203057,1,0,0:0:0:0:
153,298,203391,1,8,0:0:0:0:
94,285,203724,1,8,0:0:0:0:
145,255,204057,1,4,0:0:0:0:
202,236,204391,1,8,0:0:0:0:
258,216,204724,1,0,0:0:0:0:
286,206,204891,1,0,0:0:0:0:
314,196,205057,1,8,0:0:0:0:
365,226,205391,1,0,0:0:0:0:
390,240,205557,1,0,0:0:0:0:
408,263,205724,1,8,0:0:0:0:
324,287,206057,1,0,0:0:0:0:
294,290,206391,1,8,0:0:0:0:
264,292,206557,1,0,0:0:0:0:
235,281,206724,1,0,0:0:0:0:
195,235,207057,1,8,0:0:0:0:
236,191,207391,1,0,0:0:0:0:
292,173,207724,1,8,0:0:0:0:
264,182,207891,1,0,0:0:0:0:
332,192,208057,1,8,0:0:0:0:
359,244,208391,1,8,0:0:0:0:
299,239,208724,1,0,0:0:0:0:
269,236,208891,1,8,0:0:0:0:
239,234,209057,1,8,0:0:0:0:
179,228,209391,1,4,0:0:0:0:
124,203,209724,1,8,0:0:0:0:
170,165,210057,1,0,0:0:0:0:
196,151,210224,1,0,0:0:0:0:
223,137,210391,1,8,0:0:0:0:
278,158,210724,1,0,0:0:0:0:
305,169,210891,1,0,0:0:0:0:
332,179,211057,1,8,0:0:0:0:
350,202,211224,1,0,0:0:0:0:
385,250,211557,1,0,0:0:0:0:
385,250,211724,1,8,0:0:0:0:
385,250,211891,1,0,0:0:0:0:
355,249,212057,1,8,0:0:0:0:
256,192,212141,12,0,213057,0:0:0:0:
251,188,213391,5,0,0:0:0:0:
251,188,214391,5,8,0:0:0:0:
