osu file format v13

[General]
AudioFilename: Reol.mp3
AudioLeadIn: 0
PreviewTime: 56000
Countdown: 0
SampleSet: Normal
StackLeniency: 0.7
Mode: 3
LetterboxInBreaks: 0
SpecialStyle: 0
WidescreenStoryboard: 1

[Editor]
DistanceSpacing: 1
BeatDivisor: 4
GridSize: 4
TimelineZoom: 1.7

[Metadata]
Title:+Danshi
TitleUnicode:+Danshi
Artist:Reol
ArtistUnicode:れをる
Creator:lZenxl
Version:7K SHD
Source:
Tags:GigaP neonat Tagre Plus Boy Hinsvar Fort Papcio [I]MMoRTal[S] mike91lau Player_X Soldsaga_KunG Okoratu
BeatmapID:403644
BeatmapSetID:165991

[Difficulty]
HPDrainRate:8
CircleSize:7
OverallDifficulty:8
ApproachRate:5
SliderMultiplier:1.8
SliderTickRate:1

[Events]
//Background and Video events
0,0,"BG.png",0,0
Video,0,"new.avi"
//Break Periods
2,48257,54857
//Storyboard Layer 0 (Background)
//Storyboard Layer 1 (Fail)
//Storyboard Layer 2 (Pass)
//Storyboard Layer 3 (Foreground)
//Storyboard Sound Samples
//Background Colour Transformations
3,100,163,162,255

[TimingPoints]
12058,333.333333333333,4,1,1,50,1,0
13391,-66.6666666666667,4,1,1,50,0,0
13474,-133.333333333333,4,1,1,50,0,0
13724,-66.6666666666667,4,1,1,50,0,0
13808,-133.333333333333,4,1,1,50,0,0
14058,-66.6666666666667,4,1,1,50,0,0
14141,-133.333333333333,4,1,1,50,0,0
14224,-66.6666666666667,4,1,1,50,0,0
14308,-133.333333333333,4,1,1,50,0,0
14391,-25,4,1,1,50,0,0
14474,-200,4,1,1,50,0,0
14641,-66.6666666666667,4,1,1,50,0,0
14724,-100,4,2,1,80,0,0
17724,-133.333333333333,4,2,1,80,0,0
17808,-100,4,2,1,80,0,0
17974,-66.6666666666667,4,2,1,80,0,0
18058,-100,4,2,1,80,0,0
23557,-50,4,2,1,80,0,0
23578,-1000,4,2,1,80,0,0
23599,-50,4,2,1,80,0,0
23620,-1000,4,2,1,80,0,0
23641,-50,4,2,1,80,0,0
23662,-1000,4,2,1,80,0,0
23682,-50,4,2,1,80,0,0
23703,-1000,4,2,1,80,0,0
23724,-50,4,2,1,80,0,0
23745,-133.333333333333,4,2,1,80,0,0
23807,-66.6666666666667,4,2,1,80,0,0
23828,-133.333333333333,4,2,1,80,0,0
23891,-66.6666666666667,4,2,1,80,0,0
23912,-133.333333333333,4,2,1,80,0,0
23974,-66.6666666666667,4,2,1,80,0,0
23995,-133.333333333333,4,2,1,80,0,0
24391,-66.6666666666667,4,2,1,80,0,0
24432,-200,4,2,1,80,0,0
24474,-133.333333333333,4,2,1,80,0,0
24599,-66.6666666666667,4,2,1,80,0,0
24641,-133.333333333333,4,2,1,80,0,0
24891,-33.3333333333333,4,2,1,80,0,0
24912,-133.333333333333,4,2,1,80,0,0
25057,-33.3333333333333,4,2,1,80,0,0
25078,-133.333333333333,4,2,1,80,0,0
25224,-33.3333333333333,4,2,1,80,0,0
25245,-133.333333333333,4,2,1,80,0,0
25391,-100,4,2,1,80,0,0
44057,-90.9090909090909,4,2,1,80,0,0
45391,-83.3333333333333,4,2,1,80,0,0
46057,-76.9230769230769,4,2,1,80,0,0
46724,-100,4,2,1,80,0,0
48057,-83.3333333333333,4,2,1,80,0,0
49391,-66.6666666666667,4,2,1,80,0,0
50724,-52.6315789473684,4,2,1,80,0,0
52057,-41.6666666666667,4,2,1,80,0,0
53391,-33.3333333333333,4,2,1,80,0,0
54724,-27.027027027027,4,2,1,80,0,0
55057,-20,4,2,1,80,0,0
55391,-10,4,2,1,80,0,0
55557,-1000,4,2,1,80,0,0
56057,-10,4,2,1,80,0,0
56141,-333.333333333333,4,2,1,80,0,0
56891,-166.666666666667,4,2,1,30,0,0
57057,-111.111111111111,4,2,1,50,0,0
57224,-83.3333333333333,4,2,1,70,0,0
57391,-100,4,2,1,80,0,1
58057,-133.333333333333,4,2,1,80,0,1
58391,-100,4,2,1,80,0,1
58724,-133.333333333333,4,2,1,80,0,1
59057,-100,4,2,1,80,0,1
61224,-133.333333333333,4,2,1,80,0,1
61557,-100,4,2,1,80,0,1
64224,-133.333333333333,4,2,1,80,0,1
64557,-100,4,2,1,80,0,1
67391,-10,4,2,1,80,0,0
67412,-100,4,2,1,80,0,0
67724,-133.333333333333,4,2,1,80,0,0
68057,-83.3333333333333,4,2,1,80,0,1
68391,-100,4,2,1,80,0,1
68557,-83.3333333333333,4,2,1,80,0,1
68891,-100,4,2,1,80,0,1
69391,-83.3333333333333,4,2,1,80,0,1
69724,-100,4,2,1,80,0,1
69891,-83.3333333333333,4,2,1,80,0,1
70224,-100,4,2,1,80,0,1
70724,-83.3333333333333,4,2,1,80,0,1
71057,-100,4,2,1,80,0,1
71224,-83.3333333333333,4,2,1,80,0,1
71557,-100,4,2,1,80,0,1
73057,-100,4,2,1,80,0,1
73391,-133.333333333333,4,2,1,80,0,1
73724,-100,4,2,1,80,0,1
74057,-133.333333333333,4,2,1,80,0,1
74391,-100,4,2,1,80,0,1
74724,-133.333333333333,4,2,1,80,0,1
75057,-100,4,2,1,80,0,1
78724,-100,4,2,1,80,0,0
80891,-33.3333333333333,4,2,1,80,0,0
80912,-133.333333333333,4,2,1,80,0,0
81057,-33.3333333333333,4,2,1,80,0,0
81078,-133.333333333333,4,2,1,80,0,0
81224,-33.3333333333333,4,2,1,80,0,0
81245,-133.333333333333,4,2,1,80,0,0
81391,-100,4,2,1,80,0,0
102725,-83.3333333333333,4,2,1,80,0,0
102891,-100,4,2,1,80,0,0
103058,-125,4,2,1,80,0,0
103225,-100,4,2,1,80,0,0
103391,-83.3333333333333,4,2,1,80,0,0
103558,-100,4,2,1,80,0,0
103725,-125,4,2,1,80,0,0
103891,-100,4,2,1,80,0,0
104058,-83.3333333333333,4,2,1,80,0,0
104225,-100,4,2,1,80,0,0
104391,-125,4,2,1,80,0,0
104558,-100,4,2,1,80,0,0
104725,-83.3333333333333,4,2,1,80,0,0
104891,-100,4,2,1,80,0,0
105058,-125,4,2,1,80,0,0
105225,-100,4,2,1,80,0,0
105391,-83.3333333333333,4,2,1,80,0,0
105558,-100,4,2,1,80,0,0
105725,-125,4,2,1,80,0,0
105891,-100,4,2,1,80,0,0
106058,-83.3333333333333,4,2,1,80,0,0
106225,-100,4,2,1,80,0,0
106391,-125,4,2,1,80,0,0
106558,-100,4,2,1,80,0,0
106725,-83.3333333333333,4,2,1,80,0,0
106891,-100,4,2,1,80,0,0
107058,-125,4,2,1,80,0,0
107225,-100,4,2,1,80,0,0
107391,-83.3333333333333,4,2,1,80,0,0
107558,-100,4,2,1,80,0,0
107725,-125,4,2,1,80,0,0
107891,-100,4,2,1,80,0,0
108058,-83.3333333333333,4,2,1,80,0,0
108225,-100,4,2,1,80,0,0
108391,-125,4,2,1,80,0,0
108558,-100,4,2,1,80,0,0
108725,-83.3333333333333,4,2,1,80,0,0
108891,-100,4,2,1,80,0,0
109058,-125,4,2,1,80,0,0
109225,-100,4,2,1,80,0,0
109391,-83.3333333333333,4,2,1,80,0,0
109558,-100,4,2,1,80,0,0
109725,-125,4,2,1,80,0,0
109891,-100,4,2,1,80,0,0
110058,-83.3333333333333,4,2,1,80,0,0
110225,-100,4,2,1,80,0,0
110391,-125,4,2,1,80,0,0
110558,-100,4,2,1,80,0,0
110725,-83.3333333333333,4,2,1,80,0,0
110891,-100,4,2,1,80,0,0
111058,-125,4,2,1,80,0,0
111225,-100,4,2,1,80,0,0
111391,-83.3333333333333,4,2,1,80,0,0
111558,-100,4,2,1,80,0,0
111725,-125,4,2,1,80,0,0
111891,-100,4,2,1,80,0,0
112057,-10,4,2,1,80,0,0
112078,-333.333333333333,4,2,1,80,0,0
112891,-166.666666666667,4,2,1,30,0,0
113057,-111.111111111111,4,2,1,50,0,0
113224,-83.3333333333333,4,2,1,70,0,0
113391,-100,4,2,1,80,0,1
114057,-133.333333333333,4,2,1,80,0,1
114391,-100,4,2,1,80,0,1
114724,-133.333333333333,4,2,1,80,0,1
115057,-100,4,2,1,80,0,1
117224,-133.333333333333,4,2,1,80,0,1
117557,-100,4,2,1,80,0,1
120224,-133.333333333333,4,2,1,80,0,1
120557,-100,4,2,1,80,0,1
123391,-10,4,2,1,80,0,0
123412,-100,4,2,1,80,0,0
123724,-133.333333333333,4,2,1,80,0,0
124057,-83.3333333333333,4,2,1,80,0,1
124391,-100,4,2,1,80,0,1
124557,-83.3333333333333,4,2,1,80,0,1
124891,-100,4,2,1,80,0,1
125391,-83.3333333333333,4,2,1,80,0,1
125724,-100,4,2,1,80,0,1
125891,-83.3333333333333,4,2,1,80,0,1
126224,-100,4,2,1,80,0,1
126724,-83.3333333333333,4,2,1,80,0,1
127057,-100,4,2,1,80,0,1
127224,-83.3333333333333,4,2,1,80,0,1
127557,-100,4,2,1,80,0,1
129057,-100,4,2,1,80,0,1
129391,-133.333333333333,4,2,1,80,0,1
129724,-100,4,2,1,80,0,1
130057,-133.333333333333,4,2,1,80,0,1
130391,-100,4,2,1,80,0,1
130724,-133.333333333333,4,2,1,80,0,1
131057,-100,4,2,1,80,0,1
134724,-100,4,2,1,80,0,0
145391,-100,4,2,1,80,0,1
145412,-100,4,2,1,80,0,0
166724,-100,4,2,1,30,0,0
168557,-95.2380952380952,4,2,1,40,0,0
168724,-90.9090909090909,4,2,1,50,0,0
168891,-86.9565217391304,4,2,1,60,0,0
169057,-83.3333333333333,4,2,1,70,0,0
169224,-80,4,2,1,80,0,0
169391,-100,4,2,1,80,0,1
170057,-133.333333333333,4,2,1,80,0,1
170391,-100,4,2,1,80,0,1
170724,-133.333333333333,4,2,1,80,0,1
171057,-100,4,2,1,80,0,1
173224,-133.333333333333,4,2,1,80,0,1
173557,-100,4,2,1,80,0,1
176224,-133.333333333333,4,2,1,80,0,1
176557,-100,4,2,1,80,0,1
179391,-10,4,2,1,80,0,0
179412,-100,4,2,1,80,0,0
179724,-133.333333333333,4,2,1,80,0,0
180057,-83.3333333333333,4,2,1,80,0,1
180391,-100,4,2,1,80,0,1
180557,-83.3333333333333,4,2,1,80,0,1
180891,-100,4,2,1,80,0,1
181391,-83.3333333333333,4,2,1,80,0,1
181724,-100,4,2,1,80,0,1
181891,-83.3333333333333,4,2,1,80,0,1
182224,-100,4,2,1,80,0,1
182724,-83.3333333333333,4,2,1,80,0,1
183057,-100,4,2,1,80,0,1
183224,-83.3333333333333,4,2,1,80,0,1
183557,-100,4,2,1,80,0,1
185057,-100,4,2,1,80,0,1
185391,-133.333333333333,4,2,1,80,0,1
185724,-100,4,2,1,80,0,1
186057,-133.333333333333,4,2,1,80,0,1
186391,-100,4,2,1,80,0,1
186724,-133.333333333333,4,2,1,80,0,1
187057,-100,4,2,1,80,0,1
190724,-100,4,2,1,80,0,0
192891,-33.3333333333333,4,2,1,80,0,0
192912,-133.333333333333,4,2,1,80,0,0
193057,-33.3333333333333,4,2,1,80,0,0
193078,-133.333333333333,4,2,1,80,0,0
193224,-33.3333333333333,4,2,1,80,0,0
193245,-133.333333333333,4,2,1,80,0,0
193391,-100,4,2,1,80,0,0
212891,-133.333333333333,4,2,1,80,0,0
213057,-100,4,2,1,80,0,0
213224,-66.6666666666667,4,2,1,80,0,0
213391,-100,4,2,1,80,0,0
213724,-66.6666666666667,4,2,1,80,0,0
213807,-133.333333333333,4,2,1,80,0,0
213891,-66.6666666666667,4,2,1,80,0,0
213974,-133.333333333333,4,2,1,80,0,0
214057,-100,4,2,1,80,0,0
214224,-66.6666666666667,4,2,1,80,0,0
214307,-133.333333333333,4,2,1,80,0,0
214391,-100,4,2,1,80,0,0

[HitObjects]
329,192,13391,5,0,0:0:0:0:
182,192,13391,1,0,0:0:0:0:
329,192,13724,1,0,0:0:0:0:
182,192,13724,1,0,0:0:0:0:
329,192,14058,1,0,0:0:0:0:
182,192,14058,1,0,0:0:0:0:
329,192,14224,1,0,0:0:0:0:
182,192,14224,1,0,0:0:0:0:
329,192,14391,1,0,0:0:0:0:
402,192,14391,1,4,0:0:0:0:
475,192,14391,1,4,1:0:0:0:
182,192,14391,1,0,0:0:0:0:
109,192,14391,1,4,0:0:0:0:
36,192,14391,1,4,1:0:0:0:
182,192,14724,1,0,0:0:0:0:
36,192,14724,1,0,0:0:0:0:
329,192,14724,1,4,0:0:0:0:
475,192,14724,1,8,0:0:0:0:
256,192,14891,1,0,0:0:0:0:
402,192,15058,1,8,0:0:0:0:
182,192,15058,1,0,0:0:0:0:
475,192,15224,1,8,0:0:0:0:
182,192,15224,1,0,0:0:0:0:
329,192,15308,1,8,0:0:0:0:
36,192,15308,1,0,0:0:0:0:
109,192,15391,128,0,15558:0:0:0:0:
402,192,15391,128,8,15558:0:0:0:0:
182,192,15558,128,0,15724:0:0:0:0:
475,192,15558,128,8,15724:0:0:0:0:
329,192,15724,1,8,0:0:0:0:
256,192,15724,1,0,0:0:0:0:
36,192,15724,1,4,0:0:0:0:
402,192,15891,128,8,16058:0:0:0:0:
109,192,15891,128,0,16058:0:0:0:0:
182,192,16058,1,0,0:0:0:0:
329,192,16058,1,8,0:0:0:0:
36,192,16224,128,0,16308:0:0:0:0:
475,192,16224,128,8,16308:0:0:0:0:
182,192,16308,128,0,16391:0:0:0:0:
329,192,16308,128,8,16391:0:0:0:0:
36,192,16391,1,0,0:0:0:0:
475,192,16391,1,8,0:0:0:0:
109,192,16558,1,0,0:0:0:0:
402,192,16558,1,8,0:0:0:0:
36,192,16724,128,0,16891:0:0:0:0:
475,192,16724,128,8,16891:0:0:0:0:
109,192,16891,128,0,17058:0:0:0:0:
402,192,16891,128,8,17058:0:0:0:0:
182,192,17058,128,4,17224:0:0:0:0:
329,192,17058,128,8,17224:0:0:0:0:
109,192,17224,128,0,17391:0:0:0:0:
402,192,17224,128,8,17391:0:0:0:0:
182,192,17391,1,0,0:0:0:0:
329,192,17391,1,8,0:0:0:0:
182,192,17724,128,0,18058:0:0:0:0:
475,192,17724,128,8,18058:0:0:0:0:
36,192,18058,1,0,0:0:0:0:
329,192,18058,1,8,0:0:0:0:
36,192,18224,128,0,18391:0:0:0:0:
329,192,18224,128,8,18391:0:0:0:0:
182,192,18558,1,0,0:0:0:0:
329,192,18558,1,8,0:0:0:0:
109,192,18641,1,0,0:0:0:0:
402,192,18641,1,8,0:0:0:0:
182,192,18724,128,0,18891:0:0:0:0:
329,192,18724,128,8,18891:0:0:0:0:
36,192,18891,128,0,19058:0:0:0:0:
475,192,18891,128,8,19058:0:0:0:0:
329,192,19224,1,8,0:0:0:0:
182,192,19224,1,0,0:0:0:0:
182,192,19391,1,0,0:0:0:0:
329,192,19391,1,8,0:0:0:0:
109,192,19474,1,0,0:0:0:0:
475,192,19474,1,8,0:0:0:0:
182,192,19558,1,0,0:0:0:0:
329,192,19558,1,8,0:0:0:0:
402,192,19641,1,8,0:0:0:0:
36,192,19641,1,0,0:0:0:0:
329,192,19724,1,8,0:0:0:0:
182,192,19724,1,0,0:0:0:0:
36,192,19891,1,8,0:0:0:0:
109,192,19933,1,8,0:0:0:0:
256,192,19974,1,8,0:0:0:0:
402,192,20016,1,8,0:0:0:0:
475,192,20058,128,8,20391:0:0:0:0:
182,192,20058,128,4,20391:0:0:0:0:
36,192,20391,1,0,0:0:0:0:
329,192,20391,1,8,0:0:0:0:
36,192,20558,1,0,0:0:0:0:
475,192,20558,1,8,0:0:0:0:
182,192,20641,1,0,0:0:0:0:
329,192,20641,1,8,0:0:0:0:
109,192,20724,128,0,20891:0:0:0:0:
402,192,20724,128,8,20891:0:0:0:0:
36,192,20891,128,0,21058:0:0:0:0:
475,192,20891,128,8,21058:0:0:0:0:
182,192,21224,128,0,21391:0:0:0:0:
475,192,21224,128,8,21391:0:0:0:0:
329,192,21391,1,8,0:0:0:0:
36,192,21391,1,0,0:0:0:0:
182,192,21558,128,0,21641:0:0:0:0:
475,192,21558,128,8,21641:0:0:0:0:
36,192,21641,128,0,21724:0:0:0:0:
329,192,21641,128,8,21724:0:0:0:0:
182,192,21724,1,0,0:0:0:0:
475,192,21724,1,8,0:0:0:0:
109,192,21891,1,0,0:0:0:0:
402,192,21891,1,8,0:0:0:0:
36,192,22058,128,0,22224:0:0:0:0:
402,192,22058,128,8,22224:0:0:0:0:
256,192,22224,128,8,22391:0:0:0:0:
182,192,22224,128,0,22391:0:0:0:0:
109,192,22391,128,0,22558:0:0:0:0:
475,192,22391,128,8,22558:0:0:0:0:
329,192,22558,128,8,22724:0:0:0:0:
256,192,22558,128,0,22724:0:0:0:0:
36,192,22724,1,0,0:0:0:0:
475,192,22724,1,8,0:0:0:0:
109,192,23057,1,0,0:0:0:0:
329,192,23057,1,4,3:0:0:0:
402,192,23057,1,4,1:0:0:0:
36,192,23391,128,0,23724:0:0:0:0:
182,192,23391,128,4,23724:0:0:0:0:
256,192,23391,128,0,23557:0:0:0:0:
329,192,23391,128,0,23724:0:0:0:0:
475,192,23391,128,0,23724:0:0:0:0:
256,192,23724,1,8,0:0:0:0:
402,192,23807,1,8,0:0:0:0:
109,192,23807,1,0,0:0:0:0:
256,192,23891,1,8,0:0:0:0:
36,192,23974,1,0,0:0:0:0:
475,192,23974,1,8,0:0:0:0:
256,192,24057,1,8,0:0:0:0:
402,192,24224,1,2,2:0:0:0:
109,192,24391,128,2,24474:2:0:0:0:
109,192,24557,128,2,24641:2:0:0:0:
329,192,24724,1,2,2:0:0:0:
109,192,24891,1,0,0:0:0:0:
256,192,24891,1,4,3:0:0:0:
402,192,24891,1,0,0:0:0:0:
109,192,25057,1,0,0:0:0:0:
256,192,25057,1,4,3:0:0:0:
402,192,25057,1,0,0:0:0:0:
109,192,25224,1,0,0:0:0:0:
256,192,25224,1,4,3:0:0:0:
402,192,25224,1,0,0:0:0:0:
256,192,25391,1,4,3:0:0:0:
109,192,25391,1,0,0:0:0:0:
402,192,25391,1,0,0:0:0:0:
475,192,25474,1,8,0:0:0:0:
36,192,25474,1,0,0:0:0:0:
329,192,25557,1,8,0:0:0:0:
182,192,25557,1,0,0:0:0:0:
402,192,25724,1,8,0:0:0:0:
109,192,25724,1,4,3:0:0:0:
329,192,25891,1,8,0:0:0:0:
36,192,25891,1,0,0:0:0:0:
475,192,26057,1,8,0:0:0:0:
182,192,26057,1,4,3:0:0:0:
329,192,26224,1,8,0:0:0:0:
36,192,26224,1,0,0:0:0:0:
402,192,26391,1,8,0:0:0:0:
109,192,26391,1,4,3:0:0:0:
256,192,26557,1,8,0:0:0:0:
182,192,26557,1,0,0:0:0:0:
329,192,26724,128,8,26891:0:0:0:0:
36,192,26724,128,4,26891:3:0:0:0:
475,192,26891,1,8,0:0:0:0:
182,192,26891,1,0,0:0:0:0:
329,192,27057,128,8,27224:0:0:0:0:
36,192,27057,128,4,27224:3:0:0:0:
475,192,27224,1,8,0:0:0:0:
182,192,27224,1,0,0:0:0:0:
109,192,27391,128,4,27724:3:0:0:0:
402,192,27391,128,8,27724:0:0:0:0:
182,192,27557,128,0,27724:0:0:0:0:
329,192,27557,128,8,27724:0:0:0:0:
36,192,27724,128,4,28057:3:0:0:0:
475,192,27724,128,8,28057:0:0:0:0:
109,192,27891,128,0,28057:0:0:0:0:
402,192,27891,128,8,28057:0:0:0:0:
329,192,28057,1,4,3:0:0:0:
182,192,28057,1,4,0:0:0:0:
256,192,28057,1,8,0:0:0:0:
109,192,28224,1,8,0:0:0:0:
402,192,28224,1,0,0:0:0:0:
256,192,28391,1,8,0:0:0:0:
182,192,28391,1,0,0:0:0:0:
329,192,28391,1,4,3:0:0:0:
36,192,28557,1,0,0:0:0:0:
475,192,28557,1,8,0:0:0:0:
256,192,28724,1,8,0:0:0:0:
109,192,28724,1,0,0:0:0:0:
402,192,28724,1,4,3:0:0:0:
329,192,28891,1,8,0:0:0:0:
182,192,28891,1,0,0:0:0:0:
256,192,29057,1,8,0:0:0:0:
36,192,29057,1,0,0:0:0:0:
475,192,29057,1,4,3:0:0:0:
182,192,29224,1,8,0:0:0:0:
329,192,29224,1,0,0:0:0:0:
256,192,29391,1,8,0:0:0:0:
109,192,29391,1,0,0:0:0:0:
402,192,29391,1,4,3:0:0:0:
36,192,29391,128,0,29724:0:0:0:0:
475,192,29557,128,8,29891:0:0:0:0:
109,192,29724,128,4,30057:3:0:0:0:
256,192,29724,1,8,0:0:0:0:
402,192,29891,128,8,30224:0:0:0:0:
182,192,30057,128,4,30391:3:0:0:0:
256,192,30057,1,8,0:0:0:0:
329,192,30224,128,8,30557:0:0:0:0:
109,192,30391,128,4,30724:3:0:0:0:
256,192,30391,1,8,0:0:0:0:
402,192,30557,128,8,30724:0:0:0:0:
256,192,30724,128,4,30807:3:0:0:0:
329,192,30724,128,10,30807:0:0:0:0:
182,192,30724,128,4,30807:0:0:0:0:
256,192,30891,128,2,30974:2:0:0:0:
329,192,30891,128,8,30974:0:0:0:0:
182,192,30891,128,0,30974:0:0:0:0:
256,192,31057,128,2,31141:2:0:0:0:
329,192,31057,128,8,31141:0:0:0:0:
182,192,31057,128,4,31141:3:0:0:0:
256,192,31224,128,2,31307:2:0:0:0:
329,192,31224,128,8,31307:0:0:0:0:
182,192,31224,128,0,31307:0:0:0:0:
36,192,31391,1,4,3:0:0:0:
475,192,31391,1,8,0:0:0:0:
182,192,31557,1,0,0:0:0:0:
329,192,31557,1,8,0:0:0:0:
109,192,31724,1,4,3:0:0:0:
402,192,31724,1,8,0:0:0:0:
36,192,31807,1,0,0:0:0:0:
475,192,31807,1,8,0:0:0:0:
182,192,31891,1,0,0:0:0:0:
329,192,31891,1,8,0:0:0:0:
36,192,31974,1,0,0:0:0:0:
475,192,31974,1,8,0:0:0:0:
109,192,32057,128,4,32224:3:0:0:0:
402,192,32057,128,8,32224:0:0:0:0:
182,192,32224,128,0,32391:0:0:0:0:
329,192,32224,128,8,32391:0:0:0:0:
36,192,32391,128,4,32557:3:0:0:0:
475,192,32391,128,8,32557:0:0:0:0:
109,192,32557,128,0,32724:0:0:0:0:
402,192,32557,128,8,32724:0:0:0:0:
182,192,32724,128,4,32891:3:0:0:0:
329,192,32724,128,8,32891:0:0:0:0:
256,192,32891,1,0,0:0:0:0:
109,192,32891,128,0,33057:0:0:0:0:
402,192,32891,128,8,33057:0:0:0:0:
329,192,33057,128,8,33224:0:0:0:0:
182,192,33057,128,4,33224:3:0:0:0:
36,192,33224,128,0,33391:0:0:0:0:
475,192,33224,128,8,33391:0:0:0:0:
402,192,33391,1,12,0:0:0:0:
109,192,33391,1,4,3:0:0:0:
329,192,33557,128,8,33724:0:0:0:0:
182,192,33557,128,0,33724:0:0:0:0:
402,192,33724,1,8,0:0:0:0:
109,192,33724,1,4,3:0:0:0:
36,192,33891,128,0,34057:0:0:0:0:
475,192,33891,128,8,34057:0:0:0:0:
182,192,34057,1,8,0:0:0:0:
329,192,34057,1,4,3:0:0:0:
109,192,34224,128,0,34391:0:0:0:0:
402,192,34224,128,8,34391:0:0:0:0:
256,192,34391,1,12,0:0:0:0:
329,192,34474,1,8,0:0:0:0:
182,192,34474,1,0,0:0:0:0:
402,192,34557,1,8,0:0:0:0:
109,192,34557,1,0,0:0:0:0:
475,192,34641,1,8,0:0:0:0:
36,192,34641,1,0,0:0:0:0:
109,192,34724,1,4,3:0:0:0:
402,192,34724,1,8,0:0:0:0:
182,192,34807,1,0,0:0:0:0:
329,192,34807,1,8,0:0:0:0:
109,192,34891,1,0,0:0:0:0:
402,192,34891,1,8,0:0:0:0:
182,192,34974,1,0,0:0:0:0:
329,192,34974,1,8,0:0:0:0:
109,192,35057,1,4,3:0:0:0:
402,192,35057,1,8,0:0:0:0:
256,192,35224,1,8,0:0:0:0:
36,192,35391,1,4,3:0:0:0:
475,192,35391,1,8,0:0:0:0:
36,192,35557,128,8,36057:0:0:0:0:
109,192,35641,128,8,36057:0:0:0:0:
475,192,35724,128,8,36057:0:0:0:0:
402,192,35807,128,8,36057:0:0:0:0:
256,192,35891,128,8,36057:0:0:0:0:
182,192,36057,128,4,36224:0:0:0:0:
329,192,36057,128,8,36224:0:0:0:0:
109,192,36224,128,0,36391:0:0:0:0:
402,192,36224,128,8,36391:0:0:0:0:
36,192,36391,128,4,36557:3:0:0:0:
475,192,36391,128,8,36557:0:0:0:0:
182,192,36557,128,0,36724:0:0:0:0:
329,192,36557,128,8,36724:0:0:0:0:
36,192,36724,128,4,36891:3:0:0:0:
475,192,36724,128,8,36891:0:0:0:0:
109,192,36891,128,0,37057:0:0:0:0:
402,192,36891,128,8,37057:0:0:0:0:
329,192,37057,1,8,0:0:0:0:
182,192,37057,1,4,3:0:0:0:
109,192,37224,128,0,37391:0:0:0:0:
402,192,37224,128,8,37391:0:0:0:0:
36,192,37391,128,4,37557:3:0:0:0:
475,192,37391,128,8,37557:0:0:0:0:
256,192,37557,128,8,37724:0:0:0:0:
109,192,37724,128,4,37891:3:0:0:0:
402,192,37724,128,8,37891:0:0:0:0:
256,192,37891,128,8,38057:0:0:0:0:
182,192,38057,1,4,3:0:0:0:
329,192,38057,1,8,0:0:0:0:
109,192,38224,1,0,0:0:0:0:
402,192,38224,1,8,0:0:0:0:
36,192,38391,128,4,38724:3:0:0:0:
475,192,38391,128,8,38724:0:0:0:0:
182,192,38557,128,0,38724:0:0:0:0:
329,192,38557,128,8,38724:0:0:0:0:
109,192,38724,128,4,39057:3:0:0:0:
402,192,38724,128,12,38891:0:0:0:0:
256,192,38891,128,8,39057:0:0:0:0:
475,192,39057,128,4,39391:3:0:0:0:
36,192,39057,128,8,39224:0:0:0:0:
182,192,39224,128,8,39391:0:0:0:0:
36,192,39391,1,4,3:0:0:0:
256,192,39391,1,8,0:0:0:0:
109,192,39557,1,0,0:0:0:0:
329,192,39557,1,8,0:0:0:0:
182,192,39724,1,4,3:0:0:0:
402,192,39724,1,8,0:0:0:0:
256,192,39891,1,0,0:0:0:0:
475,192,39891,1,8,0:0:0:0:
36,192,40057,1,4,3:0:0:0:
475,192,40057,1,8,0:0:0:0:
402,192,40141,1,8,0:0:0:0:
109,192,40141,1,0,0:0:0:0:
182,192,40224,1,0,0:0:0:0:
329,192,40224,1,8,0:0:0:0:
256,192,40307,1,8,0:0:0:0:
182,192,40391,1,4,3:0:0:0:
329,192,40391,1,8,0:0:0:0:
402,192,40474,1,8,0:0:0:0:
109,192,40474,1,0,0:0:0:0:
475,192,40557,1,8,0:0:0:0:
36,192,40557,1,0,0:0:0:0:
109,192,40641,1,0,0:0:0:0:
402,192,40641,1,8,0:0:0:0:
329,192,40724,1,8,0:0:0:0:
182,192,40724,128,4,41391:3:0:0:0:
256,192,40891,128,8,41391:0:0:0:0:
329,192,41057,128,8,41391:0:0:0:0:
402,192,41224,128,8,41391:0:0:0:0:
475,192,41391,128,12,41557:0:0:0:0:
36,192,41391,128,4,41557:3:0:0:0:
402,192,41557,128,8,41724:0:0:0:0:
109,192,41557,128,0,41724:0:0:0:0:
256,192,41724,1,4,3:0:0:0:
329,192,41891,1,8,0:0:0:0:
182,192,41891,1,0,0:0:0:0:
329,192,42057,1,4,3:0:0:0:
402,192,42057,1,4,2:0:0:0:
475,192,42057,1,0,1:0:0:0:
329,192,42224,1,0,0:0:0:0:
402,192,42224,1,4,2:0:0:0:
475,192,42224,1,0,1:0:0:0:
36,192,42224,1,0,0:0:0:0:
475,192,42391,1,0,1:0:0:0:
402,192,42391,1,4,2:0:0:0:
329,192,42391,1,4,3:0:0:0:
109,192,42391,1,0,0:0:0:0:
182,192,42557,1,0,0:0:0:0:
329,192,42557,1,8,0:0:0:0:
402,192,42724,128,12,42891:0:0:0:0:
109,192,42724,128,4,42891:3:0:0:0:
36,192,42891,128,0,43057:0:0:0:0:
475,192,42891,128,8,43057:0:0:0:0:
256,192,43057,1,4,3:0:0:0:
402,192,43224,1,8,0:0:0:0:
109,192,43224,1,0,0:0:0:0:
36,192,43391,1,0,1:0:0:0:
109,192,43391,1,4,2:0:0:0:
182,192,43391,1,4,3:0:0:0:
109,192,43557,1,4,2:0:0:0:
36,192,43557,1,0,1:0:0:0:
182,192,43557,1,0,0:0:0:0:
329,192,43557,1,0,0:0:0:0:
182,192,43724,1,4,3:0:0:0:
36,192,43724,1,0,1:0:0:0:
109,192,43724,1,4,2:0:0:0:
475,192,43724,1,0,0:0:0:0:
36,192,43891,1,0,0:0:0:0:
402,192,43891,1,0,0:0:0:0:
182,192,44057,1,0,0:0:0:0:
475,192,44057,1,8,0:0:0:0:
402,192,44141,1,8,0:0:0:0:
329,192,44224,1,8,0:0:0:0:
256,192,44307,1,8,0:0:0:0:
36,192,44391,1,4,3:0:0:0:
475,192,44391,1,8,0:0:0:0:
109,192,44474,1,0,0:0:0:0:
402,192,44474,1,8,0:0:0:0:
182,192,44557,1,0,0:0:0:0:
329,192,44557,1,8,0:0:0:0:
109,192,44641,1,0,0:0:0:0:
402,192,44641,1,8,0:0:0:0:
36,192,44724,1,4,3:0:0:0:
475,192,44724,1,8,0:0:0:0:
256,192,44807,1,8,0:0:0:0:
109,192,44891,1,0,0:0:0:0:
402,192,44891,1,8,0:0:0:0:
182,192,44974,1,0,0:0:0:0:
329,192,44974,1,8,0:0:0:0:
36,192,45057,1,4,3:0:0:0:
475,192,45057,1,8,0:0:0:0:
109,192,45141,1,0,0:0:0:0:
402,192,45141,1,8,0:0:0:0:
182,192,45224,1,0,0:0:0:0:
329,192,45224,1,8,0:0:0:0:
475,192,45391,1,8,0:0:0:0:
36,192,45391,1,4,3:0:0:0:
402,192,45474,1,8,0:0:0:0:
109,192,45474,1,0,0:0:0:0:
182,192,45557,1,4,3:0:0:0:
329,192,45557,1,8,0:0:0:0:
256,192,45641,1,8,0:0:0:0:
329,192,45724,1,8,0:0:0:0:
182,192,45724,1,4,3:0:0:0:
402,192,45807,1,8,0:0:0:0:
109,192,45807,1,0,0:0:0:0:
475,192,45891,1,8,0:0:0:0:
36,192,45891,1,4,3:0:0:0:
402,192,45974,1,8,0:0:0:0:
109,192,45974,1,0,0:0:0:0:
329,192,46057,1,8,0:0:0:0:
182,192,46057,1,4,3:0:0:0:
256,192,46141,1,8,0:0:0:0:
182,192,46224,1,4,3:0:0:0:
329,192,46224,1,8,0:0:0:0:
402,192,46307,1,8,0:0:0:0:
109,192,46307,1,0,0:0:0:0:
475,192,46391,1,8,0:0:0:0:
36,192,46391,1,4,3:0:0:0:
402,192,46474,1,8,0:0:0:0:
109,192,46474,1,0,0:0:0:0:
182,192,46557,1,4,3:0:0:0:
329,192,46557,1,8,0:0:0:0:
256,192,46641,1,8,0:0:0:0:
182,192,46724,128,4,48057:3:0:0:0:
329,192,46724,128,12,48057:0:0:0:0:
256,192,48057,1,2,2:0:0:0:
256,192,56057,5,4,3:0:0:0:
182,192,56891,1,2,0:0:0:0:
329,192,56891,1,4,0:0:0:0:
109,192,56891,1,2,0:0:0:0:
402,192,56891,1,4,0:0:0:0:
109,192,57057,1,2,0:0:0:0:
182,192,57057,1,2,0:0:0:0:
329,192,57057,1,4,0:0:0:0:
402,192,57057,1,4,0:0:0:0:
109,192,57224,1,2,0:0:0:0:
182,192,57224,1,2,0:0:0:0:
402,192,57224,1,4,0:0:0:0:
329,192,57224,1,4,0:0:0:0:
36,192,57391,1,4,2:0:0:0:
182,192,57391,1,4,3:0:0:0:
256,192,57391,1,4,1:0:0:0:
329,192,57391,1,0,1:0:0:0:
475,192,57391,1,4,1:0:0:0:
109,192,57724,1,4,3:0:0:0:
329,192,57724,1,8,0:0:0:0:
182,192,57891,1,0,0:0:0:0:
402,192,57891,1,8,0:0:0:0:
36,192,58057,128,4,58391:3:0:0:0:
329,192,58057,128,0,58391:0:0:0:0:
475,192,58057,128,8,58391:0:0:0:0:
109,192,58391,1,4,3:0:0:0:
402,192,58391,1,8,0:0:0:0:
182,192,58557,1,0,0:0:0:0:
329,192,58557,1,8,0:0:0:0:
36,192,58724,128,4,59057:3:0:0:0:
256,192,58724,128,0,59057:0:0:0:0:
475,192,58724,128,8,59057:0:0:0:0:
402,192,58974,1,8,0:0:0:0:
109,192,58974,1,0,0:0:0:0:
182,192,59057,1,4,3:0:0:0:
329,192,59057,1,8,0:0:0:0:
109,192,59224,1,0,0:0:0:0:
402,192,59224,1,8,0:0:0:0:
182,192,59391,1,4,3:0:0:0:
475,192,59391,1,8,0:0:0:0:
402,192,59557,1,8,0:0:0:0:
109,192,59557,1,0,0:0:0:0:
36,192,59724,1,4,3:0:0:0:
329,192,59724,1,8,0:0:0:0:
109,192,59891,1,0,0:0:0:0:
402,192,59891,1,8,0:0:0:0:
182,192,60057,1,4,3:0:0:0:
329,192,60057,1,8,0:0:0:0:
109,192,60224,1,0,0:0:0:0:
402,192,60224,1,8,0:0:0:0:
36,192,60391,1,4,3:0:0:0:
475,192,60391,1,8,0:0:0:0:
109,192,60557,1,0,0:0:0:0:
402,192,60557,1,8,0:0:0:0:
182,192,60641,1,0,0:0:0:0:
329,192,60641,1,8,0:0:0:0:
36,192,60724,1,4,3:0:0:0:
475,192,60724,1,8,0:0:0:0:
109,192,60891,1,0,0:0:0:0:
402,192,60891,1,8,0:0:0:0:
256,192,61057,1,8,0:0:0:0:
475,192,61224,128,0,61557:0:0:0:0:
36,192,61224,128,0,61557:0:0:0:0:
182,192,61224,128,4,61557:0:0:0:0:
329,192,61224,128,8,61557:0:0:0:0:
256,192,61557,128,8,61724:0:0:0:0:
109,192,61724,128,0,61891:0:0:0:0:
182,192,61724,128,4,61891:3:0:0:0:
329,192,61724,128,8,61891:0:0:0:0:
402,192,61724,128,0,61891:0:0:0:0:
256,192,61891,128,8,62057:0:0:0:0:
36,192,62057,128,0,62224:0:0:0:0:
182,192,62057,128,4,62224:3:0:0:0:
329,192,62057,128,8,62224:0:0:0:0:
475,192,62057,128,0,62224:0:0:0:0:
109,192,62224,128,0,62391:0:0:0:0:
402,192,62224,128,8,62391:0:0:0:0:
182,192,62391,128,4,62557:3:0:0:0:
329,192,62391,128,8,62557:0:0:0:0:
256,192,62557,128,8,62724:0:0:0:0:
36,192,62724,128,0,62891:0:0:0:0:
182,192,62724,128,8,62891:0:0:0:0:
109,192,62724,128,4,62891:3:0:0:0:
329,192,62891,128,8,63057:0:0:0:0:
475,192,62891,128,0,63057:0:0:0:0:
402,192,62891,128,0,63057:0:0:0:0:
182,192,63057,128,8,63224:0:0:0:0:
36,192,63057,128,0,63224:0:0:0:0:
109,192,63057,128,4,63224:3:0:0:0:
329,192,63224,128,8,63391:0:0:0:0:
475,192,63224,128,0,63391:0:0:0:0:
402,192,63224,128,0,63391:0:0:0:0:
182,192,63391,128,8,63557:0:0:0:0:
36,192,63391,128,0,63557:0:0:0:0:
109,192,63391,128,4,63557:3:0:0:0:
329,192,63557,128,8,63724:0:0:0:0:
475,192,63557,128,0,63724:0:0:0:0:
402,192,63557,128,0,63724:0:0:0:0:
36,192,63724,128,0,63891:0:0:0:0:
182,192,63724,128,8,63891:0:0:0:0:
109,192,63724,128,4,63891:3:0:0:0:
329,192,63891,128,8,64057:0:0:0:0:
475,192,63891,128,0,64057:0:0:0:0:
402,192,63891,128,0,64057:0:0:0:0:
36,192,64057,128,0,64224:0:0:0:0:
109,192,64057,128,4,64224:3:0:0:0:
182,192,64057,128,8,64224:0:0:0:0:
329,192,64224,128,8,64557:0:0:0:0:
402,192,64224,128,0,64557:0:0:0:0:
475,192,64224,128,0,64557:0:0:0:0:
182,192,64557,128,8,64724:0:0:0:0:
109,192,64557,128,0,64724:0:0:0:0:
36,192,64557,128,0,64724:0:0:0:0:
475,192,64724,1,8,0:0:0:0:
256,192,64724,1,4,3:0:0:0:
402,192,64891,1,8,0:0:0:0:
182,192,64891,1,0,3:0:0:0:
329,192,65057,1,8,0:0:0:0:
109,192,65057,1,4,3:0:0:0:
256,192,65224,1,8,0:0:0:0:
36,192,65224,1,0,0:0:0:0:
36,192,65391,128,4,65557:3:0:0:0:
475,192,65391,128,8,65557:0:0:0:0:
109,192,65557,128,0,65724:0:0:0:0:
402,192,65557,128,8,65724:0:0:0:0:
329,192,65724,1,8,0:0:0:0:
182,192,65724,1,4,3:0:0:0:
475,192,65891,128,8,66057:0:0:0:0:
182,192,65891,128,0,66057:0:0:0:0:
402,192,66057,128,8,66224:0:0:0:0:
109,192,66057,128,4,66224:3:0:0:0:
329,192,66224,1,8,0:0:0:0:
36,192,66224,1,0,0:0:0:0:
36,192,66391,128,4,66557:3:0:0:0:
329,192,66391,128,8,66557:0:0:0:0:
109,192,66557,128,0,66724:0:0:0:0:
402,192,66557,128,8,66724:0:0:0:0:
182,192,66724,1,4,3:0:0:0:
475,192,66724,1,8,0:0:0:0:
36,192,66891,128,0,67057:0:0:0:0:
475,192,66891,128,8,67057:0:0:0:0:
182,192,67057,128,4,67224:3:0:0:0:
329,192,67057,128,8,67224:0:0:0:0:
109,192,67224,128,0,67391:0:0:0:0:
402,192,67224,128,8,67391:0:0:0:0:
256,192,67391,1,4,2:0:0:0:
182,192,67391,1,4,3:0:0:0:
329,192,67391,1,8,0:0:0:0:
36,192,67724,1,0,0:0:0:0:
182,192,67724,1,4,0:0:0:0:
329,192,67724,1,0,1:0:0:0:
475,192,67724,1,0,0:0:0:0:
256,192,67724,1,4,2:0:0:0:
109,192,68057,128,4,68391:3:0:0:0:
256,192,68057,128,0,68391:0:0:0:0:
402,192,68057,128,8,68391:0:0:0:0:
182,192,68391,128,4,68557:3:0:0:0:
329,192,68391,128,8,68557:0:0:0:0:
256,192,68557,128,0,68891:0:0:0:0:
402,192,68557,128,8,68891:0:0:0:0:
109,192,68557,128,0,68891:0:0:0:0:
182,192,68891,1,4,2:0:0:0:
329,192,68891,1,8,0:0:0:0:
182,192,69057,1,4,3:0:0:0:
329,192,69057,1,12,0:0:0:0:
182,192,69224,1,4,2:0:0:0:
329,192,69224,1,8,0:0:0:0:
36,192,69391,128,4,69724:3:0:0:0:
475,192,69391,128,8,69724:0:0:0:0:
256,192,69391,128,0,69724:0:0:0:0:
109,192,69724,128,4,69891:3:0:0:0:
402,192,69724,128,8,69891:0:0:0:0:
256,192,69891,128,0,70224:0:0:0:0:
475,192,69891,128,8,70224:0:0:0:0:
36,192,69891,128,0,70224:0:0:0:0:
109,192,70224,1,4,2:0:0:0:
402,192,70224,1,8,0:0:0:0:
182,192,70391,1,4,3:0:0:0:
329,192,70391,1,12,0:0:0:0:
36,192,70557,1,4,2:0:0:0:
475,192,70557,1,8,0:0:0:0:
109,192,70724,128,4,71057:3:0:0:0:
402,192,70724,128,8,71057:0:0:0:0:
256,192,70724,128,0,71057:0:0:0:0:
329,192,71057,128,8,71224:0:0:0:0:
182,192,71057,128,4,71224:3:0:0:0:
256,192,71224,128,0,71557:0:0:0:0:
402,192,71224,128,8,71557:0:0:0:0:
109,192,71224,128,0,71557:0:0:0:0:
182,192,71557,128,0,71724:0:0:0:0:
329,192,71557,128,8,71724:0:0:0:0:
109,192,71724,128,4,71891:3:0:0:0:
402,192,71724,128,8,71891:0:0:0:0:
475,192,71891,128,8,72057:0:0:0:0:
36,192,71891,128,0,72057:0:0:0:0:
109,192,72057,128,8,72974:0:0:0:0:
182,192,72224,128,8,72974:0:0:0:0:
256,192,72391,128,8,72974:0:0:0:0:
329,192,72557,128,8,72974:0:0:0:0:
402,192,72724,128,8,72974:0:0:0:0:
109,192,73057,128,0,73391:0:0:0:0:
182,192,73057,128,4,73391:0:0:0:0:
329,192,73057,128,4,73391:0:0:0:0:
402,192,73057,128,8,73391:0:0:0:0:
475,192,73391,128,8,73724:0:0:0:0:
36,192,73391,128,4,73724:3:0:0:0:
182,192,73724,128,4,73891:3:0:0:0:
329,192,73724,128,8,73891:0:0:0:0:
475,192,73891,128,8,74057:0:0:0:0:
36,192,73891,128,0,74057:0:0:0:0:
329,192,74057,128,8,74391:0:0:0:0:
182,192,74057,128,4,74391:3:0:0:0:
475,192,74391,128,8,74557:0:0:0:0:
36,192,74391,128,4,74557:3:0:0:0:
329,192,74557,128,8,74724:0:0:0:0:
182,192,74557,128,0,74724:0:0:0:0:
475,192,74724,128,8,75057:0:0:0:0:
36,192,74724,128,4,75057:3:0:0:0:
329,192,75057,128,8,75224:0:0:0:0:
182,192,75057,128,4,75224:3:0:0:0:
475,192,75224,128,8,75391:0:0:0:0:
36,192,75224,128,0,75391:0:0:0:0:
402,192,75391,128,8,75557:0:0:0:0:
109,192,75391,128,4,75557:3:0:0:0:
329,192,75557,128,8,75724:0:0:0:0:
182,192,75557,128,0,75724:0:0:0:0:
256,192,75724,128,8,75891:0:0:0:0:
182,192,75891,128,0,76057:0:0:0:0:
329,192,75891,128,8,76057:0:0:0:0:
36,192,76057,128,4,76224:3:0:0:0:
475,192,76057,128,8,76224:0:0:0:0:
256,192,76224,1,8,0:0:0:0:
36,192,76391,128,4,76557:3:0:0:0:
475,192,76391,128,8,76557:0:0:0:0:
256,192,76557,1,8,0:0:0:0:
109,192,76724,128,4,76807:3:0:0:0:
402,192,76724,128,8,76807:0:0:0:0:
109,192,76891,128,0,77057:0:0:0:0:
402,192,76891,128,8,77057:0:0:0:0:
256,192,77057,128,8,77224:0:0:0:0:
329,192,77224,128,4,77557:0:0:0:0:
182,192,77224,128,4,77557:0:0:0:0:
109,192,77224,128,0,77557:0:0:0:0:
402,192,77224,128,8,77557:0:0:0:0:
36,192,77557,128,0,77724:0:0:0:0:
256,192,77557,128,8,77724:0:0:0:0:
109,192,77724,128,4,77891:3:0:0:0:
329,192,77724,128,8,77891:0:0:0:0:
182,192,77891,128,0,78057:0:0:0:0:
402,192,77891,128,8,78057:0:0:0:0:
256,192,78057,128,4,78224:3:0:0:0:
475,192,78057,128,8,78224:0:0:0:0:
329,192,78224,128,0,78391:0:0:0:0:
36,192,78224,128,8,78391:0:0:0:0:
402,192,78391,128,4,78557:3:0:0:0:
109,192,78391,128,8,78557:0:0:0:0:
475,192,78557,128,0,78724:0:0:0:0:
182,192,78557,128,8,78724:0:0:0:0:
109,192,78724,1,0,0:0:0:0:
256,192,78724,1,4,3:0:0:0:
256,192,79057,1,0,1:0:0:0:
256,192,79391,1,0,1:0:0:0:
256,192,79557,1,0,1:0:0:0:
109,192,79724,1,4,0:0:0:0:
402,192,79724,1,4,0:0:0:0:
256,192,80057,1,0,1:0:0:0:
329,192,80224,1,0,1:0:0:0:
182,192,80307,1,0,1:0:0:0:
329,192,80391,1,0,1:0:0:0:
182,192,80557,1,0,1:0:0:0:
329,192,80724,1,0,1:0:0:0:
256,192,80891,1,4,3:0:0:0:
36,192,80891,1,0,0:0:0:0:
475,192,80891,1,0,0:0:0:0:
109,192,81057,1,0,0:0:0:0:
256,192,81057,1,4,3:0:0:0:
402,192,81057,1,0,0:0:0:0:
182,192,81224,1,0,0:0:0:0:
256,192,81224,1,4,3:0:0:0:
329,192,81224,1,0,0:0:0:0:
256,192,81391,1,4,3:0:0:0:
109,192,81391,1,0,0:0:0:0:
402,192,81391,1,8,0:0:0:0:
36,192,81557,1,0,0:0:0:0:
475,192,81557,1,8,0:0:0:0:
182,192,81641,1,0,0:0:0:0:
329,192,81641,1,8,0:0:0:0:
36,192,81724,128,4,81891:3:0:0:0:
475,192,81724,128,8,81891:0:0:0:0:
402,192,81891,128,8,82057:0:0:0:0:
109,192,81891,128,0,82057:0:0:0:0:
182,192,82057,1,4,3:0:0:0:
329,192,82057,1,8,0:0:0:0:
36,192,82141,1,0,0:0:0:0:
475,192,82141,1,8,0:0:0:0:
36,192,82307,1,0,0:0:0:0:
475,192,82307,1,8,0:0:0:0:
402,192,82391,1,8,0:0:0:0:
109,192,82391,1,4,3:0:0:0:
182,192,82474,1,0,0:0:0:0:
329,192,82474,1,8,0:0:0:0:
36,192,82557,1,0,0:0:0:0:
475,192,82557,1,8,0:0:0:0:
182,192,82641,1,0,0:0:0:0:
329,192,82641,1,8,0:0:0:0:
402,192,82724,1,8,0:0:0:0:
109,192,82724,1,4,3:0:0:0:
256,192,82724,1,0,0:0:0:0:
182,192,82891,128,0,83057:0:0:0:0:
329,192,82891,128,8,83057:0:0:0:0:
36,192,83057,1,4,3:0:0:0:
256,192,83057,1,0,0:0:0:0:
475,192,83057,1,8,0:0:0:0:
182,192,83224,128,0,83391:0:0:0:0:
329,192,83224,128,8,83391:0:0:0:0:
109,192,83391,1,0,0:0:0:0:
256,192,83391,1,0,0:0:0:0:
402,192,83391,1,8,0:0:0:0:
36,192,83391,128,4,83724:3:0:0:0:
475,192,83391,128,0,83724:0:0:0:0:
109,192,83724,128,4,84057:3:0:0:0:
402,192,83724,128,0,84057:0:0:0:0:
329,192,83724,1,8,0:0:0:0:
182,192,83891,1,0,0:0:0:0:
329,192,84057,1,8,0:0:0:0:
182,192,84057,1,4,3:0:0:0:
109,192,84224,1,0,0:0:0:0:
402,192,84224,1,8,0:0:0:0:
182,192,84307,1,0,0:0:0:0:
329,192,84307,1,8,0:0:0:0:
36,192,84391,1,4,3:0:0:0:
256,192,84391,1,0,0:0:0:0:
475,192,84391,1,8,0:0:0:0:
182,192,84557,1,0,0:0:0:0:
329,192,84557,1,8,0:0:0:0:
109,192,84641,1,0,0:0:0:0:
402,192,84641,1,8,0:0:0:0:
36,192,84724,1,4,3:0:0:0:
256,192,84724,1,0,0:0:0:0:
475,192,84724,1,8,0:0:0:0:
182,192,84807,1,0,0:0:0:0:
329,192,84807,1,8,0:0:0:0:
36,192,84891,1,0,0:0:0:0:
475,192,84891,1,8,0:0:0:0:
182,192,84974,1,0,0:0:0:0:
329,192,84974,1,8,0:0:0:0:
36,192,85057,1,4,3:0:0:0:
475,192,85057,1,8,0:0:0:0:
256,192,85057,1,0,0:0:0:0:
109,192,85224,128,8,85391:0:0:0:0:
256,192,85391,1,8,0:0:0:0:
36,192,85474,1,0,0:0:0:0:
475,192,85474,1,8,0:0:0:0:
256,192,85557,1,8,0:0:0:0:
36,192,85641,1,0,0:0:0:0:
475,192,85641,1,8,0:0:0:0:
256,192,85724,1,8,0:0:0:0:
182,192,85807,1,0,0:0:0:0:
329,192,85807,1,8,0:0:0:0:
109,192,85891,1,0,0:0:0:0:
402,192,85891,1,8,0:0:0:0:
36,192,85974,1,0,0:0:0:0:
475,192,85974,1,8,0:0:0:0:
109,192,86057,1,0,0:0:0:0:
402,192,86057,1,8,0:0:0:0:
256,192,86057,1,4,3:0:0:0:
182,192,86224,1,0,0:0:0:0:
329,192,86224,1,8,0:0:0:0:
256,192,86391,128,0,86724:0:0:0:0:
109,192,86391,128,4,86724:1:0:0:0:
402,192,86391,128,12,86724:0:0:0:0:
182,192,86724,128,4,86891:3:0:0:0:
329,192,86724,128,8,86891:0:0:0:0:
475,192,86891,1,8,0:0:0:0:
36,192,86891,1,0,0:0:0:0:
402,192,86974,1,8,0:0:0:0:
109,192,86974,1,0,0:0:0:0:
329,192,87057,1,8,0:0:0:0:
182,192,87057,1,4,3:0:0:0:
475,192,87141,1,8,0:0:0:0:
36,192,87141,1,0,0:0:0:0:
329,192,87224,1,8,0:0:0:0:
182,192,87224,1,0,0:0:0:0:
256,192,87391,1,8,0:0:0:0:
182,192,87474,1,0,0:0:0:0:
329,192,87474,1,8,0:0:0:0:
109,192,87557,1,0,0:0:0:0:
402,192,87557,1,8,0:0:0:0:
36,192,87641,1,0,0:0:0:0:
475,192,87641,1,8,0:0:0:0:
109,192,87724,1,4,3:0:0:0:
402,192,87724,1,8,0:0:0:0:
182,192,87807,1,0,0:0:0:0:
329,192,87807,1,8,0:0:0:0:
256,192,87891,1,8,0:0:0:0:
36,192,88057,1,4,3:0:0:0:
475,192,88057,1,8,0:0:0:0:
402,192,88141,1,8,0:0:0:0:
109,192,88141,1,0,0:0:0:0:
182,192,88224,1,0,0:0:0:0:
329,192,88224,1,8,0:0:0:0:
256,192,88307,1,8,0:0:0:0:
402,192,88391,1,8,0:0:0:0:
109,192,88391,1,4,3:0:0:0:
256,192,88557,1,8,0:0:0:0:
402,192,88724,1,4,0:0:0:0:
109,192,88724,1,0,0:0:0:0:
36,192,88724,1,4,3:0:0:0:
475,192,88724,1,8,0:0:0:0:
256,192,88891,1,8,0:0:0:0:
402,192,89057,1,4,0:0:0:0:
109,192,89057,1,4,3:0:0:0:
36,192,89057,1,0,0:0:0:0:
182,192,89057,1,0,0:0:0:0:
329,192,89057,1,0,0:0:0:0:
475,192,89057,1,8,0:0:0:0:
256,192,89224,1,8,0:0:0:0:
109,192,89391,1,4,3:0:0:0:
402,192,89391,1,8,0:0:0:0:
36,192,89474,1,0,0:0:0:0:
475,192,89474,1,8,0:0:0:0:
256,192,89557,1,8,0:0:0:0:
36,192,89641,1,0,0:0:0:0:
475,192,89641,1,8,0:0:0:0:
182,192,89724,1,4,3:0:0:0:
329,192,89724,1,8,0:0:0:0:
109,192,89891,1,0,0:0:0:0:
402,192,89891,1,8,0:0:0:0:
475,192,90057,1,8,0:0:0:0:
36,192,90057,1,4,3:0:0:0:
256,192,90224,1,8,0:0:0:0:
402,192,90391,1,8,0:0:0:0:
109,192,90474,1,8,0:0:0:0:
329,192,90557,1,8,0:0:0:0:
109,192,90641,1,8,0:0:0:0:
402,192,90724,1,8,0:0:0:0:
256,192,90724,1,0,0:0:0:0:
256,192,90891,1,8,0:0:0:0:
109,192,90891,1,0,0:0:0:0:
256,192,91057,1,8,0:0:0:0:
402,192,91057,1,0,0:0:0:0:
256,192,91224,1,8,0:0:0:0:
109,192,91224,1,0,0:0:0:0:
256,192,91391,128,8,91724:0:0:0:0:
402,192,91391,1,0,0:0:0:0:
329,192,91724,1,8,0:0:0:0:
182,192,91807,1,8,0:0:0:0:
329,192,91891,1,8,0:0:0:0:
182,192,91974,1,8,0:0:0:0:
475,192,92057,128,8,92224:0:0:0:0:
36,192,92057,128,4,92224:0:0:0:0:
329,192,92224,1,8,0:0:0:0:
182,192,92224,1,0,0:0:0:0:
402,192,92307,1,8,0:0:0:0:
109,192,92307,1,0,0:0:0:0:
475,192,92474,1,8,0:0:0:0:
36,192,92474,1,0,0:0:0:0:
329,192,92557,1,8,0:0:0:0:
182,192,92557,1,0,0:0:0:0:
256,192,92724,128,8,92891:0:0:0:0:
36,192,92891,1,0,0:0:0:0:
475,192,92891,1,8,0:0:0:0:
109,192,93057,128,8,93141:1:0:0:0:
182,192,93057,128,0,93141:0:0:0:0:
109,192,93224,128,8,93307:1:0:0:0:
182,192,93224,128,0,93307:0:0:0:0:
475,192,93391,1,8,0:0:0:0:
36,192,93391,1,0,0:0:0:0:
329,192,93474,1,8,0:0:0:0:
182,192,93474,1,0,0:0:0:0:
402,192,93557,1,8,0:0:0:0:
109,192,93557,1,0,0:0:0:0:
329,192,93641,1,8,0:0:0:0:
182,192,93641,1,0,0:0:0:0:
475,192,93724,1,8,0:0:0:0:
36,192,93724,1,0,0:0:0:0:
402,192,93891,1,8,0:0:0:0:
109,192,93891,1,0,0:0:0:0:
329,192,94057,1,8,0:0:0:0:
182,192,94057,1,0,0:0:0:0:
256,192,94224,1,8,0:0:0:0:
402,192,94391,128,0,94474:0:0:0:0:
329,192,94391,128,8,94474:1:0:0:0:
329,192,94557,128,8,94641:1:0:0:0:
402,192,94557,128,0,94641:0:0:0:0:
475,192,94724,1,8,0:0:0:0:
36,192,94724,1,4,3:0:0:0:
402,192,94891,1,8,0:0:0:0:
109,192,94891,1,0,0:0:0:0:
329,192,95057,1,8,0:0:0:0:
182,192,95057,1,4,3:0:0:0:
475,192,95224,1,8,0:0:0:0:
36,192,95224,1,0,0:0:0:0:
256,192,95307,1,8,0:0:0:0:
109,192,95391,128,4,95557:3:0:0:0:
402,192,95391,128,8,95557:0:0:0:0:
36,192,95557,128,0,95724:0:0:0:0:
475,192,95557,128,8,95724:0:0:0:0:
182,192,95724,128,4,95891:3:0:0:0:
329,192,95724,128,8,95891:0:0:0:0:
256,192,95891,128,8,96057:0:0:0:0:
475,192,96057,128,8,96724:0:0:0:0:
36,192,96057,128,4,96724:3:0:0:0:
402,192,96224,128,8,96724:0:0:0:0:
109,192,96224,128,0,96724:0:0:0:0:
329,192,96391,128,8,96724:0:0:0:0:
182,192,96391,128,4,96724:3:0:0:0:
256,192,96724,1,8,0:0:0:0:
182,192,96807,128,0,97391:0:0:0:0:
329,192,96807,128,8,97391:0:0:0:0:
109,192,96891,128,0,97391:0:0:0:0:
402,192,96891,128,8,97391:0:0:0:0:
36,192,97057,128,4,97391:3:0:0:0:
475,192,97057,128,8,97391:0:0:0:0:
256,192,97391,1,8,0:0:0:0:
109,192,97557,1,0,0:0:0:0:
402,192,97557,1,8,0:0:0:0:
36,192,97724,1,4,3:0:0:0:
475,192,97724,1,8,0:0:0:0:
109,192,97891,128,0,98224:0:0:0:0:
402,192,97891,128,8,98224:0:0:0:0:
182,192,97974,1,0,0:0:0:0:
329,192,97974,1,8,0:0:0:0:
36,192,98224,1,0,0:0:0:0:
475,192,98224,1,8,0:0:0:0:
256,192,98391,1,0,0:0:0:0:
182,192,98391,1,4,3:0:0:0:
329,192,98391,1,8,0:0:0:0:
256,192,98557,1,0,0:0:0:0:
182,192,98557,1,0,0:0:0:0:
329,192,98557,1,8,0:0:0:0:
109,192,98724,1,4,3:0:0:0:
402,192,98724,1,8,0:0:0:0:
36,192,98891,1,0,0:0:0:0:
475,192,98891,1,8,0:0:0:0:
182,192,98974,1,0,0:0:0:0:
329,192,98974,1,8,0:0:0:0:
109,192,99057,1,4,3:0:0:0:
402,192,99057,1,8,0:0:0:0:
182,192,99224,1,0,0:0:0:0:
329,192,99224,1,8,0:0:0:0:
36,192,99391,128,4,100057:3:0:0:0:
475,192,99391,128,8,100057:0:0:0:0:
109,192,99557,128,0,99891:0:0:0:0:
402,192,99557,128,8,99891:0:0:0:0:
182,192,99724,1,4,3:0:0:0:
329,192,99724,1,8,0:0:0:0:
256,192,99891,1,8,0:0:0:0:
182,192,100057,1,4,3:0:0:0:
329,192,100057,1,8,0:0:0:0:
109,192,100141,1,0,0:0:0:0:
402,192,100141,1,8,0:0:0:0:
182,192,100224,1,0,0:0:0:0:
329,192,100224,1,8,0:0:0:0:
475,192,100391,1,8,0:0:0:0:
36,192,100391,1,4,3:0:0:0:
109,192,100557,1,0,0:0:0:0:
402,192,100557,1,8,0:0:0:0:
182,192,100724,128,4,101307:3:0:0:0:
329,192,100724,128,8,101307:0:0:0:0:
256,192,100891,1,8,0:0:0:0:
109,192,100974,1,0,0:0:0:0:
402,192,100974,1,8,0:0:0:0:
36,192,101057,1,4,3:0:0:0:
475,192,101057,1,8,0:0:0:0:
182,192,101391,128,4,101641:3:0:0:0:
329,192,101391,128,4,101641:0:0:0:0:
256,192,101391,128,8,101641:0:0:0:0:
182,192,101724,128,4,101974:3:0:0:0:
329,192,101724,128,4,101974:0:0:0:0:
256,192,101724,128,8,101974:0:0:0:0:
256,192,102057,128,8,102641:0:0:0:0:
182,192,102057,128,4,102641:3:0:0:0:
329,192,102057,128,4,102641:0:0:0:0:
109,192,102391,128,8,102641:0:0:0:0:
402,192,102391,128,4,102641:3:0:0:0:
36,192,102724,1,4,3:0:0:0:
256,192,102724,1,0,0:0:0:0:
329,192,102724,1,4,0:0:0:0:
475,192,102724,1,0,0:0:0:0:
182,192,102724,1,4,1:0:0:0:
36,192,103057,1,4,3:0:0:0:
329,192,103280,1,0,3:0:0:0:
402,192,103391,1,0,3:0:0:0:
329,192,103613,1,0,3:0:0:0:
256,192,103724,1,0,3:0:0:0:
36,192,103724,1,4,3:0:0:0:
402,192,103946,1,0,3:0:0:0:
36,192,104057,1,4,3:0:0:0:
256,192,104057,1,0,3:0:0:0:
256,192,104280,1,0,3:0:0:0:
36,192,104280,1,4,3:0:0:0:
402,192,104391,1,0,3:0:0:0:
182,192,104391,1,4,3:0:0:0:
36,192,104613,1,4,3:0:0:0:
329,192,104613,1,0,3:0:0:0:
475,192,104724,1,0,3:0:0:0:
402,192,104946,1,0,3:0:0:0:
329,192,105057,1,0,3:0:0:0:
36,192,105057,1,4,3:0:0:0:
402,192,105280,1,0,3:0:0:0:
256,192,105391,1,4,1:0:0:0:
36,192,105391,128,4,105724:3:0:0:0:
402,192,105724,1,0,3:0:0:0:
36,192,106280,1,4,3:0:0:0:
36,192,106613,1,4,3:0:0:0:
182,192,106724,1,4,3:0:0:0:
36,192,106835,1,4,3:0:0:0:
182,192,106946,1,4,3:0:0:0:
36,192,107057,1,4,3:0:0:0:
182,192,107169,1,4,3:0:0:0:
36,192,107280,1,4,3:0:0:0:
182,192,107391,1,4,3:0:0:0:
402,192,107613,1,0,3:0:0:0:
402,192,107946,1,0,3:0:0:0:
256,192,108057,1,4,1:0:0:0:
475,192,108057,1,0,3:0:0:0:
36,192,108057,128,4,108391:3:0:0:0:
402,192,108280,1,0,3:0:0:0:
182,192,108391,1,4,3:0:0:0:
256,192,108391,1,0,3:0:0:0:
329,192,108613,1,0,3:0:0:0:
475,192,108724,1,0,3:0:0:0:
402,192,108946,1,0,3:0:0:0:
329,192,109057,1,0,3:0:0:0:
36,192,109057,1,4,3:0:0:0:
329,192,109280,1,0,3:0:0:0:
256,192,109391,1,0,3:0:0:0:
36,192,109391,1,4,3:0:0:0:
36,192,109613,1,4,3:0:0:0:
329,192,109613,1,0,3:0:0:0:
182,192,109724,1,4,3:0:0:0:
402,192,109724,1,0,3:0:0:0:
36,192,109946,1,4,3:0:0:0:
329,192,109946,1,0,3:0:0:0:
475,192,110057,1,0,3:0:0:0:
402,192,110280,1,0,3:0:0:0:
36,192,110391,1,4,3:0:0:0:
329,192,110391,1,0,3:0:0:0:
329,192,110613,1,0,3:0:0:0:
36,192,110724,1,4,3:0:0:0:
256,192,110724,1,4,1:0:0:0:
329,192,110946,1,0,3:0:0:0:
36,192,111057,1,4,3:0:0:0:
402,192,111057,1,0,3:0:0:0:
329,192,111280,1,0,3:0:0:0:
475,192,111391,1,0,3:0:0:0:
36,192,111613,1,4,3:0:0:0:
402,192,111613,1,0,3:0:0:0:
329,192,111724,1,0,3:0:0:0:
36,192,111946,1,4,3:0:0:0:
329,192,111946,1,0,3:0:0:0:
182,192,112057,1,4,3:0:0:0:
256,192,112057,1,4,1:0:0:0:
182,192,112891,1,4,0:0:0:0:
329,192,112891,1,0,0:0:0:0:
109,192,112891,1,0,0:0:0:0:
402,192,112891,1,0,0:0:0:0:
256,192,112891,1,0,1:0:0:0:
109,192,113057,1,0,0:0:0:0:
182,192,113057,1,4,0:0:0:0:
329,192,113057,1,0,0:0:0:0:
402,192,113057,1,0,0:0:0:0:
256,192,113057,1,0,1:0:0:0:
109,192,113224,1,0,0:0:0:0:
182,192,113224,1,4,0:0:0:0:
256,192,113224,1,0,1:0:0:0:
329,192,113224,1,0,0:0:0:0:
402,192,113224,1,0,0:0:0:0:
182,192,113391,1,4,0:0:0:0:
109,192,113391,1,4,3:0:0:0:
256,192,113391,1,0,1:0:0:0:
402,192,113391,1,4,1:0:0:0:
329,192,113391,1,4,0:0:0:0:
36,192,113724,1,4,3:0:0:0:
475,192,113724,1,8,0:0:0:0:
182,192,113891,1,0,0:0:0:0:
329,192,113891,1,8,0:0:0:0:
36,192,114057,128,4,114391:3:0:0:0:
256,192,114057,128,0,114391:0:0:0:0:
475,192,114057,128,8,114391:0:0:0:0:
109,192,114391,1,4,3:0:0:0:
402,192,114391,1,8,0:0:0:0:
182,192,114557,1,0,0:0:0:0:
329,192,114557,1,8,0:0:0:0:
256,192,114724,128,0,115057:0:0:0:0:
475,192,114724,128,8,115057:0:0:0:0:
36,192,114724,128,4,115057:3:0:0:0:
109,192,114974,1,0,0:0:0:0:
402,192,114974,1,8,0:0:0:0:
329,192,115057,1,8,0:0:0:0:
182,192,115057,1,4,3:0:0:0:
109,192,115224,1,0,0:0:0:0:
402,192,115224,1,8,0:0:0:0:
182,192,115391,1,4,3:0:0:0:
329,192,115391,1,8,0:0:0:0:
402,192,115557,1,8,0:0:0:0:
109,192,115557,1,0,0:0:0:0:
36,192,115724,1,4,3:0:0:0:
475,192,115724,1,8,0:0:0:0:
109,192,115891,1,0,0:0:0:0:
402,192,115891,1,8,0:0:0:0:
182,192,116057,1,4,3:0:0:0:
329,192,116057,1,8,0:0:0:0:
36,192,116224,1,0,0:0:0:0:
475,192,116224,1,8,0:0:0:0:
329,192,116391,1,8,0:0:0:0:
182,192,116391,1,4,3:0:0:0:
36,192,116557,1,0,0:0:0:0:
475,192,116557,1,8,0:0:0:0:
182,192,116641,1,0,0:0:0:0:
329,192,116641,1,8,0:0:0:0:
36,192,116724,1,4,3:0:0:0:
475,192,116724,1,8,0:0:0:0:
109,192,116891,1,0,0:0:0:0:
402,192,116891,1,8,0:0:0:0:
329,192,116974,1,8,0:0:0:0:
182,192,116974,1,0,0:0:0:0:
256,192,117057,1,8,0:0:0:0:
182,192,117141,1,0,0:0:0:0:
329,192,117141,1,8,0:0:0:0:
36,192,117224,128,0,117557:0:0:0:0:
109,192,117224,128,0,117557:0:0:0:0:
402,192,117224,128,8,117557:0:0:0:0:
475,192,117224,128,4,117557:0:0:0:0:
256,192,117557,128,8,117724:0:0:0:0:
109,192,117724,128,4,117891:3:0:0:0:
36,192,117724,128,0,117891:0:0:0:0:
402,192,117724,128,8,117891:0:0:0:0:
475,192,117724,128,0,117891:0:0:0:0:
256,192,117891,128,8,118057:0:0:0:0:
109,192,118057,128,4,118224:3:0:0:0:
182,192,118057,128,0,118224:0:0:0:0:
329,192,118057,128,0,118224:0:0:0:0:
402,192,118057,128,8,118224:0:0:0:0:
36,192,118224,128,0,118391:0:0:0:0:
475,192,118224,128,8,118391:0:0:0:0:
402,192,118391,128,8,118557:0:0:0:0:
109,192,118391,128,4,118557:3:0:0:0:
256,192,118557,128,8,118724:0:0:0:0:
475,192,118724,128,0,118891:0:0:0:0:
329,192,118724,128,4,118891:3:0:0:0:
402,192,118724,128,8,118891:0:0:0:0:
182,192,118891,128,0,119057:0:0:0:0:
36,192,118891,128,0,119057:0:0:0:0:
109,192,118891,128,8,119057:0:0:0:0:
329,192,119057,128,4,119224:3:0:0:0:
475,192,119057,128,0,119224:0:0:0:0:
402,192,119057,128,8,119224:0:0:0:0:
182,192,119224,128,0,119391:0:0:0:0:
36,192,119224,128,0,119391:0:0:0:0:
109,192,119224,128,8,119391:0:0:0:0:
329,192,119391,128,4,119557:3:0:0:0:
475,192,119391,128,0,119557:0:0:0:0:
402,192,119391,128,8,119557:0:0:0:0:
182,192,119557,128,0,119724:0:0:0:0:
36,192,119557,128,0,119724:0:0:0:0:
109,192,119557,128,8,119724:0:0:0:0:
475,192,119724,128,0,119891:0:0:0:0:
329,192,119724,128,4,119891:3:0:0:0:
402,192,119724,128,8,119891:0:0:0:0:
182,192,119891,128,0,120057:0:0:0:0:
36,192,119891,128,0,120057:0:0:0:0:
109,192,119891,128,8,120057:0:0:0:0:
475,192,120057,128,0,120224:0:0:0:0:
402,192,120057,128,8,120224:0:0:0:0:
329,192,120057,128,4,120224:3:0:0:0:
182,192,120224,128,0,120557:0:0:0:0:
109,192,120224,128,8,120557:0:0:0:0:
36,192,120224,128,0,120557:0:0:0:0:
329,192,120557,128,0,120724:0:0:0:0:
402,192,120557,128,8,120724:0:0:0:0:
475,192,120557,128,0,120724:0:0:0:0:
36,192,120724,1,8,0:0:0:0:
256,192,120724,1,4,3:0:0:0:
329,192,120891,1,0,0:0:0:0:
109,192,120891,1,8,0:0:0:0:
402,192,121057,1,4,3:0:0:0:
182,192,121057,1,8,0:0:0:0:
256,192,121224,1,8,0:0:0:0:
475,192,121224,1,0,0:0:0:0:
329,192,121391,128,4,121557:3:0:0:0:
182,192,121391,128,8,121557:0:0:0:0:
109,192,121557,128,8,121724:0:0:0:0:
402,192,121557,128,0,121724:0:0:0:0:
329,192,121724,1,4,3:0:0:0:
182,192,121724,1,8,0:0:0:0:
182,192,121891,128,8,122057:0:0:0:0:
329,192,121891,128,0,122057:0:0:0:0:
475,192,122057,128,4,122224:3:0:0:0:
36,192,122057,128,8,122224:0:0:0:0:
402,192,122224,1,0,0:0:0:0:
109,192,122224,1,8,0:0:0:0:
402,192,122391,128,4,122557:3:0:0:0:
109,192,122391,128,8,122557:0:0:0:0:
36,192,122557,128,8,122724:0:0:0:0:
475,192,122557,128,0,122724:0:0:0:0:
182,192,122724,1,8,0:0:0:0:
329,192,122724,1,4,3:0:0:0:
36,192,122891,128,8,123057:0:0:0:0:
475,192,122891,128,0,123057:0:0:0:0:
182,192,123057,128,8,123224:0:0:0:0:
329,192,123057,128,4,123224:3:0:0:0:
109,192,123224,128,8,123391:0:0:0:0:
402,192,123224,128,0,123391:0:0:0:0:
256,192,123390,1,4,0:0:0:0:
182,192,123390,1,8,0:0:0:0:
329,192,123390,1,4,3:0:0:0:
36,192,123724,1,0,0:0:0:0:
109,192,123724,1,4,0:0:0:0:
402,192,123724,1,0,1:0:0:0:
475,192,123724,1,4,1:0:0:0:
256,192,123724,1,4,0:0:0:0:
109,192,124057,128,4,124307:3:0:0:0:
256,192,124057,128,8,124307:0:0:0:0:
402,192,124057,128,0,124307:0:0:0:0:
109,192,124391,1,4,3:0:0:0:
256,192,124391,1,8,0:0:0:0:
402,192,124391,1,0,0:0:0:0:
256,192,124557,128,8,124807:0:0:0:0:
402,192,124557,128,0,124807:0:0:0:0:
109,192,124557,128,0,124807:0:0:0:0:
109,192,124891,1,0,0:0:0:0:
256,192,124891,1,12,0:0:0:0:
402,192,124891,1,0,0:0:0:0:
109,192,125057,1,4,3:0:0:0:
256,192,125057,1,12,0:0:0:0:
402,192,125057,1,0,0:0:0:0:
109,192,125224,1,0,0:0:0:0:
256,192,125224,1,12,0:0:0:0:
402,192,125224,1,0,0:0:0:0:
475,192,125391,128,0,125641:0:0:0:0:
256,192,125391,128,8,125641:0:0:0:0:
36,192,125391,128,4,125641:3:0:0:0:
36,192,125724,1,4,3:0:0:0:
256,192,125724,1,8,0:0:0:0:
475,192,125724,1,0,0:0:0:0:
256,192,125891,128,8,126141:0:0:0:0:
475,192,125891,128,0,126141:0:0:0:0:
36,192,125891,128,0,126141:0:0:0:0:
36,192,126224,1,0,0:0:0:0:
475,192,126224,1,0,0:0:0:0:
256,192,126224,1,12,0:0:0:0:
36,192,126391,1,4,3:0:0:0:
475,192,126391,1,0,0:0:0:0:
256,192,126391,1,12,0:0:0:0:
36,192,126557,1,0,0:0:0:0:
475,192,126557,1,0,0:0:0:0:
256,192,126557,1,12,0:0:0:0:
109,192,126724,128,4,126974:3:0:0:0:
402,192,126724,128,0,126974:0:0:0:0:
256,192,126724,128,8,126974:0:0:0:0:
109,192,127057,1,4,3:0:0:0:
256,192,127057,1,8,0:0:0:0:
402,192,127057,1,0,0:0:0:0:
256,192,127224,128,8,127474:0:0:0:0:
402,192,127224,128,0,127474:0:0:0:0:
109,192,127224,128,0,127474:0:0:0:0:
109,192,127557,1,0,0:0:0:0:
256,192,127557,1,12,0:0:0:0:
402,192,127557,1,0,0:0:0:0:
36,192,127724,1,12,0:0:0:0:
475,192,127724,1,4,3:0:0:0:
182,192,127891,1,0,0:0:0:0:
329,192,127891,1,12,0:0:0:0:
36,192,128057,128,4,128974:3:0:0:0:
256,192,128057,1,12,0:0:0:0:
109,192,128224,128,8,128974:0:0:0:0:
256,192,128390,128,8,128974:0:0:0:0:
402,192,128557,128,8,128974:0:0:0:0:
475,192,128724,128,8,128974:0:0:0:0:
109,192,129057,128,4,129390:3:0:0:0:
36,192,129057,128,4,129391:0:0:0:0:
475,192,129057,128,4,129391:0:0:0:0:
402,192,129057,128,8,129390:0:0:0:0:
329,192,129391,128,12,129724:0:0:0:0:
182,192,129391,128,4,129724:3:0:0:0:
402,192,129724,128,8,129891:0:0:0:0:
109,192,129724,128,4,129891:3:0:0:0:
329,192,129891,128,8,130057:0:0:0:0:
182,192,129891,128,0,130057:0:0:0:0:
402,192,130057,128,12,130391:0:0:0:0:
109,192,130057,128,4,130391:3:0:0:0:
329,192,130391,128,8,130557:0:0:0:0:
182,192,130391,128,4,130557:3:0:0:0:
402,192,130557,128,8,130724:0:0:0:0:
109,192,130557,128,0,130724:0:0:0:0:
329,192,130724,128,12,131057:0:0:0:0:
182,192,130724,128,4,131057:3:0:0:0:
402,192,131057,128,8,131224:0:0:0:0:
109,192,131057,128,4,131224:3:0:0:0:
475,192,131224,128,8,131390:0:0:0:0:
36,192,131224,128,0,131390:0:0:0:0:
402,192,131390,128,8,131557:0:0:0:0:
109,192,131390,128,4,131557:3:0:0:0:
329,192,131557,128,8,131724:0:0:0:0:
182,192,131557,128,0,131724:0:0:0:0:
256,192,131724,128,8,131890:0:0:0:0:
182,192,131890,128,0,132057:0:0:0:0:
329,192,131890,128,8,132057:0:0:0:0:
109,192,132057,128,4,132224:3:0:0:0:
475,192,132057,128,8,132224:0:0:0:0:
256,192,132224,1,8,0:0:0:0:
36,192,132390,128,4,132557:3:0:0:0:
402,192,132391,128,8,132557:0:0:0:0:
256,192,132557,1,8,0:0:0:0:
182,192,132724,128,4,132807:3:0:0:0:
329,192,132724,128,8,132807:0:0:0:0:
329,192,132891,128,8,133057:0:0:0:0:
182,192,132891,128,0,133057:0:0:0:0:
256,192,133057,128,8,133224:0:0:0:0:
329,192,133223,128,8,133556:0:0:0:0:
182,192,133223,128,4,133556:0:0:0:0:
109,192,133223,128,0,133556:0:0:0:0:
402,192,133223,128,4,133556:0:0:0:0:
475,192,133557,128,8,133891:0:0:0:0:
36,192,133557,128,0,133891:0:0:0:0:
402,192,133724,128,8,134057:0:0:0:0:
109,192,133724,128,4,134057:3:0:0:0:
329,192,133891,128,8,134224:0:0:0:0:
182,192,133891,128,0,134224:0:0:0:0:
475,192,134057,128,8,134391:0:0:0:0:
36,192,134057,128,4,134391:3:0:0:0:
402,192,134224,128,8,134557:0:0:0:0:
109,192,134224,128,0,134557:0:0:0:0:
329,192,134391,128,8,134724:0:0:0:0:
182,192,134391,128,4,134724:3:0:0:0:
475,192,134557,128,8,134724:0:0:0:0:
36,192,134557,128,0,134724:0:0:0:0:
402,192,134724,1,12,0:0:0:0:
109,192,134724,1,2,1:0:0:0:
256,192,134724,1,8,0:0:0:0:
109,192,135391,1,2,1:0:0:0:
256,192,135391,1,8,3:0:0:0:
402,192,135391,1,0,0:0:0:0:
402,192,136057,1,0,0:0:0:0:
256,192,136057,1,8,3:0:0:0:
109,192,136057,1,2,1:0:0:0:
109,192,136391,1,2,1:0:0:0:
256,192,136391,1,8,3:0:0:0:
402,192,136391,1,0,0:0:0:0:
402,192,136724,1,0,0:0:0:0:
256,192,136724,1,8,3:0:0:0:
109,192,136724,1,2,1:0:0:0:
109,192,137391,1,2,1:0:0:0:
256,192,137391,1,8,3:0:0:0:
402,192,137391,1,0,0:0:0:0:
402,192,138057,1,0,0:0:0:0:
256,192,138057,1,8,3:0:0:0:
109,192,138057,1,2,1:0:0:0:
109,192,138724,1,2,1:0:0:0:
256,192,138724,1,8,3:0:0:0:
402,192,138724,1,0,0:0:0:0:
109,192,139057,1,2,1:0:0:0:
256,192,139057,1,8,3:0:0:0:
402,192,139057,1,0,0:0:0:0:
402,192,139391,1,0,0:0:0:0:
256,192,139391,1,8,3:0:0:0:
109,192,139391,1,2,1:0:0:0:
109,192,139724,1,2,1:0:0:0:
256,192,139724,1,8,3:0:0:0:
402,192,139724,1,0,0:0:0:0:
402,192,140057,1,0,0:0:0:0:
256,192,140057,1,8,3:0:0:0:
109,192,140057,1,2,1:0:0:0:
329,192,140057,1,4,0:0:0:0:
182,192,140057,1,4,0:0:0:0:
36,192,140724,1,2,1:0:0:0:
256,192,140724,1,8,3:0:0:0:
475,192,140724,1,0,0:0:0:0:
475,192,141391,1,0,0:0:0:0:
256,192,141391,1,8,3:0:0:0:
36,192,141391,1,2,1:0:0:0:
36,192,141724,1,2,1:0:0:0:
256,192,141724,1,8,3:0:0:0:
475,192,141724,1,0,0:0:0:0:
475,192,142057,1,0,0:0:0:0:
256,192,142057,1,8,3:0:0:0:
36,192,142057,1,2,1:0:0:0:
36,192,142724,1,2,1:0:0:0:
256,192,142724,1,8,3:0:0:0:
475,192,142724,1,0,0:0:0:0:
475,192,143391,1,0,0:0:0:0:
256,192,143391,1,8,3:0:0:0:
36,192,143391,1,2,1:0:0:0:
36,192,144057,1,2,1:0:0:0:
256,192,144057,1,8,3:0:0:0:
475,192,144057,1,0,0:0:0:0:
475,192,144391,1,0,0:0:0:0:
256,192,144391,1,8,3:0:0:0:
36,192,144391,1,2,1:0:0:0:
36,192,144724,1,2,1:0:0:0:
256,192,144724,1,8,3:0:0:0:
475,192,144724,1,0,0:0:0:0:
256,192,145057,1,12,3:0:0:0:
36,192,145391,1,0,0:0:0:0:
475,192,145391,1,8,0:0:0:0:
182,192,145474,1,0,0:0:0:0:
329,192,145474,1,8,0:0:0:0:
109,192,145724,1,0,0:0:0:0:
402,192,145724,1,8,0:0:0:0:
256,192,146057,128,8,146307:0:0:0:0:
256,192,146391,128,8,146724:0:0:0:0:
36,192,146724,1,0,0:0:0:0:
475,192,146724,1,8,0:0:0:0:
182,192,146807,1,0,0:0:0:0:
329,192,146807,1,8,0:0:0:0:
109,192,146974,1,0,0:0:0:0:
402,192,146974,1,8,0:0:0:0:
109,192,147224,1,0,0:0:0:0:
402,192,147224,1,8,0:0:0:0:
182,192,147307,1,0,0:0:0:0:
329,192,147307,1,8,0:0:0:0:
109,192,147391,1,0,0:0:0:0:
402,192,147391,1,8,0:0:0:0:
182,192,147557,1,0,0:0:0:0:
329,192,147557,1,8,0:0:0:0:
329,192,147891,1,8,0:0:0:0:
182,192,147891,1,0,0:0:0:0:
402,192,147974,1,8,0:0:0:0:
109,192,147974,1,0,0:0:0:0:
182,192,148057,1,0,0:0:0:0:
329,192,148057,1,8,0:0:0:0:
36,192,148141,1,0,0:0:0:0:
475,192,148141,1,8,0:0:0:0:
109,192,148307,1,0,0:0:0:0:
402,192,148307,1,8,0:0:0:0:
256,192,148724,128,8,148974:0:0:0:0:
256,192,149057,128,8,149391:0:0:0:0:
182,192,149391,1,0,0:0:0:0:
329,192,149391,1,8,0:0:0:0:
36,192,149557,1,0,0:0:0:0:
475,192,149557,1,8,0:0:0:0:
36,192,149974,1,0,0:0:0:0:
475,192,149974,1,8,0:0:0:0:
109,192,150016,1,0,0:0:0:0:
402,192,150016,1,8,0:0:0:0:
182,192,150057,1,0,0:0:0:0:
329,192,150057,1,8,0:0:0:0:
109,192,150224,1,0,0:0:0:0:
402,192,150224,1,8,0:0:0:0:
182,192,150391,1,0,0:0:0:0:
329,192,150391,1,8,0:0:0:0:
182,192,150557,1,0,0:0:0:0:
329,192,150557,1,8,0:0:0:0:
182,192,150724,1,0,0:0:0:0:
329,192,150724,1,8,0:0:0:0:
109,192,150891,1,0,0:0:0:0:
402,192,150891,1,8,0:0:0:0:
256,192,151391,128,8,151641:0:0:0:0:
256,192,151724,128,8,152057:0:0:0:0:
182,192,152057,1,0,0:0:0:0:
329,192,152057,1,8,0:0:0:0:
36,192,152224,1,0,0:0:0:0:
475,192,152224,1,8,0:0:0:0:
182,192,152724,1,0,0:0:0:0:
329,192,152724,1,8,0:0:0:0:
36,192,152891,1,0,0:0:0:0:
475,192,152891,1,8,0:0:0:0:
182,192,153391,1,0,0:0:0:0:
329,192,153391,1,8,0:0:0:0:
36,192,153557,1,0,0:0:0:0:
475,192,153557,1,8,0:0:0:0:
182,192,153724,1,0,0:0:0:0:
329,192,153724,1,8,0:0:0:0:
36,192,153807,1,0,0:0:0:0:
475,192,153807,1,8,0:0:0:0:
109,192,153974,1,0,0:0:0:0:
402,192,153974,1,8,0:0:0:0:
256,192,154057,128,8,154307:0:0:0:0:
256,192,154391,128,8,154641:0:0:0:0:
256,192,154724,128,8,154807:0:0:0:0:
109,192,154724,1,0,0:0:0:0:
402,192,154724,1,4,3:0:0:0:
256,192,154891,128,8,154974:0:0:0:0:
256,192,155057,128,8,155141:0:0:0:0:
109,192,155057,1,0,0:0:0:0:
402,192,155057,1,4,3:0:0:0:
256,192,155224,128,8,155307:0:0:0:0:
256,192,155391,128,8,155724:0:0:0:0:
109,192,155391,1,0,0:0:0:0:
402,192,155391,1,4,3:0:0:0:
182,192,155724,1,4,3:0:0:0:
329,192,155724,1,8,0:0:0:0:
36,192,155807,1,0,0:0:0:0:
475,192,155807,1,8,0:0:0:0:
109,192,155974,1,0,0:0:0:0:
402,192,155974,1,8,0:0:0:0:
329,192,156057,1,8,0:0:0:0:
182,192,156224,1,8,0:0:0:0:
329,192,156307,1,8,0:0:0:0:
182,192,156391,1,8,0:0:0:0:
329,192,156474,1,8,0:0:0:0:
182,192,156557,1,8,0:0:0:0:
329,192,156641,1,8,0:0:0:0:
182,192,156724,128,8,157391:0:0:0:0:
329,192,156891,128,8,157391:0:0:0:0:
109,192,157057,128,8,157391:0:0:0:0:
402,192,157224,128,8,157391:0:0:0:0:
36,192,157391,128,8,158057:0:0:0:0:
256,192,157557,128,8,158057:0:0:0:0:
475,192,157724,128,8,158057:0:0:0:0:
402,192,157891,128,8,158057:0:0:0:0:
182,192,158057,1,8,0:0:0:0:
109,192,158391,128,4,158724:0:0:0:0:
402,192,158391,128,4,158724:0:0:0:0:
36,192,158391,1,0,0:0:0:0:
475,192,158391,1,0,0:0:0:0:
182,192,158724,1,4,3:0:0:0:
256,192,158724,1,8,0:0:0:0:
329,192,158724,1,0,0:0:0:0:
36,192,159057,1,4,3:0:0:0:
256,192,159057,1,8,0:0:0:0:
475,192,159057,1,0,0:0:0:0:
109,192,159391,1,4,3:0:0:0:
256,192,159391,1,8,0:0:0:0:
402,192,159391,1,0,0:0:0:0:
182,192,159724,1,4,3:0:0:0:
256,192,159724,1,8,0:0:0:0:
329,192,159724,1,0,0:0:0:0:
109,192,159891,1,0,0:0:0:0:
36,192,160057,128,4,160724:3:0:0:0:
475,192,160057,128,8,160724:0:0:0:0:
109,192,160224,128,0,160557:0:0:0:0:
402,192,160224,128,8,160557:0:0:0:0:
182,192,160391,1,4,3:0:0:0:
329,192,160391,1,8,0:0:0:0:
256,192,160557,1,8,0:0:0:0:
182,192,160724,1,4,3:0:0:0:
329,192,160724,1,8,0:0:0:0:
329,192,161057,128,4,161391:0:0:0:0:
36,192,161057,128,4,161391:3:0:0:0:
182,192,161057,128,4,161391:0:0:0:0:
475,192,161057,128,0,161391:0:0:0:0:
402,192,161391,1,8,0:0:0:0:
109,192,161391,1,4,3:0:0:0:
329,192,161557,1,8,0:0:0:0:
182,192,161557,1,0,0:0:0:0:
402,192,161724,1,8,0:0:0:0:
109,192,161724,1,4,3:0:0:0:
475,192,161891,1,8,0:0:0:0:
36,192,161891,1,0,0:0:0:0:
109,192,162057,1,4,3:0:0:0:
402,192,162057,1,8,0:0:0:0:
36,192,162391,1,4,3:0:0:0:
475,192,162391,1,8,0:0:0:0:
109,192,162557,1,0,0:0:0:0:
402,192,162557,1,8,0:0:0:0:
329,192,162724,1,8,0:0:0:0:
182,192,162724,1,4,3:0:0:0:
475,192,162891,1,8,0:0:0:0:
36,192,162891,1,0,0:0:0:0:
109,192,163057,1,4,3:0:0:0:
402,192,163057,1,8,0:0:0:0:
36,192,163224,1,0,0:0:0:0:
475,192,163224,1,8,0:0:0:0:
182,192,163391,1,4,3:0:0:0:
329,192,163391,1,8,0:0:0:0:
256,192,163557,1,8,0:0:0:0:
109,192,163724,1,4,3:0:0:0:
402,192,163724,1,8,0:0:0:0:
256,192,164057,1,0,0:0:0:0:
182,192,164057,1,4,3:0:0:0:
329,192,164057,1,8,0:0:0:0:
256,192,164391,1,0,0:0:0:0:
109,192,164391,1,4,3:0:0:0:
402,192,164391,1,8,0:0:0:0:
36,192,164724,1,0,0:0:0:0:
182,192,164724,1,4,3:0:0:0:
329,192,164724,1,0,0:0:0:0:
475,192,164724,1,8,0:0:0:0:
109,192,164891,1,0,0:0:0:0:
402,192,164891,1,8,0:0:0:0:
256,192,164891,1,0,0:0:0:0:
36,192,165057,1,0,0:0:0:0:
182,192,165057,1,4,3:0:0:0:
329,192,165057,1,0,0:0:0:0:
475,192,165057,1,8,0:0:0:0:
256,192,165391,1,8,0:0:0:0:
182,192,165391,1,4,0:0:0:0:
329,192,165391,1,4,0:0:0:0:
182,192,165724,1,4,0:0:0:0:
329,192,165724,1,4,0:0:0:0:
402,192,165724,1,0,0:0:0:0:
109,192,165724,1,8,0:0:0:0:
256,192,166057,1,8,0:0:0:0:
182,192,166057,1,4,0:0:0:0:
109,192,166057,1,0,0:0:0:0:
329,192,166057,1,4,0:0:0:0:
402,192,166057,1,0,0:0:0:0:
329,192,166391,1,4,0:0:0:0:
182,192,166391,1,4,0:0:0:0:
109,192,166391,1,8,0:0:0:0:
402,192,166391,1,0,0:0:0:0:
36,192,166391,1,0,0:0:0:0:
475,192,166391,1,0,0:0:0:0:
256,192,166724,1,4,0:0:0:0:
36,192,166724,128,0,167057:0:0:0:0:
475,192,166724,128,2,167057:0:0:0:0:
256,192,167057,128,2,167391:0:0:0:0:
109,192,167391,128,0,167724:0:0:0:0:
402,192,167391,128,2,167724:0:0:0:0:
182,192,167724,128,0,168141:0:0:0:0:
329,192,167724,128,2,168141:0:0:0:0:
182,192,168224,128,4,168307:0:0:0:0:
329,192,168224,128,8,168307:0:0:0:0:
329,192,168391,128,8,168474:0:0:0:0:
182,192,168391,128,4,168474:0:0:0:0:
182,192,168557,128,4,168641:0:0:0:0:
329,192,168557,128,8,168641:0:0:0:0:
329,192,168724,128,8,168807:0:0:0:0:
182,192,168724,128,4,168807:0:0:0:0:
182,192,168891,128,4,168974:0:0:0:0:
329,192,168891,128,8,168974:0:0:0:0:
329,192,169058,128,8,169141:0:0:0:0:
182,192,169058,128,4,169141:0:0:0:0:
329,192,169224,128,8,169308:0:0:0:0:
182,192,169224,128,4,169308:0:0:0:0:
36,192,169391,1,4,3:0:0:0:
182,192,169391,1,4,0:0:0:0:
329,192,169391,1,8,0:0:0:0:
475,192,169391,1,4,1:0:0:0:
256,192,169391,1,4,0:0:0:0:
402,192,169724,1,8,0:0:0:0:
109,192,169724,1,4,3:0:0:0:
329,192,169891,1,8,0:0:0:0:
182,192,169891,1,0,0:0:0:0:
475,192,170057,128,8,170391:0:0:0:0:
329,192,170057,128,0,170391:0:0:0:0:
36,192,170057,128,4,170391:3:0:0:0:
182,192,170057,128,0,170391:0:0:0:0:
402,192,170391,1,8,0:0:0:0:
109,192,170391,1,4,3:0:0:0:
329,192,170557,1,8,0:0:0:0:
182,192,170557,1,0,0:0:0:0:
475,192,170724,128,8,171057:0:0:0:0:
36,192,170724,128,4,171057:3:0:0:0:
256,192,170725,128,0,171058:0:0:0:0:
109,192,170974,1,0,0:0:0:0:
402,192,170974,1,8,0:0:0:0:
329,192,171057,1,8,0:0:0:0:
182,192,171057,1,4,3:0:0:0:
402,192,171225,1,8,0:0:0:0:
109,192,171225,1,0,0:0:0:0:
475,192,171391,1,8,0:0:0:0:
182,192,171391,1,4,3:0:0:0:
109,192,171558,1,0,0:0:0:0:
402,192,171558,1,8,0:0:0:0:
329,192,171725,1,8,0:0:0:0:
36,192,171725,1,4,3:0:0:0:
402,192,171891,1,8,0:0:0:0:
109,192,171891,1,0,0:0:0:0:
329,192,172058,1,8,0:0:0:0:
182,192,172058,1,4,3:0:0:0:
402,192,172225,1,8,0:0:0:0:
109,192,172225,1,0,0:0:0:0:
475,192,172391,1,8,0:0:0:0:
36,192,172391,1,4,3:0:0:0:
402,192,172558,1,8,0:0:0:0:
109,192,172558,1,0,0:0:0:0:
329,192,172641,1,8,0:0:0:0:
182,192,172641,1,0,0:0:0:0:
475,192,172725,1,8,0:0:0:0:
36,192,172725,1,4,3:0:0:0:
402,192,172891,1,8,0:0:0:0:
109,192,172891,1,0,0:0:0:0:
256,192,173058,1,12,0:0:0:0:
109,192,173224,128,4,173557:0:0:0:0:
402,192,173224,128,4,173557:0:0:0:0:
329,192,173225,128,8,173558:0:0:0:0:
475,192,173225,128,0,173558:0:0:0:0:
36,192,173225,128,0,173558:0:0:0:0:
182,192,173225,128,0,173558:0:0:0:0:
256,192,173558,128,8,173725:0:0:0:0:
36,192,173724,128,4,173891:3:0:0:0:
475,192,173724,128,0,173891:0:0:0:0:
329,192,173725,128,8,173891:0:0:0:0:
402,192,173725,128,4,173891:0:0:0:0:
109,192,173725,128,4,173891:0:0:0:0:
182,192,173725,128,0,173891:0:0:0:0:
256,192,173891,128,8,174058:0:0:0:0:
329,192,174058,128,8,174225:0:0:0:0:
475,192,174058,128,4,174225:0:0:0:0:
36,192,174058,128,4,174225:0:0:0:0:
182,192,174058,128,4,174225:3:0:0:0:
402,192,174225,128,8,174391:0:0:0:0:
109,192,174225,128,0,174391:0:0:0:0:
329,192,174391,128,8,174558:0:0:0:0:
182,192,174391,128,4,174558:3:0:0:0:
256,192,174558,128,8,174725:0:0:0:0:
109,192,174725,128,4,174891:3:0:0:0:
182,192,174725,128,8,174891:0:0:0:0:
36,192,174725,128,0,174891:0:0:0:0:
402,192,174891,128,0,175058:0:0:0:0:
475,192,174891,128,0,175058:0:0:0:0:
329,192,174891,128,8,175058:0:0:0:0:
109,192,175058,128,4,175225:3:0:0:0:
36,192,175058,128,0,175225:0:0:0:0:
182,192,175058,128,8,175225:0:0:0:0:
402,192,175225,128,0,175391:0:0:0:0:
475,192,175225,128,0,175391:0:0:0:0:
329,192,175225,128,8,175391:0:0:0:0:
109,192,175391,128,4,175558:3:0:0:0:
36,192,175391,128,0,175558:0:0:0:0:
182,192,175391,128,8,175558:0:0:0:0:
402,192,175558,128,0,175725:0:0:0:0:
475,192,175558,128,0,175725:0:0:0:0:
329,192,175558,128,8,175725:0:0:0:0:
109,192,175724,128,4,175891:3:0:0:0:
182,192,175725,128,8,175891:0:0:0:0:
36,192,175725,128,0,175891:0:0:0:0:
402,192,175891,128,0,176058:0:0:0:0:
475,192,175891,128,0,176058:0:0:0:0:
329,192,175891,128,8,176058:0:0:0:0:
109,192,176057,128,4,176224:3:0:0:0:
182,192,176058,128,8,176225:0:0:0:0:
36,192,176058,128,0,176225:0:0:0:0:
475,192,176225,128,0,176558:0:0:0:0:
402,192,176225,128,0,176558:0:0:0:0:
329,192,176225,128,8,176558:0:0:0:0:
36,192,176558,128,0,176725:0:0:0:0:
109,192,176558,128,8,176725:0:0:0:0:
182,192,176558,128,0,176725:0:0:0:0:
475,192,176724,1,4,3:0:0:0:
256,192,176725,1,8,0:0:0:0:
182,192,176891,1,0,0:0:0:0:
402,192,176891,1,8,0:0:0:0:
109,192,177058,1,4,3:0:0:0:
329,192,177058,1,8,0:0:0:0:
256,192,177225,1,8,0:0:0:0:
36,192,177225,1,0,0:0:0:0:
475,192,177391,128,8,177558:0:0:0:0:
36,192,177391,128,4,177558:3:0:0:0:
256,192,177391,128,4,177724:0:0:0:0:
402,192,177558,128,8,177725:0:0:0:0:
109,192,177558,128,0,177725:0:0:0:0:
182,192,177725,1,4,3:0:0:0:
329,192,177725,1,8,0:0:0:0:
182,192,177891,128,0,178058:0:0:0:0:
475,192,177891,128,8,178058:0:0:0:0:
256,192,177891,128,4,178224:0:0:0:0:
109,192,178058,128,4,178225:3:0:0:0:
402,192,178058,128,8,178225:0:0:0:0:
36,192,178225,1,0,0:0:0:0:
329,192,178225,1,8,0:0:0:0:
329,192,178391,128,8,178558:0:0:0:0:
36,192,178391,128,4,178558:3:0:0:0:
256,192,178391,128,4,178724:0:0:0:0:
402,192,178558,128,8,178725:0:0:0:0:
109,192,178558,128,0,178725:0:0:0:0:
475,192,178725,1,8,0:0:0:0:
182,192,178725,1,4,3:0:0:0:
475,192,178891,128,8,179058:0:0:0:0:
36,192,178891,128,0,179058:0:0:0:0:
256,192,178891,128,4,179224:0:0:0:0:
329,192,179058,128,8,179225:0:0:0:0:
182,192,179058,128,4,179225:3:0:0:0:
402,192,179225,128,8,179391:0:0:0:0:
109,192,179225,128,0,179391:0:0:0:0:
329,192,179391,1,8,0:0:0:0:
182,192,179391,1,4,0:0:0:0:
256,192,179391,1,4,0:0:0:0:
36,192,179724,1,4,1:0:0:0:
475,192,179725,1,4,1:0:0:0:
256,192,179725,1,4,0:0:0:0:
329,192,179725,1,0,1:0:0:0:
182,192,179725,1,4,0:0:0:0:
36,192,180057,128,0,180391:0:0:0:0:
475,192,180057,128,0,180391:0:0:0:0:
402,192,180057,128,8,180391:0:0:0:0:
256,192,180058,128,0,180391:0:0:0:0:
109,192,180058,128,4,180391:3:0:0:0:
329,192,180391,128,8,180557:0:0:0:0:
182,192,180391,128,4,180558:3:0:0:0:
36,192,180557,128,0,180891:0:0:0:0:
475,192,180557,128,0,180891:0:0:0:0:
402,192,180557,128,8,180891:0:0:0:0:
109,192,180558,128,0,180891:0:0:0:0:
256,192,180558,128,0,180891:0:0:0:0:
329,192,180891,1,12,0:0:0:0:
182,192,180891,1,0,0:0:0:0:
329,192,181057,1,12,0:0:0:0:
182,192,181057,1,4,3:0:0:0:
329,192,181224,1,12,0:0:0:0:
182,192,181225,1,0,0:0:0:0:
256,192,181391,128,0,181724:0:0:0:0:
475,192,181391,128,0,181725:0:0:0:0:
36,192,181391,128,0,181725:0:0:0:0:
329,192,181391,128,8,181724:0:0:0:0:
182,192,181391,128,4,181724:3:0:0:0:
402,192,181724,128,8,181891:0:0:0:0:
109,192,181725,128,4,181891:3:0:0:0:
36,192,181891,128,0,182225:0:0:0:0:
475,192,181891,128,0,182225:0:0:0:0:
256,192,181891,128,0,182224:0:0:0:0:
182,192,181891,128,0,182224:0:0:0:0:
329,192,181891,128,8,182224:0:0:0:0:
109,192,182224,1,0,0:0:0:0:
402,192,182225,1,12,0:0:0:0:
329,192,182391,1,12,0:0:0:0:
182,192,182391,1,4,3:0:0:0:
36,192,182557,1,0,0:0:0:0:
475,192,182558,1,12,0:0:0:0:
475,192,182724,128,0,183057:0:0:0:0:
36,192,182724,128,4,183057:3:0:0:0:
256,192,182725,128,0,183058:0:0:0:0:
402,192,182725,128,8,183058:0:0:0:0:
109,192,182725,128,0,183058:0:0:0:0:
182,192,183058,128,4,183225:3:0:0:0:
329,192,183058,128,8,183225:0:0:0:0:
36,192,183224,128,0,183557:0:0:0:0:
475,192,183224,128,0,183557:0:0:0:0:
109,192,183225,128,0,183558:0:0:0:0:
402,192,183225,128,8,183558:0:0:0:0:
256,192,183225,128,0,183558:0:0:0:0:
329,192,183558,128,12,183725:0:0:0:0:
182,192,183558,128,0,183725:0:0:0:0:
402,192,183725,128,12,183891:0:0:0:0:
109,192,183725,128,4,183891:3:0:0:0:
36,192,183891,128,0,184058:0:0:0:0:
475,192,183891,128,12,184057:0:0:0:0:
109,192,184057,128,8,184974:0:0:0:0:
182,192,184224,128,8,184974:0:0:0:0:
256,192,184391,128,8,184974:0:0:0:0:
329,192,184557,128,8,184974:0:0:0:0:
402,192,184724,128,8,184974:0:0:0:0:
109,192,185057,128,4,185391:1:0:0:0:
329,192,185057,128,4,185391:0:0:0:0:
402,192,185057,128,0,185391:0:0:0:0:
182,192,185057,128,4,185391:0:0:0:0:
36,192,185391,128,8,185724:0:0:0:0:
475,192,185391,128,4,185724:3:0:0:0:
402,192,185724,128,4,185891:3:0:0:0:
109,192,185724,128,8,185891:0:0:0:0:
182,192,185724,128,0,185891:0:0:0:0:
329,192,185724,128,0,185891:0:0:0:0:
36,192,185891,128,8,186057:0:0:0:0:
475,192,185891,128,0,186057:0:0:0:0:
109,192,186057,128,12,186391:0:0:0:0:
402,192,186057,128,4,186391:3:0:0:0:
182,192,186057,128,0,186391:0:0:0:0:
329,192,186057,128,0,186391:0:0:0:0:
36,192,186391,128,8,186557:0:0:0:0:
475,192,186391,128,4,186557:3:0:0:0:
109,192,186557,128,8,186724:0:0:0:0:
402,192,186557,128,0,186724:0:0:0:0:
182,192,186557,128,0,186724:0:0:0:0:
329,192,186557,128,0,186724:0:0:0:0:
475,192,186724,128,4,187057:3:0:0:0:
36,192,186724,128,12,187057:0:0:0:0:
109,192,187057,128,8,187224:0:0:0:0:
402,192,187057,128,4,187224:3:0:0:0:
182,192,187057,128,0,187224:0:0:0:0:
329,192,187057,128,0,187224:0:0:0:0:
36,192,187224,128,8,187391:0:0:0:0:
475,192,187224,128,0,187391:0:0:0:0:
109,192,187391,128,8,187557:0:0:0:0:
402,192,187391,128,4,187557:3:0:0:0:
182,192,187557,128,8,187724:0:0:0:0:
329,192,187557,128,0,187724:0:0:0:0:
256,192,187724,128,8,187891:0:0:0:0:
329,192,187891,128,0,188057:0:0:0:0:
182,192,187891,128,8,188057:0:0:0:0:
402,192,188057,128,4,188224:3:0:0:0:
109,192,188057,128,8,188224:0:0:0:0:
475,192,188057,128,0,188224:0:0:0:0:
36,192,188057,128,0,188224:0:0:0:0:
256,192,188224,1,8,0:0:0:0:
475,192,188391,128,0,188557:0:0:0:0:
36,192,188391,128,0,188557:0:0:0:0:
402,192,188391,128,4,188557:3:0:0:0:
109,192,188391,128,8,188557:0:0:0:0:
256,192,188558,1,8,0:0:0:0:
109,192,188724,128,4,188807:3:0:0:0:
402,192,188724,128,8,188807:0:0:0:0:
402,192,188891,128,8,189057:0:0:0:0:
109,192,188891,128,0,189057:0:0:0:0:
256,192,189057,128,8,189224:0:0:0:0:
109,192,189224,128,0,189557:0:0:0:0:
402,192,189224,128,8,189557:0:0:0:0:
329,192,189224,128,0,189557:0:0:0:0:
182,192,189224,128,0,189557:0:0:0:0:
256,192,189557,128,8,189724:0:0:0:0:
36,192,189557,128,0,189724:0:0:0:0:
329,192,189724,128,8,189891:0:0:0:0:
109,192,189724,128,4,189891:3:0:0:0:
402,192,189891,128,8,190057:0:0:0:0:
182,192,189891,128,0,190057:0:0:0:0:
475,192,190057,128,8,190224:0:0:0:0:
256,192,190057,128,4,190224:3:0:0:0:
36,192,190057,128,0,190224:0:0:0:0:
109,192,190224,128,0,190391:0:0:0:0:
329,192,190224,128,8,190391:0:0:0:0:
182,192,190391,128,4,190557:3:0:0:0:
402,192,190391,128,8,190557:0:0:0:0:
475,192,190557,128,8,190724:0:0:0:0:
256,192,190557,128,0,190724:0:0:0:0:
36,192,190724,1,4,0:0:0:0:
109,192,190724,1,4,0:0:0:0:
402,192,190724,1,8,0:0:0:0:
329,192,190724,1,4,3:0:0:0:
36,192,191057,1,0,0:0:0:0:
182,192,191057,1,8,1:0:0:0:
329,192,191057,1,0,0:0:0:0:
36,192,191391,1,0,0:0:0:0:
182,192,191391,1,8,1:0:0:0:
329,192,191391,1,0,0:0:0:0:
109,192,191557,1,0,0:0:0:0:
256,192,191557,1,8,1:0:0:0:
402,192,191557,1,0,0:0:0:0:
182,192,191724,1,0,0:0:0:0:
329,192,191724,1,8,1:0:0:0:
475,192,191724,1,0,0:0:0:0:
109,192,192057,1,0,0:0:0:0:
182,192,192057,1,4,0:0:0:0:
329,192,192057,1,4,1:0:0:0:
402,192,192057,1,8,1:0:0:0:
36,192,192391,1,0,0:0:0:0:
475,192,192391,1,0,0:0:0:0:
109,192,192391,1,0,0:0:0:0:
402,192,192391,1,8,1:0:0:0:
109,192,192557,1,0,0:0:0:0:
182,192,192557,1,0,0:0:0:0:
402,192,192557,1,8,1:0:0:0:
329,192,192557,1,0,0:0:0:0:
329,192,192724,1,8,1:0:0:0:
256,192,192724,1,0,0:0:0:0:
182,192,192724,1,0,0:0:0:0:
402,192,192724,1,0,0:0:0:0:
109,192,192724,1,0,0:0:0:0:
109,192,192891,1,4,3:0:0:0:
182,192,192891,1,0,0:0:0:0:
402,192,192891,1,8,1:0:0:0:
329,192,192891,1,0,0:0:0:0:
109,192,193057,1,4,3:0:0:0:
182,192,193057,1,0,0:0:0:0:
402,192,193057,1,8,1:0:0:0:
329,192,193057,1,0,0:0:0:0:
182,192,193224,1,0,0:0:0:0:
109,192,193224,1,4,3:0:0:0:
402,192,193224,1,8,1:0:0:0:
329,192,193224,1,0,0:0:0:0:
36,192,193391,1,4,1:0:0:0:
256,192,193391,1,4,0:0:0:0:
475,192,193391,1,8,0:0:0:0:
109,192,193724,1,4,3:0:0:0:
402,192,193724,1,8,0:0:0:0:
36,192,193891,1,0,0:0:0:0:
475,192,193891,1,8,0:0:0:0:
182,192,193974,1,0,0:0:0:0:
329,192,193974,1,8,0:0:0:0:
36,192,194057,128,4,194224:3:0:0:0:
475,192,194057,128,8,194224:0:0:0:0:
109,192,194224,128,0,194391:0:0:0:0:
402,192,194224,128,8,194391:0:0:0:0:
329,192,194391,1,8,0:0:0:0:
182,192,194391,1,4,3:0:0:0:
475,192,194557,128,8,194724:0:0:0:0:
36,192,194557,128,0,194724:0:0:0:0:
109,192,194724,1,4,3:0:0:0:
402,192,194724,1,8,0:0:0:0:
182,192,194891,128,0,194974:0:0:0:0:
329,192,194891,128,8,194974:0:0:0:0:
109,192,194974,128,0,195057:0:0:0:0:
402,192,194974,128,8,195057:0:0:0:0:
182,192,195057,1,4,3:0:0:0:
329,192,195057,1,8,0:0:0:0:
36,192,195224,128,0,195391:0:0:0:0:
475,192,195224,128,8,195391:0:0:0:0:
182,192,195391,128,4,195557:3:0:0:0:
329,192,195391,128,8,195557:0:0:0:0:
36,192,195557,128,0,195724:0:0:0:0:
475,192,195557,128,8,195724:0:0:0:0:
256,192,195724,128,8,195891:0:0:0:0:
182,192,195891,128,0,196057:0:0:0:0:
329,192,195891,128,8,196057:0:0:0:0:
36,192,196057,128,4,196224:3:0:0:0:
475,192,196057,128,8,196224:0:0:0:0:
109,192,196391,128,4,196557:3:0:0:0:
402,192,196391,128,8,196557:0:0:0:0:
182,192,196557,1,0,0:0:0:0:
329,192,196557,1,8,0:0:0:0:
109,192,196641,1,0,0:0:0:0:
402,192,196641,1,8,0:0:0:0:
182,192,196724,128,4,196807:3:0:0:0:
329,192,196724,128,8,196807:0:0:0:0:
182,192,196891,128,0,197057:0:0:0:0:
329,192,196891,128,8,197057:0:0:0:0:
182,192,197224,1,0,0:0:0:0:
329,192,197224,1,8,0:0:0:0:
256,192,197307,1,8,0:0:0:0:
109,192,197391,128,4,197557:3:0:0:0:
402,192,197391,128,8,197557:0:0:0:0:
475,192,197557,1,8,0:0:0:0:
36,192,197557,1,0,0:0:0:0:
182,192,197641,1,0,0:0:0:0:
329,192,197641,1,8,0:0:0:0:
256,192,197724,1,8,0:0:0:0:
256,192,197891,1,8,0:0:0:0:
182,192,198057,128,4,198141:3:0:0:0:
329,192,198057,128,8,198141:0:0:0:0:
36,192,198141,128,0,198224:0:0:0:0:
475,192,198141,128,8,198224:0:0:0:0:
182,192,198224,128,0,198307:0:0:0:0:
329,192,198224,128,8,198307:0:0:0:0:
36,192,198307,128,0,198391:0:0:0:0:
475,192,198307,128,8,198391:0:0:0:0:
182,192,198391,128,4,198474:3:0:0:0:
329,192,198391,128,8,198474:0:0:0:0:
36,192,198557,1,8,0:0:0:0:
109,192,198599,1,8,0:0:0:0:
256,192,198641,1,8,0:0:0:0:
402,192,198682,1,8,0:0:0:0:
475,192,198724,1,0,0:0:0:0:
182,192,198724,128,4,198891:3:0:0:0:
329,192,198724,128,8,198891:0:0:0:0:
109,192,198891,1,0,0:0:0:0:
402,192,198891,1,8,0:0:0:0:
475,192,199057,128,8,199224:0:0:0:0:
36,192,199057,128,4,199224:3:0:0:0:
402,192,199224,1,8,0:0:0:0:
109,192,199224,1,0,0:0:0:0:
256,192,199307,1,8,0:0:0:0:
182,192,199391,128,4,199557:3:0:0:0:
329,192,199391,128,8,199557:0:0:0:0:
109,192,199557,128,0,199724:0:0:0:0:
402,192,199557,128,8,199724:0:0:0:0:
256,192,199724,1,8,0:0:0:0:
475,192,199891,128,8,200057:0:0:0:0:
182,192,200057,128,8,200224:0:0:0:0:
109,192,200057,128,4,200224:3:0:0:0:
402,192,200224,128,0,200307:0:0:0:0:
329,192,200224,128,8,200307:0:0:0:0:
182,192,200307,128,8,200391:0:0:0:0:
109,192,200307,128,0,200391:0:0:0:0:
402,192,200391,1,4,3:0:0:0:
329,192,200391,1,8,0:0:0:0:
109,192,200557,128,0,200724:0:0:0:0:
182,192,200557,128,8,200724:0:0:0:0:
329,192,200724,128,8,200891:0:0:0:0:
402,192,200724,128,4,200891:3:0:0:0:
182,192,200891,128,8,201057:0:0:0:0:
109,192,200891,128,0,201057:0:0:0:0:
329,192,201057,128,8,201224:0:0:0:0:
402,192,201057,128,4,201224:3:0:0:0:
182,192,201224,128,8,201391:0:0:0:0:
109,192,201224,128,0,201391:0:0:0:0:
256,192,201391,1,12,0:0:0:0:
329,192,201391,1,4,3:0:0:0:
109,192,201724,128,4,201891:3:0:0:0:
402,192,201724,128,8,201891:0:0:0:0:
182,192,201891,1,0,0:0:0:0:
329,192,201891,1,8,0:0:0:0:
36,192,201974,1,0,0:0:0:0:
475,192,201974,1,8,0:0:0:0:
182,192,202057,128,4,202141:3:0:0:0:
329,192,202057,128,8,202141:0:0:0:0:
182,192,202224,128,0,202391:0:0:0:0:
329,192,202224,128,8,202391:0:0:0:0:
256,192,202391,128,8,202557:0:0:0:0:
109,192,202557,128,0,202724:0:0:0:0:
402,192,202557,128,8,202724:0:0:0:0:
256,192,202724,128,8,202807:0:0:0:0:
36,192,202807,128,0,202891:0:0:0:0:
475,192,202807,128,8,202891:0:0:0:0:
256,192,202891,128,8,202974:0:0:0:0:
109,192,202974,128,0,203057:0:0:0:0:
402,192,202974,128,8,203057:0:0:0:0:
256,192,203057,128,8,203224:0:0:0:0:
182,192,203224,128,0,203391:0:0:0:0:
329,192,203224,128,8,203391:0:0:0:0:
36,192,203391,1,0,0:0:0:0:
475,192,203391,1,8,0:0:0:0:
109,192,203474,1,0,0:0:0:0:
402,192,203474,1,8,0:0:0:0:
182,192,203557,1,0,0:0:0:0:
329,192,203557,1,8,0:0:0:0:
256,192,203641,1,8,0:0:0:0:
475,192,203724,1,8,0:0:0:0:
36,192,203724,1,0,0:0:0:0:
329,192,203807,1,8,0:0:0:0:
182,192,203807,1,0,0:0:0:0:
475,192,203891,1,8,0:0:0:0:
36,192,203891,1,0,0:0:0:0:
402,192,203974,1,8,0:0:0:0:
109,192,203974,1,0,0:0:0:0:
329,192,204057,1,8,0:0:0:0:
182,192,204057,1,4,3:0:0:0:
256,192,204057,128,4,204391:0:0:0:0:
402,192,204391,1,8,0:0:0:0:
109,192,204391,1,4,3:0:0:0:
475,192,204557,1,8,0:0:0:0:
36,192,204557,1,0,0:0:0:0:
329,192,204641,1,8,0:0:0:0:
182,192,204641,1,0,0:0:0:0:
475,192,204724,128,8,204891:0:0:0:0:
36,192,204724,128,4,204891:3:0:0:0:
329,192,204891,128,4,205057:0:0:0:0:
182,192,204891,128,0,205057:0:0:0:0:
109,192,204891,128,0,205057:0:0:0:0:
402,192,204891,128,8,205057:0:0:0:0:
256,192,205057,1,8,0:0:0:0:
36,192,205224,128,0,205391:0:0:0:0:
475,192,205224,128,8,205391:0:0:0:0:
109,192,205391,1,4,3:0:0:0:
402,192,205391,1,8,0:0:0:0:
182,192,205557,128,0,205641:0:0:0:0:
329,192,205557,128,8,205641:0:0:0:0:
109,192,205641,128,0,205724:0:0:0:0:
402,192,205641,128,8,205724:0:0:0:0:
329,192,205724,1,8,0:0:0:0:
182,192,205724,1,4,3:0:0:0:
475,192,205891,128,4,206057:0:0:0:0:
36,192,205891,128,4,206057:0:0:0:0:
109,192,205891,128,0,206057:0:0:0:0:
402,192,205891,128,8,206057:0:0:0:0:
182,192,206057,128,4,206224:3:0:0:0:
329,192,206057,128,8,206224:0:0:0:0:
475,192,206224,128,4,206391:0:0:0:0:
36,192,206224,128,4,206391:0:0:0:0:
402,192,206224,128,8,206391:0:0:0:0:
109,192,206224,128,0,206391:0:0:0:0:
256,192,206391,128,8,206557:0:0:0:0:
109,192,206557,128,0,206724:0:0:0:0:
402,192,206557,128,8,206724:0:0:0:0:
182,192,206557,128,4,206724:0:0:0:0:
329,192,206557,128,4,206724:0:0:0:0:
475,192,206724,128,8,206891:0:0:0:0:
36,192,206724,128,4,206891:3:0:0:0:
109,192,207057,128,4,207224:3:0:0:0:
402,192,207057,128,8,207224:0:0:0:0:
182,192,207224,1,0,0:0:0:0:
329,192,207224,1,8,0:0:0:0:
402,192,207307,1,8,0:0:0:0:
109,192,207307,1,0,0:0:0:0:
329,192,207391,128,8,207474:0:0:0:0:
182,192,207391,128,4,207474:3:0:0:0:
329,192,207557,128,8,207724:0:0:0:0:
182,192,207557,128,0,207724:0:0:0:0:
182,192,207891,1,0,0:0:0:0:
329,192,207891,1,8,0:0:0:0:
256,192,207974,1,8,0:0:0:0:
475,192,208057,128,8,208224:0:0:0:0:
36,192,208057,128,4,208224:3:0:0:0:
402,192,208224,1,8,0:0:0:0:
109,192,208224,1,0,0:0:0:0:
329,192,208307,1,8,0:0:0:0:
182,192,208307,1,0,0:0:0:0:
256,192,208391,1,8,0:0:0:0:
256,192,208557,1,8,0:0:0:0:
329,192,208724,128,8,208807:0:0:0:0:
182,192,208724,128,4,208807:3:0:0:0:
475,192,208807,128,8,208891:0:0:0:0:
36,192,208807,128,0,208891:0:0:0:0:
329,192,208891,128,8,208974:0:0:0:0:
182,192,208891,128,0,208974:0:0:0:0:
36,192,208974,128,0,209057:0:0:0:0:
475,192,208974,128,8,209057:0:0:0:0:
329,192,209057,128,8,209141:0:0:0:0:
182,192,209057,128,4,209141:3:0:0:0:
36,192,209224,1,8,0:0:0:0:
109,192,209266,1,8,0:0:0:0:
256,192,209307,1,8,0:0:0:0:
402,192,209349,1,8,0:0:0:0:
329,192,209391,128,0,209557:0:0:0:0:
475,192,209391,1,8,0:0:0:0:
182,192,209391,128,4,209557:3:0:0:0:
109,192,209557,1,0,0:0:0:0:
402,192,209557,1,8,0:0:0:0:
475,192,209724,128,8,209891:0:0:0:0:
36,192,209724,128,4,209891:3:0:0:0:
109,192,209891,1,0,0:0:0:0:
402,192,209891,1,8,0:0:0:0:
256,192,209974,1,8,0:0:0:0:
182,192,210057,128,4,210224:3:0:0:0:
329,192,210057,128,8,210224:0:0:0:0:
109,192,210224,128,0,210391:0:0:0:0:
402,192,210224,128,8,210391:0:0:0:0:
256,192,210391,1,8,0:0:0:0:
329,192,210557,128,8,210724:0:0:0:0:
182,192,210557,128,0,210724:0:0:0:0:
36,192,210724,128,4,210891:3:0:0:0:
475,192,210724,128,8,210891:0:0:0:0:
256,192,210891,128,8,210974:0:0:0:0:
109,192,210974,128,0,211057:0:0:0:0:
402,192,210974,128,8,211057:0:0:0:0:
256,192,211057,128,8,211224:0:0:0:0:
182,192,211224,128,0,211391:0:0:0:0:
329,192,211224,128,8,211391:0:0:0:0:
36,192,211391,128,4,211557:3:0:0:0:
475,192,211391,128,8,211557:0:0:0:0:
402,192,211557,128,8,211724:0:0:0:0:
109,192,211557,128,0,211724:0:0:0:0:
182,192,211724,128,4,211891:3:0:0:0:
329,192,211724,128,8,211891:0:0:0:0:
109,192,211891,128,0,212057:0:0:0:0:
402,192,211891,128,8,212057:0:0:0:0:
36,192,212057,1,4,3:0:0:0:
475,192,212057,1,2,0:0:0:0:
109,192,212141,1,0,0:0:0:0:
402,192,212141,1,2,0:0:0:0:
182,192,212224,1,0,0:0:0:0:
329,192,212224,1,2,0:0:0:0:
256,192,212307,1,2,0:0:0:0:
182,192,212391,1,4,3:0:0:0:
329,192,212391,1,2,0:0:0:0:
109,192,212474,1,0,0:0:0:0:
402,192,212474,1,2,0:0:0:0:
36,192,212557,1,0,0:0:0:0:
475,192,212557,1,2,0:0:0:0:
109,192,212641,1,0,0:0:0:0:
402,192,212641,1,2,0:0:0:0:
182,192,212724,1,4,3:0:0:0:
329,192,212724,1,2,0:0:0:0:
256,192,212807,1,2,0:0:0:0:
109,192,212891,128,0,213391:0:0:0:0:
402,192,212891,128,2,213391:0:0:0:0:
256,192,213057,1,4,3:0:0:0:
256,192,213391,1,4,3:0:0:0:
475,192,213557,1,8,0:0:0:0:
182,192,213724,128,2,213807:2:0:0:0:
182,192,213891,128,2,213974:2:0:0:0:
256,192,214057,1,0,0:0:0:0:
109,192,214224,128,0,214391:3:0:0:0:
402,192,214224,128,0,214391:3:0:0:0:
256,192,214391,1,2,2:0:0:0:
