osu file format v13

[General]
AudioFilename: Reol.mp3
AudioLeadIn: 0
PreviewTime: 56000
Countdown: 0
SampleSet: None
StackLeniency: 0.7
Mode: 3
LetterboxInBreaks: 0
SpecialStyle: 0
WidescreenStoryboard: 1

[Editor]
DistanceSpacing: 1
BeatDivisor: 4
GridSize: 4
TimelineZoom: 1.5

[Metadata]
Title:+Danshi
TitleUnicode:+Danshi
Artist:Reol
ArtistUnicode:れをる
Creator:lZenxl
Version:7K NM
Source:
Tags:GigaP neonat Tagre Plus Boy Hinsvar Fort Papcio [I]MMoRTal[S] mike91lau Player_X Soldsaga_KunG Okoratu
BeatmapID:419849
BeatmapSetID:165991

[Difficulty]
HPDrainRate:7
CircleSize:7
OverallDifficulty:7
ApproachRate:5
SliderMultiplier:1.8
SliderTickRate:1

[Events]
//Background and Video events
0,0,"BG.png",0,0
Video,0,"new.avi"
//Break Periods
2,48257,54857
2,102924,110857
//Storyboard Layer 0 (Background)
//Storyboard Layer 1 (Fail)
//Storyboard Layer 2 (Pass)
//Storyboard Layer 3 (Foreground)
//Storyboard Sound Samples
//Background Colour Transformations
3,100,163,162,255

[TimingPoints]
12058,333.333333333333,4,1,1,50,1,0
14724,-100,4,2,1,80,0,0
56891,-100,4,2,1,30,0,0
57057,-100,4,2,1,50,0,0
57224,-100,4,2,1,70,0,0
57391,-100,4,2,1,80,0,1
67391,-100,4,2,1,80,0,0
68057,-100,4,2,1,80,0,1
78724,-100,4,2,1,80,0,0
112891,-100,4,2,1,30,0,0
113057,-100,4,2,1,50,0,0
113224,-100,4,2,1,70,0,0
113391,-100,4,2,1,80,0,1
123391,-100,4,2,1,80,0,0
124057,-100,4,2,1,80,0,1
134724,-100,4,2,1,80,0,0
145391,-100,4,2,1,80,0,1
145412,-100,4,2,1,80,0,0
166724,-100,4,2,1,30,0,0
168557,-100,4,2,1,40,0,0
168724,-100,4,2,1,50,0,0
168891,-100,4,2,1,60,0,0
169057,-100,4,2,1,70,0,0
169224,-100,4,2,1,80,0,0
169391,-100,4,2,1,80,0,1
179391,-100,4,2,1,80,0,0
180057,-100,4,2,1,80,0,1
190724,-100,4,2,1,80,0,0

[HitObjects]
256,192,13391,5,0,0:0:0:0:
256,192,13724,1,0,0:0:0:0:
256,192,14058,1,0,0:0:0:0:
256,192,14224,1,0,0:0:0:0:
109,192,14391,1,0,0:0:0:0:
402,192,14391,1,0,0:0:0:0:
256,192,14724,128,0,15058:0:0:0:0:
329,192,15058,1,0,0:0:0:0:
36,192,15224,1,0,0:0:0:0:
109,192,15308,1,0,0:0:0:0:
182,192,15391,128,0,15558:0:0:0:0:
329,192,15558,1,0,0:0:0:0:
402,192,15891,128,0,16058:0:0:0:0:
109,192,16058,128,0,16224:0:0:0:0:
475,192,16224,1,0,0:0:0:0:
402,192,16308,1,0,0:0:0:0:
329,192,16391,1,0,0:0:0:0:
256,192,16558,128,0,16724:0:0:0:0:
402,192,16724,128,0,16891:0:0:0:0:
329,192,16891,128,0,17058:0:0:0:0:
109,192,17058,128,0,17224:0:0:0:0:
182,192,17224,128,0,17391:0:0:0:0:
256,192,17391,128,0,17724:0:0:0:0:
402,192,17724,128,0,18058:0:0:0:0:
329,192,18058,1,0,0:0:0:0:
256,192,18141,1,0,0:0:0:0:
182,192,18224,1,0,0:0:0:0:
182,192,18558,1,0,0:0:0:0:
256,192,18641,1,0,0:0:0:0:
329,192,18724,1,0,0:0:0:0:
402,192,18891,128,0,19224:0:0:0:0:
329,192,19224,128,0,19391:0:0:0:0:
182,192,19391,1,0,0:0:0:0:
402,192,19474,1,0,0:0:0:0:
109,192,19558,1,0,0:0:0:0:
329,192,19641,1,0,0:0:0:0:
182,192,19724,1,0,0:0:0:0:
109,192,19891,1,0,0:0:0:0:
256,192,19974,1,0,0:0:0:0:
402,192,20058,1,0,0:0:0:0:
256,192,20391,128,0,20558:0:0:0:0:
475,192,20558,1,0,0:0:0:0:
329,192,20641,1,0,0:0:0:0:
475,192,20724,1,0,0:0:0:0:
182,192,20891,1,0,0:0:0:0:
402,192,21224,128,0,21391:0:0:0:0:
256,192,21391,1,0,0:0:0:0:
109,192,21558,1,0,0:0:0:0:
182,192,21641,1,0,0:0:0:0:
256,192,21724,1,0,0:0:0:0:
402,192,21891,1,0,0:0:0:0:
256,192,22058,128,0,22224:0:0:0:0:
109,192,22224,128,0,22391:0:0:0:0:
182,192,22391,128,0,22558:0:0:0:0:
329,192,22558,128,0,22724:0:0:0:0:
402,192,22724,128,0,24057:0:0:0:0:
109,192,23057,128,0,24057:0:0:0:0:
256,192,24057,1,0,0:0:0:0:
256,192,24891,1,0,0:0:0:0:
256,192,25057,1,0,0:0:0:0:
256,192,25224,1,0,0:0:0:0:
109,192,25391,1,0,0:0:0:0:
256,192,25474,1,0,0:0:0:0:
402,192,25557,1,0,0:0:0:0:
329,192,25724,1,0,0:0:0:0:
182,192,25891,1,0,0:0:0:0:
36,192,26057,1,0,0:0:0:0:
109,192,26224,1,0,0:0:0:0:
402,192,26391,1,0,0:0:0:0:
475,192,26557,1,0,0:0:0:0:
109,192,26724,128,0,26891:0:0:0:0:
402,192,26891,128,0,27057:0:0:0:0:
182,192,27057,128,0,27224:0:0:0:0:
329,192,27224,128,0,27391:0:0:0:0:
256,192,27391,1,0,0:0:0:0:
256,192,27557,1,0,0:0:0:0:
256,192,27724,1,0,0:0:0:0:
182,192,27891,128,0,28057:0:0:0:0:
475,192,28057,128,0,28224:0:0:0:0:
182,192,28224,128,0,28391:0:0:0:0:
402,192,28391,128,0,28557:0:0:0:0:
109,192,28557,128,0,28724:0:0:0:0:
329,192,28724,128,0,28891:0:0:0:0:
36,192,28891,128,0,29057:0:0:0:0:
402,192,29057,128,0,29224:0:0:0:0:
109,192,29224,128,0,29391:0:0:0:0:
182,192,29391,128,0,30057:0:0:0:0:
329,192,29391,128,0,30057:0:0:0:0:
256,192,30057,128,0,30391:0:0:0:0:
109,192,30391,128,0,30724:0:0:0:0:
402,192,30391,128,0,30724:0:0:0:0:
329,192,30724,1,0,0:0:0:0:
182,192,30891,1,0,0:0:0:0:
329,192,31057,1,0,0:0:0:0:
182,192,31224,1,0,0:0:0:0:
256,192,31391,1,0,0:0:0:0:
402,192,31557,1,0,0:0:0:0:
109,192,31724,1,0,0:0:0:0:
182,192,31807,1,0,0:0:0:0:
256,192,31891,1,0,0:0:0:0:
329,192,31974,1,0,0:0:0:0:
402,192,32057,1,0,0:0:0:0:
109,192,32224,1,0,0:0:0:0:
402,192,32391,1,0,0:0:0:0:
109,192,32557,1,0,0:0:0:0:
402,192,32724,1,0,0:0:0:0:
329,192,32891,128,0,33057:0:0:0:0:
182,192,33057,1,0,0:0:0:0:
402,192,33224,128,0,33391:0:0:0:0:
109,192,33391,1,0,0:0:0:0:
402,192,33557,128,0,33724:0:0:0:0:
109,192,33724,1,0,0:0:0:0:
402,192,33891,128,0,34057:0:0:0:0:
109,192,34057,1,0,0:0:0:0:
402,192,34224,128,0,34391:0:0:0:0:
36,192,34391,1,0,0:0:0:0:
109,192,34474,1,0,0:0:0:0:
182,192,34557,1,0,0:0:0:0:
36,192,34724,128,0,34891:0:0:0:0:
109,192,34891,128,0,35057:0:0:0:0:
182,192,35057,128,0,35224:0:0:0:0:
256,192,35224,128,0,35391:0:0:0:0:
329,192,35391,128,0,35557:0:0:0:0:
182,192,35557,128,0,35724:0:0:0:0:
402,192,35724,128,0,35891:0:0:0:0:
109,192,35891,1,0,0:0:0:0:
36,192,36057,128,0,36224:0:0:0:0:
182,192,36224,128,0,36391:0:0:0:0:
329,192,36391,128,0,36557:0:0:0:0:
475,192,36557,128,0,36724:0:0:0:0:
329,192,36724,128,0,36891:0:0:0:0:
182,192,36891,128,0,37057:0:0:0:0:
36,192,37057,128,0,37224:0:0:0:0:
475,192,37224,128,0,37391:0:0:0:0:
329,192,37391,1,0,0:0:0:0:
182,192,37557,1,0,0:0:0:0:
329,192,37724,1,0,0:0:0:0:
182,192,37891,1,0,0:0:0:0:
402,192,38057,1,0,0:0:0:0:
109,192,38224,1,0,0:0:0:0:
402,192,38391,1,0,0:0:0:0:
182,192,38557,128,0,38724:0:0:0:0:
329,192,38724,1,0,0:0:0:0:
402,192,38891,1,0,0:0:0:0:
109,192,39057,1,0,0:0:0:0:
256,192,39224,1,0,0:0:0:0:
475,192,39391,1,0,0:0:0:0:
402,192,39557,1,0,0:0:0:0:
329,192,39724,1,0,0:0:0:0:
109,192,39891,1,0,0:0:0:0:
402,192,40057,1,0,0:0:0:0:
329,192,40141,1,0,0:0:0:0:
109,192,40224,1,0,0:0:0:0:
182,192,40307,1,0,0:0:0:0:
402,192,40391,128,0,40557:0:0:0:0:
109,192,40557,128,0,40724:0:0:0:0:
256,192,40724,128,0,41224:0:0:0:0:
402,192,41391,1,0,0:0:0:0:
402,192,41557,1,0,0:0:0:0:
402,192,41891,1,0,0:0:0:0:
182,192,42057,1,0,0:0:0:0:
109,192,42057,1,0,0:0:0:0:
182,192,42224,1,0,0:0:0:0:
109,192,42224,1,0,0:0:0:0:
182,192,42391,1,0,0:0:0:0:
109,192,42391,1,0,0:0:0:0:
182,192,42724,1,0,0:0:0:0:
182,192,42891,1,0,0:0:0:0:
182,192,43224,1,0,0:0:0:0:
402,192,43391,1,0,0:0:0:0:
329,192,43391,1,0,0:0:0:0:
402,192,43557,1,0,0:0:0:0:
329,192,43557,1,0,0:0:0:0:
402,192,43724,1,0,0:0:0:0:
329,192,43724,1,0,0:0:0:0:
36,192,44057,128,0,45391:0:0:0:0:
182,192,44057,128,0,44391:0:0:0:0:
329,192,44391,128,0,44724:0:0:0:0:
182,192,44724,128,0,45057:0:0:0:0:
329,192,45057,128,0,45391:0:0:0:0:
109,192,45391,128,0,45724:0:0:0:0:
402,192,45724,128,0,46057:0:0:0:0:
109,192,46057,128,0,46391:0:0:0:0:
402,192,46391,128,0,46724:0:0:0:0:
182,192,46724,128,0,48057:0:0:0:0:
329,192,46724,128,0,48057:0:0:0:0:
256,192,56057,5,0,0:0:0:0:
109,192,56891,5,0,0:0:0:0:
402,192,56891,1,0,0:0:0:0:
109,192,57057,1,0,0:0:0:0:
402,192,57057,1,0,0:0:0:0:
109,192,57224,1,0,0:0:0:0:
402,192,57224,1,0,0:0:0:0:
109,192,57391,128,0,57724:0:0:0:0:
402,192,57391,128,0,57724:0:0:0:0:
256,192,57724,1,0,0:0:0:0:
256,192,57891,1,0,0:0:0:0:
109,192,58057,128,0,58391:0:0:0:0:
402,192,58057,128,0,58391:0:0:0:0:
256,192,58391,1,0,0:0:0:0:
256,192,58557,1,0,0:0:0:0:
109,192,58724,128,0,59057:0:0:0:0:
402,192,58724,128,0,59057:0:0:0:0:
256,192,59057,1,0,0:0:0:0:
256,192,59224,1,0,0:0:0:0:
329,192,59391,1,0,0:0:0:0:
182,192,59557,1,0,0:0:0:0:
329,192,59724,1,0,0:0:0:0:
182,192,59891,1,0,0:0:0:0:
36,192,60057,1,0,0:0:0:0:
109,192,60224,1,0,0:0:0:0:
182,192,60391,1,0,0:0:0:0:
329,192,60557,1,0,0:0:0:0:
402,192,60641,1,0,0:0:0:0:
475,192,60724,128,0,60891:0:0:0:0:
256,192,60891,128,0,61057:0:0:0:0:
36,192,61057,128,0,61224:0:0:0:0:
256,192,61224,128,0,61557:0:0:0:0:
402,192,61557,128,0,61724:0:0:0:0:
109,192,61724,128,0,61891:0:0:0:0:
402,192,61891,128,0,62057:0:0:0:0:
109,192,62057,128,0,62224:0:0:0:0:
256,192,62224,1,0,0:0:0:0:
256,192,62391,1,0,0:0:0:0:
256,192,62557,1,0,0:0:0:0:
402,192,62724,128,0,62891:0:0:0:0:
329,192,62724,128,0,62891:0:0:0:0:
182,192,62891,128,0,63057:0:0:0:0:
109,192,62891,128,0,63057:0:0:0:0:
402,192,63057,128,0,63224:0:0:0:0:
329,192,63057,128,0,63224:0:0:0:0:
182,192,63224,128,0,63391:0:0:0:0:
109,192,63224,128,0,63391:0:0:0:0:
329,192,63391,128,0,63557:0:0:0:0:
402,192,63391,128,0,63557:0:0:0:0:
182,192,63557,128,0,63724:0:0:0:0:
109,192,63557,128,0,63724:0:0:0:0:
402,192,63724,128,0,63891:0:0:0:0:
329,192,63724,128,0,63891:0:0:0:0:
182,192,63891,128,0,64057:0:0:0:0:
109,192,63891,128,0,64057:0:0:0:0:
329,192,64057,128,0,64224:0:0:0:0:
402,192,64057,128,0,64224:0:0:0:0:
182,192,64224,128,0,64557:0:0:0:0:
109,192,64224,128,0,64557:0:0:0:0:
329,192,64557,128,0,64891:0:0:0:0:
402,192,64557,128,0,64891:0:0:0:0:
36,192,64891,1,0,0:0:0:0:
109,192,65057,1,0,0:0:0:0:
182,192,65224,1,0,0:0:0:0:
475,192,65391,1,0,0:0:0:0:
402,192,65557,1,0,0:0:0:0:
329,192,65724,1,0,0:0:0:0:
36,192,65891,1,0,0:0:0:0:
109,192,66057,1,0,0:0:0:0:
182,192,66224,1,0,0:0:0:0:
475,192,66391,1,0,0:0:0:0:
402,192,66557,1,0,0:0:0:0:
329,192,66724,1,0,0:0:0:0:
36,192,66891,1,0,0:0:0:0:
109,192,67057,1,0,0:0:0:0:
182,192,67224,1,0,0:0:0:0:
256,192,67391,1,0,0:0:0:0:
475,192,67724,1,0,0:0:0:0:
36,192,67724,1,0,0:0:0:0:
402,192,68057,128,0,68391:0:0:0:0:
329,192,68057,128,0,68391:0:0:0:0:
182,192,68391,128,0,68557:0:0:0:0:
109,192,68391,128,0,68557:0:0:0:0:
402,192,68557,128,0,68891:0:0:0:0:
329,192,68557,128,0,68891:0:0:0:0:
256,192,68891,1,0,0:0:0:0:
256,192,69057,1,0,0:0:0:0:
256,192,69224,1,0,0:0:0:0:
109,192,69391,128,0,69725:0:0:0:0:
182,192,69391,128,0,69725:0:0:0:0:
329,192,69724,128,0,69891:0:0:0:0:
402,192,69724,128,0,69891:0:0:0:0:
182,192,69891,128,0,70224:0:0:0:0:
109,192,69891,128,0,70224:0:0:0:0:
256,192,70224,1,0,0:0:0:0:
256,192,70391,1,0,0:0:0:0:
256,192,70557,1,0,0:0:0:0:
329,192,70724,128,0,71057:0:0:0:0:
402,192,70724,128,0,71057:0:0:0:0:
109,192,71057,128,0,71224:0:0:0:0:
182,192,71057,128,0,71224:0:0:0:0:
402,192,71224,128,0,71557:0:0:0:0:
329,192,71224,128,0,71557:0:0:0:0:
256,192,71558,1,0,0:0:0:0:
256,192,71724,1,0,0:0:0:0:
256,192,71891,1,0,0:0:0:0:
36,192,72057,1,0,0:0:0:0:
182,192,72224,1,0,0:0:0:0:
329,192,72391,1,0,0:0:0:0:
475,192,72557,1,0,0:0:0:0:
256,192,72724,1,0,0:0:0:0:
109,192,73057,128,0,73391:0:0:0:0:
402,192,73057,128,0,73391:0:0:0:0:
329,192,73391,128,0,73724:0:0:0:0:
182,192,73391,128,0,73724:0:0:0:0:
256,192,73724,1,0,0:0:0:0:
256,192,73891,1,0,0:0:0:0:
329,192,74057,128,0,74391:0:0:0:0:
182,192,74057,128,0,74391:0:0:0:0:
256,192,74391,1,0,0:0:0:0:
256,192,74557,1,0,0:0:0:0:
329,192,74724,128,0,75057:0:0:0:0:
182,192,74724,128,0,75057:0:0:0:0:
256,192,75057,1,0,0:0:0:0:
256,192,75224,1,0,0:0:0:0:
475,192,75391,1,0,0:0:0:0:
329,192,75557,1,0,0:0:0:0:
182,192,75724,1,0,0:0:0:0:
36,192,75891,1,0,0:0:0:0:
256,192,76057,1,0,0:0:0:0:
402,192,76224,1,0,0:0:0:0:
256,192,76391,1,0,0:0:0:0:
109,192,76557,1,0,0:0:0:0:
256,192,76724,1,0,0:0:0:0:
256,192,76891,1,0,0:0:0:0:
475,192,77057,1,0,0:0:0:0:
256,192,77224,128,0,77557:0:0:0:0:
402,192,77557,1,0,0:0:0:0:
256,192,77724,1,0,0:0:0:0:
109,192,77891,1,0,0:0:0:0:
256,192,78057,1,0,0:0:0:0:
402,192,78224,1,0,0:0:0:0:
256,192,78391,1,0,0:0:0:0:
109,192,78557,1,0,0:0:0:0:
256,192,78724,1,0,0:0:0:0:
256,192,79057,1,0,0:0:0:0:
256,192,79391,1,0,0:0:0:0:
256,192,79557,1,0,0:0:0:0:
256,192,79724,1,0,0:0:0:0:
256,192,80057,1,0,0:0:0:0:
182,192,80224,1,0,0:0:0:0:
329,192,80307,1,0,0:0:0:0:
182,192,80391,1,0,0:0:0:0:
329,192,80557,1,0,0:0:0:0:
182,192,80724,1,0,0:0:0:0:
402,192,80891,1,0,0:0:0:0:
109,192,81057,1,0,0:0:0:0:
402,192,81224,1,0,0:0:0:0:
109,192,81391,1,0,0:0:0:0:
475,192,81557,1,0,0:0:0:0:
402,192,81641,1,0,0:0:0:0:
329,192,81724,1,0,0:0:0:0:
182,192,81891,1,0,0:0:0:0:
402,192,82057,1,0,0:0:0:0:
256,192,82224,1,0,0:0:0:0:
109,192,82391,1,0,0:0:0:0:
182,192,82474,1,0,0:0:0:0:
256,192,82557,1,0,0:0:0:0:
329,192,82641,1,0,0:0:0:0:
402,192,82724,128,0,83057:0:0:0:0:
109,192,83057,128,0,83391:0:0:0:0:
329,192,83391,128,0,83724:0:0:0:0:
182,192,83724,128,0,84057:0:0:0:0:
256,192,84057,1,0,0:0:0:0:
475,192,84224,1,0,0:0:0:0:
402,192,84307,1,0,0:0:0:0:
329,192,84391,1,0,0:0:0:0:
109,192,84557,1,0,0:0:0:0:
182,192,84641,1,0,0:0:0:0:
402,192,84724,1,0,0:0:0:0:
329,192,84807,1,0,0:0:0:0:
109,192,84891,1,0,0:0:0:0:
182,192,84974,1,0,0:0:0:0:
402,192,85057,1,0,0:0:0:0:
256,192,85224,1,0,0:0:0:0:
329,192,85391,1,0,0:0:0:0:
182,192,85474,1,0,0:0:0:0:
402,192,85557,1,0,0:0:0:0:
109,192,85641,1,0,0:0:0:0:
329,192,85724,1,0,0:0:0:0:
182,192,85807,1,0,0:0:0:0:
402,192,85891,1,0,0:0:0:0:
109,192,85974,1,0,0:0:0:0:
329,192,86057,128,0,86224:0:0:0:0:
182,192,86224,128,0,86391:0:0:0:0:
256,192,86391,128,0,86724:0:0:0:0:
329,192,86724,1,0,0:0:0:0:
182,192,86891,1,0,0:0:0:0:
402,192,87057,1,0,0:0:0:0:
109,192,87224,1,0,0:0:0:0:
475,192,87391,1,0,0:0:0:0:
402,192,87474,1,0,0:0:0:0:
329,192,87557,1,0,0:0:0:0:
36,192,87724,1,0,0:0:0:0:
109,192,87807,1,0,0:0:0:0:
182,192,87891,1,0,0:0:0:0:
402,192,88057,1,0,0:0:0:0:
329,192,88141,1,0,0:0:0:0:
182,192,88307,1,0,0:0:0:0:
109,192,88391,1,0,0:0:0:0:
256,192,88557,1,0,0:0:0:0:
402,192,88724,1,0,0:0:0:0:
256,192,88891,1,0,0:0:0:0:
36,192,89057,1,0,0:0:0:0:
256,192,89224,1,0,0:0:0:0:
475,192,89391,1,0,0:0:0:0:
329,192,89474,1,0,0:0:0:0:
182,192,89641,1,0,0:0:0:0:
36,192,89724,1,0,0:0:0:0:
182,192,89891,1,0,0:0:0:0:
256,192,90057,128,0,90724:0:0:0:0:
402,192,90724,1,0,0:0:0:0:
109,192,90891,1,0,0:0:0:0:
402,192,91057,1,0,0:0:0:0:
109,192,91224,1,0,0:0:0:0:
402,192,91391,128,0,91724:0:0:0:0:
109,192,91724,128,0,92057:0:0:0:0:
402,192,92057,1,0,0:0:0:0:
402,192,92224,1,0,0:0:0:0:
329,192,92307,1,0,0:0:0:0:
109,192,92474,1,0,0:0:0:0:
182,192,92557,1,0,0:0:0:0:
402,192,92724,1,0,0:0:0:0:
402,192,92891,1,0,0:0:0:0:
256,192,93057,1,0,0:0:0:0:
256,192,93224,1,0,0:0:0:0:
109,192,93391,1,0,0:0:0:0:
182,192,93474,1,0,0:0:0:0:
402,192,93557,1,0,0:0:0:0:
329,192,93641,1,0,0:0:0:0:
109,192,93724,1,0,0:0:0:0:
182,192,93891,1,0,0:0:0:0:
402,192,94057,1,0,0:0:0:0:
329,192,94224,1,0,0:0:0:0:
256,192,94391,1,0,0:0:0:0:
256,192,94557,1,0,0:0:0:0:
36,192,94724,1,0,0:0:0:0:
182,192,94891,1,0,0:0:0:0:
475,192,95057,1,0,0:0:0:0:
402,192,95141,1,0,0:0:0:0:
329,192,95307,1,0,0:0:0:0:
36,192,95391,1,0,0:0:0:0:
182,192,95557,1,0,0:0:0:0:
329,192,95724,1,0,0:0:0:0:
475,192,95891,1,0,0:0:0:0:
109,192,96057,1,0,0:0:0:0:
256,192,96224,1,0,0:0:0:0:
402,192,96391,1,0,0:0:0:0:
36,192,96724,1,0,0:0:0:0:
109,192,96807,1,0,0:0:0:0:
182,192,96891,1,0,0:0:0:0:
402,192,97057,1,0,0:0:0:0:
256,192,97391,1,0,0:0:0:0:
256,192,97557,1,0,0:0:0:0:
329,192,97724,1,0,0:0:0:0:
402,192,97891,1,0,0:0:0:0:
329,192,97974,1,0,0:0:0:0:
329,192,98224,1,0,0:0:0:0:
109,192,98391,1,0,0:0:0:0:
109,192,98557,1,0,0:0:0:0:
256,192,98724,1,0,0:0:0:0:
475,192,98891,1,0,0:0:0:0:
402,192,98974,1,0,0:0:0:0:
329,192,99057,1,0,0:0:0:0:
36,192,99224,1,0,0:0:0:0:
109,192,99391,1,0,0:0:0:0:
182,192,99557,1,0,0:0:0:0:
256,192,99724,1,0,0:0:0:0:
402,192,99891,1,0,0:0:0:0:
36,192,100057,1,0,0:0:0:0:
109,192,100141,1,0,0:0:0:0:
182,192,100224,1,0,0:0:0:0:
402,192,100391,128,0,100557:0:0:0:0:
256,192,100557,128,0,100724:0:0:0:0:
109,192,100724,1,0,0:0:0:0:
475,192,100891,1,0,0:0:0:0:
402,192,100974,1,0,0:0:0:0:
329,192,101057,1,0,0:0:0:0:
475,192,101391,1,0,0:0:0:0:
329,192,101724,1,0,0:0:0:0:
182,192,102057,1,0,0:0:0:0:
36,192,102391,1,0,0:0:0:0:
256,192,102724,1,0,0:0:0:0:
256,192,112057,5,0,0:0:0:0:
256,192,112891,1,0,0:0:0:0:
256,192,113057,1,0,0:0:0:0:
256,192,113224,1,0,0:0:0:0:
256,192,113391,128,0,113724:0:0:0:0:
402,192,113724,128,0,113891:0:0:0:0:
109,192,113891,128,0,114057:0:0:0:0:
402,192,114057,128,0,114391:0:0:0:0:
182,192,114391,128,0,114557:0:0:0:0:
329,192,114557,128,0,114724:0:0:0:0:
182,192,114724,128,0,115057:0:0:0:0:
256,192,115057,128,0,115224:0:0:0:0:
329,192,115224,128,0,115391:0:0:0:0:
402,192,115391,128,0,115557:0:0:0:0:
109,192,115557,128,0,115724:0:0:0:0:
182,192,115724,128,0,115891:0:0:0:0:
256,192,115891,128,0,116057:0:0:0:0:
329,192,116057,1,0,0:0:0:0:
329,192,116224,1,0,0:0:0:0:
329,192,116391,1,0,0:0:0:0:
36,192,116557,1,0,0:0:0:0:
109,192,116641,1,0,0:0:0:0:
182,192,116724,1,0,0:0:0:0:
475,192,116891,1,0,0:0:0:0:
402,192,116974,1,0,0:0:0:0:
329,192,117057,1,0,0:0:0:0:
256,192,117224,128,0,117557:0:0:0:0:
109,192,117557,128,0,117724:0:0:0:0:
402,192,117724,128,0,117891:0:0:0:0:
109,192,117891,128,0,118057:0:0:0:0:
256,192,118057,128,0,118391:0:0:0:0:
475,192,118391,128,0,118557:0:0:0:0:
36,192,118557,128,0,118724:0:0:0:0:
402,192,118724,128,0,118891:0:0:0:0:
329,192,118724,128,0,118891:0:0:0:0:
182,192,118891,128,0,119057:0:0:0:0:
109,192,118891,128,0,119057:0:0:0:0:
329,192,119057,128,0,119224:0:0:0:0:
402,192,119057,128,0,119224:0:0:0:0:
182,192,119224,128,0,119391:0:0:0:0:
109,192,119224,128,0,119391:0:0:0:0:
329,192,119391,128,0,119557:0:0:0:0:
402,192,119391,128,0,119557:0:0:0:0:
182,192,119557,128,0,119724:0:0:0:0:
109,192,119557,128,0,119724:0:0:0:0:
329,192,119724,128,0,119891:0:0:0:0:
402,192,119724,128,0,119891:0:0:0:0:
182,192,119891,128,0,120057:0:0:0:0:
109,192,119891,128,0,120057:0:0:0:0:
402,192,120057,128,0,120224:0:0:0:0:
329,192,120057,128,0,120224:0:0:0:0:
182,192,120224,128,0,120557:0:0:0:0:
109,192,120224,128,0,120557:0:0:0:0:
402,192,120557,128,0,120891:0:0:0:0:
329,192,120557,128,0,120891:0:0:0:0:
256,192,120891,128,0,121057:0:0:0:0:
182,192,121057,128,0,121224:0:0:0:0:
109,192,121224,128,0,121391:0:0:0:0:
402,192,121391,1,0,0:0:0:0:
329,192,121557,1,0,0:0:0:0:
256,192,121724,1,0,0:0:0:0:
109,192,121891,1,0,0:0:0:0:
182,192,122057,1,0,0:0:0:0:
256,192,122224,1,0,0:0:0:0:
402,192,122391,1,0,0:0:0:0:
329,192,122557,1,0,0:0:0:0:
256,192,122724,1,0,0:0:0:0:
109,192,122891,1,0,0:0:0:0:
256,192,123057,1,0,0:0:0:0:
402,192,123224,1,0,0:0:0:0:
256,192,123391,1,0,0:0:0:0:
256,192,123724,1,0,0:0:0:0:
475,192,124057,128,0,124391:0:0:0:0:
329,192,124057,128,0,124391:0:0:0:0:
182,192,124391,128,0,124557:0:0:0:0:
36,192,124391,128,0,124557:0:0:0:0:
329,192,124557,128,0,124891:0:0:0:0:
475,192,124557,128,0,124891:0:0:0:0:
256,192,124891,1,0,0:0:0:0:
256,192,125057,1,0,0:0:0:0:
256,192,125224,1,0,0:0:0:0:
36,192,125391,128,0,125725:0:0:0:0:
182,192,125391,128,0,125725:0:0:0:0:
329,192,125725,128,0,125891:0:0:0:0:
475,192,125725,128,0,125891:0:0:0:0:
182,192,125891,128,0,126225:0:0:0:0:
36,192,125891,128,0,126225:0:0:0:0:
256,192,126225,1,0,0:0:0:0:
256,192,126391,1,0,0:0:0:0:
256,192,126558,1,0,0:0:0:0:
329,192,126724,128,0,127058:0:0:0:0:
475,192,126724,128,0,127058:0:0:0:0:
36,192,127058,128,0,127224:0:0:0:0:
182,192,127058,128,0,127224:0:0:0:0:
475,192,127224,128,0,127558:0:0:0:0:
329,192,127224,128,0,127558:0:0:0:0:
256,192,127558,1,0,0:0:0:0:
256,192,127724,1,0,0:0:0:0:
256,192,127891,1,0,0:0:0:0:
109,192,128057,128,0,128224:0:0:0:0:
402,192,128224,128,0,128391:0:0:0:0:
109,192,128391,128,0,128557:0:0:0:0:
402,192,128557,128,0,128724:0:0:0:0:
109,192,128724,128,0,129057:0:0:0:0:
256,192,129057,128,0,129391:0:0:0:0:
109,192,129391,1,0,0:0:0:0:
402,192,129391,1,0,0:0:0:0:
402,192,129724,1,0,0:0:0:0:
109,192,129724,1,0,0:0:0:0:
109,192,129891,1,0,0:0:0:0:
402,192,129891,1,0,0:0:0:0:
402,192,130057,1,0,0:0:0:0:
109,192,130057,1,0,0:0:0:0:
182,192,130391,1,0,0:0:0:0:
329,192,130391,1,0,0:0:0:0:
182,192,130557,1,0,0:0:0:0:
329,192,130557,1,0,0:0:0:0:
182,192,130724,1,0,0:0:0:0:
329,192,130724,1,0,0:0:0:0:
109,192,131057,1,0,0:0:0:0:
402,192,131057,1,0,0:0:0:0:
109,192,131224,1,0,0:0:0:0:
402,192,131224,1,0,0:0:0:0:
109,192,131391,1,0,0:0:0:0:
402,192,131391,1,0,0:0:0:0:
256,192,131557,1,0,0:0:0:0:
256,192,131724,1,0,0:0:0:0:
109,192,132057,1,0,0:0:0:0:
402,192,132224,1,0,0:0:0:0:
109,192,132391,1,0,0:0:0:0:
402,192,132557,1,0,0:0:0:0:
109,192,132724,1,0,0:0:0:0:
182,192,132891,1,0,0:0:0:0:
402,192,133057,1,0,0:0:0:0:
329,192,133224,128,0,133557:0:0:0:0:
36,192,133557,128,0,133724:0:0:0:0:
109,192,133724,128,0,133891:0:0:0:0:
182,192,133891,128,0,134057:0:0:0:0:
256,192,134057,128,0,134224:0:0:0:0:
329,192,134224,128,0,134391:0:0:0:0:
402,192,134391,128,0,134557:0:0:0:0:
475,192,134557,128,0,134724:0:0:0:0:
256,192,134724,1,0,0:0:0:0:
256,192,135391,1,0,0:0:0:0:
256,192,136057,1,0,0:0:0:0:
256,192,136391,1,0,0:0:0:0:
256,192,136724,1,0,0:0:0:0:
256,192,137391,1,0,0:0:0:0:
256,192,138057,1,0,0:0:0:0:
256,192,138724,1,0,0:0:0:0:
256,192,139057,1,0,0:0:0:0:
256,192,139391,1,0,0:0:0:0:
256,192,139724,1,0,0:0:0:0:
109,192,140057,1,0,0:0:0:0:
402,192,140057,1,0,0:0:0:0:
256,192,140724,1,0,0:0:0:0:
256,192,141391,1,0,0:0:0:0:
256,192,141724,1,0,0:0:0:0:
256,192,142057,1,0,0:0:0:0:
256,192,142724,1,0,0:0:0:0:
256,192,143391,1,0,0:0:0:0:
256,192,144057,1,0,0:0:0:0:
256,192,144391,1,0,0:0:0:0:
256,192,144724,1,0,0:0:0:0:
402,192,145057,1,0,0:0:0:0:
109,192,145057,1,0,0:0:0:0:
36,192,145391,128,0,145724:0:0:0:0:
475,192,145391,128,0,145724:0:0:0:0:
256,192,146057,1,0,0:0:0:0:
256,192,146391,1,0,0:0:0:0:
475,192,146724,128,0,147057:0:0:0:0:
36,192,146724,128,0,147057:0:0:0:0:
402,192,147224,1,0,0:0:0:0:
256,192,147307,1,0,0:0:0:0:
109,192,147391,1,0,0:0:0:0:
256,192,147557,1,0,0:0:0:0:
256,192,147891,128,0,148057:0:0:0:0:
109,192,148057,128,0,148391:0:0:0:0:
402,192,148057,128,0,148391:0:0:0:0:
256,192,148724,1,0,0:0:0:0:
256,192,149057,1,0,0:0:0:0:
329,192,149391,128,0,149724:0:0:0:0:
182,192,149391,128,0,149724:0:0:0:0:
36,192,149891,128,0,150391:0:0:0:0:
475,192,149891,128,0,150391:0:0:0:0:
256,192,150391,1,0,0:0:0:0:
256,192,150557,1,0,0:0:0:0:
256,192,150724,1,0,0:0:0:0:
256,192,150891,1,0,0:0:0:0:
402,192,151391,1,0,0:0:0:0:
109,192,151391,1,0,0:0:0:0:
109,192,151724,1,0,0:0:0:0:
402,192,151724,1,0,0:0:0:0:
329,192,152057,128,0,152391:0:0:0:0:
182,192,152057,128,0,152391:0:0:0:0:
182,192,152724,128,0,153057:0:0:0:0:
329,192,152724,128,0,153057:0:0:0:0:
329,192,153391,1,0,0:0:0:0:
182,192,153391,1,0,0:0:0:0:
109,192,153724,1,0,0:0:0:0:
402,192,153724,1,0,0:0:0:0:
256,192,154057,1,0,0:0:0:0:
256,192,154391,1,0,0:0:0:0:
329,192,154724,1,0,0:0:0:0:
182,192,154891,1,0,0:0:0:0:
329,192,155057,1,0,0:0:0:0:
182,192,155224,1,0,0:0:0:0:
329,192,155391,1,0,0:0:0:0:
256,192,155724,1,0,0:0:0:0:
402,192,156057,1,0,0:0:0:0:
109,192,156224,1,0,0:0:0:0:
182,192,156307,1,0,0:0:0:0:
402,192,156391,1,0,0:0:0:0:
329,192,156474,1,0,0:0:0:0:
109,192,156557,1,0,0:0:0:0:
182,192,156641,1,0,0:0:0:0:
402,192,156724,1,0,0:0:0:0:
256,192,156891,1,0,0:0:0:0:
36,192,157057,1,0,0:0:0:0:
256,192,157224,1,0,0:0:0:0:
475,192,157391,1,0,0:0:0:0:
329,192,157557,1,0,0:0:0:0:
182,192,157724,1,0,0:0:0:0:
36,192,157891,1,0,0:0:0:0:
256,192,158057,1,0,0:0:0:0:
109,192,158391,1,0,0:0:0:0:
402,192,158391,1,0,0:0:0:0:
36,192,158724,128,0,159057:0:0:0:0:
182,192,159057,128,0,159391:0:0:0:0:
329,192,159391,128,0,159724:0:0:0:0:
475,192,159724,128,0,160057:0:0:0:0:
36,192,160057,1,0,0:0:0:0:
109,192,160224,1,0,0:0:0:0:
256,192,160391,1,0,0:0:0:0:
402,192,160557,1,0,0:0:0:0:
475,192,160724,1,0,0:0:0:0:
329,192,161057,1,0,0:0:0:0:
109,192,161391,1,0,0:0:0:0:
182,192,161557,1,0,0:0:0:0:
256,192,161724,1,0,0:0:0:0:
329,192,161891,1,0,0:0:0:0:
475,192,162057,128,0,162391:0:0:0:0:
402,192,162391,1,0,0:0:0:0:
329,192,162557,1,0,0:0:0:0:
36,192,162724,1,0,0:0:0:0:
109,192,162891,1,0,0:0:0:0:
182,192,163057,1,0,0:0:0:0:
256,192,163224,1,0,0:0:0:0:
475,192,163391,1,0,0:0:0:0:
402,192,163557,1,0,0:0:0:0:
329,192,163724,1,0,0:0:0:0:
109,192,164057,128,0,164391:0:0:0:0:
402,192,164391,128,0,164724:0:0:0:0:
109,192,164724,1,0,0:0:0:0:
256,192,164891,1,0,0:0:0:0:
402,192,165057,1,0,0:0:0:0:
109,192,165391,1,0,0:0:0:0:
402,192,165391,1,0,0:0:0:0:
329,192,165724,1,0,0:0:0:0:
182,192,165724,1,0,0:0:0:0:
36,192,166057,1,0,0:0:0:0:
475,192,166057,1,0,0:0:0:0:
182,192,166391,1,0,0:0:0:0:
329,192,166391,1,0,0:0:0:0:
402,192,166724,1,0,0:0:0:0:
109,192,167057,1,0,0:0:0:0:
475,192,167391,1,0,0:0:0:0:
256,192,167724,128,0,169391:0:0:0:0:
402,192,169391,1,0,0:0:0:0:
109,192,169391,1,0,0:0:0:0:
329,192,169724,1,0,0:0:0:0:
182,192,169724,1,0,0:0:0:0:
182,192,169891,1,0,0:0:0:0:
329,192,169891,1,0,0:0:0:0:
182,192,170057,1,0,0:0:0:0:
329,192,170057,1,0,0:0:0:0:
109,192,170391,1,0,0:0:0:0:
402,192,170391,1,0,0:0:0:0:
109,192,170557,1,0,0:0:0:0:
402,192,170557,1,0,0:0:0:0:
109,192,170724,1,0,0:0:0:0:
402,192,170724,1,0,0:0:0:0:
182,192,171057,1,0,0:0:0:0:
329,192,171224,1,0,0:0:0:0:
182,192,171391,1,0,0:0:0:0:
329,192,171557,1,0,0:0:0:0:
182,192,171724,1,0,0:0:0:0:
329,192,171891,1,0,0:0:0:0:
256,192,172057,1,0,0:0:0:0:
256,192,172224,1,0,0:0:0:0:
109,192,172391,1,0,0:0:0:0:
402,192,172391,1,0,0:0:0:0:
329,192,172557,1,0,0:0:0:0:
256,192,172641,1,0,0:0:0:0:
182,192,172724,1,0,0:0:0:0:
256,192,172891,1,0,0:0:0:0:
329,192,173057,1,0,0:0:0:0:
256,192,173224,128,0,173557:0:0:0:0:
402,192,173557,128,0,173724:0:0:0:0:
109,192,173724,128,0,173891:0:0:0:0:
402,192,173891,128,0,174057:0:0:0:0:
109,192,174057,128,0,174224:0:0:0:0:
402,192,174224,1,0,0:0:0:0:
256,192,174391,1,0,0:0:0:0:
109,192,174557,1,0,0:0:0:0:
402,192,174724,1,0,0:0:0:0:
329,192,174724,1,0,0:0:0:0:
109,192,174891,1,0,0:0:0:0:
182,192,174891,1,0,0:0:0:0:
402,192,175057,1,0,0:0:0:0:
329,192,175057,1,0,0:0:0:0:
109,192,175224,1,0,0:0:0:0:
182,192,175224,1,0,0:0:0:0:
402,192,175391,1,0,0:0:0:0:
329,192,175391,1,0,0:0:0:0:
109,192,175557,1,0,0:0:0:0:
182,192,175557,1,0,0:0:0:0:
402,192,175724,1,0,0:0:0:0:
329,192,175724,1,0,0:0:0:0:
182,192,175891,1,0,0:0:0:0:
109,192,175891,1,0,0:0:0:0:
256,192,176057,128,0,176224:0:0:0:0:
329,192,176224,128,0,176557:0:0:0:0:
402,192,176557,128,0,176891:0:0:0:0:
109,192,176891,1,0,0:0:0:0:
182,192,177057,1,0,0:0:0:0:
256,192,177224,1,0,0:0:0:0:
475,192,177391,1,0,0:0:0:0:
256,192,177557,1,0,0:0:0:0:
36,192,177724,1,0,0:0:0:0:
475,192,177891,1,0,0:0:0:0:
256,192,178057,1,0,0:0:0:0:
36,192,178224,1,0,0:0:0:0:
475,192,178391,1,0,0:0:0:0:
256,192,178557,1,0,0:0:0:0:
36,192,178724,1,0,0:0:0:0:
475,192,178891,1,0,0:0:0:0:
256,192,179057,1,0,0:0:0:0:
36,192,179224,1,0,0:0:0:0:
402,192,179391,1,0,0:0:0:0:
109,192,179391,1,0,0:0:0:0:
109,192,179724,1,0,0:0:0:0:
402,192,179724,1,0,0:0:0:0:
329,192,180057,1,0,0:0:0:0:
182,192,180057,1,0,0:0:0:0:
329,192,180391,1,0,0:0:0:0:
182,192,180391,1,0,0:0:0:0:
329,192,180557,1,0,0:0:0:0:
182,192,180557,1,0,0:0:0:0:
329,192,180891,1,0,0:0:0:0:
182,192,180891,1,0,0:0:0:0:
329,192,181057,1,0,0:0:0:0:
182,192,181057,1,0,0:0:0:0:
329,192,181224,1,0,0:0:0:0:
182,192,181224,1,0,0:0:0:0:
402,192,181391,1,0,0:0:0:0:
109,192,181391,1,0,0:0:0:0:
402,192,181724,1,0,0:0:0:0:
109,192,181724,1,0,0:0:0:0:
402,192,181891,1,0,0:0:0:0:
109,192,181891,1,0,0:0:0:0:
402,192,182224,1,0,0:0:0:0:
109,192,182224,1,0,0:0:0:0:
402,192,182391,1,0,0:0:0:0:
109,192,182391,1,0,0:0:0:0:
402,192,182557,1,0,0:0:0:0:
109,192,182557,1,0,0:0:0:0:
329,192,182724,1,0,0:0:0:0:
182,192,182724,1,0,0:0:0:0:
329,192,183057,1,0,0:0:0:0:
182,192,183057,1,0,0:0:0:0:
329,192,183224,1,0,0:0:0:0:
182,192,183224,1,0,0:0:0:0:
329,192,183557,1,0,0:0:0:0:
182,192,183557,1,0,0:0:0:0:
329,192,183724,1,0,0:0:0:0:
182,192,183724,1,0,0:0:0:0:
329,192,183891,1,0,0:0:0:0:
182,192,183891,1,0,0:0:0:0:
36,192,184057,1,0,0:0:0:0:
182,192,184224,1,0,0:0:0:0:
329,192,184391,1,0,0:0:0:0:
475,192,184557,1,0,0:0:0:0:
256,192,184724,1,0,0:0:0:0:
402,192,185057,128,0,185391:0:0:0:0:
109,192,185057,128,0,185391:0:0:0:0:
256,192,185391,1,0,0:0:0:0:
329,192,185724,1,0,0:0:0:0:
182,192,185724,1,0,0:0:0:0:
182,192,185891,1,0,0:0:0:0:
329,192,185891,1,0,0:0:0:0:
109,192,186057,1,0,0:0:0:0:
402,192,186057,1,0,0:0:0:0:
182,192,186391,1,0,0:0:0:0:
329,192,186391,1,0,0:0:0:0:
182,192,186557,1,0,0:0:0:0:
329,192,186557,1,0,0:0:0:0:
36,192,186724,1,0,0:0:0:0:
475,192,186724,1,0,0:0:0:0:
182,192,187057,1,0,0:0:0:0:
329,192,187057,1,0,0:0:0:0:
182,192,187224,1,0,0:0:0:0:
329,192,187224,1,0,0:0:0:0:
109,192,187391,1,0,0:0:0:0:
402,192,187391,1,0,0:0:0:0:
109,192,187557,1,0,0:0:0:0:
402,192,187557,1,0,0:0:0:0:
329,192,187724,1,0,0:0:0:0:
182,192,187724,1,0,0:0:0:0:
329,192,187891,1,0,0:0:0:0:
182,192,187891,1,0,0:0:0:0:
109,192,188057,1,0,0:0:0:0:
402,192,188224,1,0,0:0:0:0:
109,192,188391,1,0,0:0:0:0:
402,192,188557,1,0,0:0:0:0:
109,192,188724,1,0,0:0:0:0:
109,192,188891,1,0,0:0:0:0:
256,192,189057,128,0,189224:0:0:0:0:
402,192,189224,128,0,189557:0:0:0:0:
329,192,189557,1,0,0:0:0:0:
256,192,189724,1,0,0:0:0:0:
182,192,189891,1,0,0:0:0:0:
402,192,190057,1,0,0:0:0:0:
256,192,190224,1,0,0:0:0:0:
109,192,190391,1,0,0:0:0:0:
256,192,190557,1,0,0:0:0:0:
109,192,190724,1,0,0:0:0:0:
402,192,190724,1,0,0:0:0:0:
109,192,191057,1,0,0:0:0:0:
402,192,191057,1,0,0:0:0:0:
402,192,191391,1,0,0:0:0:0:
109,192,191391,1,0,0:0:0:0:
109,192,191557,1,0,0:0:0:0:
402,192,191557,1,0,0:0:0:0:
402,192,191724,1,0,0:0:0:0:
109,192,191724,1,0,0:0:0:0:
182,192,192057,1,0,0:0:0:0:
329,192,192057,1,0,0:0:0:0:
182,192,192391,1,0,0:0:0:0:
329,192,192391,1,0,0:0:0:0:
182,192,192557,1,0,0:0:0:0:
329,192,192557,1,0,0:0:0:0:
109,192,192724,1,0,0:0:0:0:
402,192,192724,1,0,0:0:0:0:
256,192,192891,1,0,0:0:0:0:
256,192,193057,1,0,0:0:0:0:
256,192,193224,1,0,0:0:0:0:
256,192,193391,128,0,193724:0:0:0:0:
329,192,193724,128,0,193891:0:0:0:0:
36,192,193891,1,0,0:0:0:0:
109,192,193974,1,0,0:0:0:0:
256,192,194057,1,0,0:0:0:0:
329,192,194224,1,0,0:0:0:0:
109,192,194557,128,0,194724:0:0:0:0:
182,192,194724,128,0,194891:0:0:0:0:
402,192,194891,1,0,0:0:0:0:
329,192,194974,1,0,0:0:0:0:
402,192,195057,1,0,0:0:0:0:
256,192,195224,1,0,0:0:0:0:
402,192,195391,128,0,195557:0:0:0:0:
329,192,195557,128,0,195724:0:0:0:0:
109,192,195724,128,0,195891:0:0:0:0:
182,192,195891,128,0,196057:0:0:0:0:
256,192,196057,128,0,196391:0:0:0:0:
402,192,196391,128,0,196724:0:0:0:0:
256,192,196724,1,0,0:0:0:0:
256,192,196891,1,0,0:0:0:0:
109,192,197224,1,0,0:0:0:0:
256,192,197307,1,0,0:0:0:0:
402,192,197391,1,0,0:0:0:0:
256,192,197557,128,0,197891:0:0:0:0:
329,192,197891,128,0,198057:0:0:0:0:
36,192,198057,1,0,0:0:0:0:
182,192,198141,1,0,0:0:0:0:
475,192,198224,1,0,0:0:0:0:
329,192,198307,1,0,0:0:0:0:
36,192,198391,1,0,0:0:0:0:
109,192,198557,1,0,0:0:0:0:
256,192,198641,1,0,0:0:0:0:
402,192,198724,1,0,0:0:0:0:
256,192,199057,1,0,0:0:0:0:
475,192,199224,1,0,0:0:0:0:
402,192,199307,1,0,0:0:0:0:
329,192,199391,1,0,0:0:0:0:
182,192,199557,1,0,0:0:0:0:
402,192,199891,128,0,200057:0:0:0:0:
109,192,200057,128,0,200224:0:0:0:0:
402,192,200224,1,0,0:0:0:0:
329,192,200307,1,0,0:0:0:0:
402,192,200391,1,0,0:0:0:0:
109,192,200557,128,0,200724:0:0:0:0:
402,192,200724,128,0,200891:0:0:0:0:
329,192,200891,128,0,201057:0:0:0:0:
109,192,201057,128,0,201224:0:0:0:0:
182,192,201224,128,0,201391:0:0:0:0:
256,192,201391,128,0,201724:0:0:0:0:
475,192,201724,128,0,202057:0:0:0:0:
329,192,202057,128,0,202224:0:0:0:0:
182,192,202224,128,0,202391:0:0:0:0:
256,192,202391,1,0,0:0:0:0:
402,192,202557,1,0,0:0:0:0:
36,192,202724,1,0,0:0:0:0:
109,192,202807,1,0,0:0:0:0:
182,192,202891,1,0,0:0:0:0:
475,192,203057,1,0,0:0:0:0:
402,192,203141,1,0,0:0:0:0:
329,192,203224,1,0,0:0:0:0:
36,192,203391,1,0,0:0:0:0:
109,192,203474,1,0,0:0:0:0:
182,192,203557,1,0,0:0:0:0:
475,192,203724,1,0,0:0:0:0:
402,192,203807,1,0,0:0:0:0:
329,192,203891,1,0,0:0:0:0:
256,192,204057,1,0,0:0:0:0:
256,192,204391,1,0,0:0:0:0:
402,192,204557,1,0,0:0:0:0:
329,192,204641,1,0,0:0:0:0:
402,192,204724,1,0,0:0:0:0:
109,192,204891,1,0,0:0:0:0:
475,192,205224,128,0,205391:0:0:0:0:
36,192,205391,128,0,205557:0:0:0:0:
402,192,205557,1,0,0:0:0:0:
329,192,205641,1,0,0:0:0:0:
256,192,205724,1,0,0:0:0:0:
109,192,205891,128,0,206057:0:0:0:0:
256,192,206057,128,0,206224:0:0:0:0:
402,192,206224,128,0,206391:0:0:0:0:
256,192,206391,128,0,206557:0:0:0:0:
109,192,206557,128,0,206724:0:0:0:0:
256,192,206724,1,0,0:0:0:0:
475,192,207057,128,0,207391:0:0:0:0:
402,192,207391,1,0,0:0:0:0:
256,192,207474,1,0,0:0:0:0:
109,192,207557,1,0,0:0:0:0:
109,192,207891,1,0,0:0:0:0:
256,192,207974,1,0,0:0:0:0:
402,192,208057,128,0,208224:0:0:0:0:
475,192,208224,128,0,208391:0:0:0:0:
256,192,208557,1,0,0:0:0:0:
402,192,208724,1,0,0:0:0:0:
329,192,208807,1,0,0:0:0:0:
109,192,208891,1,0,0:0:0:0:
182,192,208974,1,0,0:0:0:0:
402,192,209057,1,0,0:0:0:0:
109,192,209224,1,0,0:0:0:0:
256,192,209307,1,0,0:0:0:0:
402,192,209391,1,0,0:0:0:0:
256,192,209724,1,0,0:0:0:0:
36,192,209891,1,0,0:0:0:0:
109,192,209974,1,0,0:0:0:0:
182,192,210057,1,0,0:0:0:0:
402,192,210224,128,0,210391:0:0:0:0:
475,192,210557,128,0,210724:0:0:0:0:
329,192,210724,1,0,0:0:0:0:
36,192,210891,1,0,0:0:0:0:
109,192,210974,1,0,0:0:0:0:
182,192,211057,1,0,0:0:0:0:
256,192,211224,128,0,211391:0:0:0:0:
402,192,211391,128,0,211557:0:0:0:0:
329,192,211557,128,0,211724:0:0:0:0:
109,192,211724,128,0,211891:0:0:0:0:
182,192,211891,128,0,212057:0:0:0:0:
256,192,212057,128,0,212724:0:0:0:0:
182,192,212724,1,0,0:0:0:0:
329,192,212724,1,0,0:0:0:0:
402,192,212807,1,0,0:0:0:0:
109,192,212807,1,0,0:0:0:0:
475,192,212891,1,0,0:0:0:0:
36,192,212891,1,0,0:0:0:0:
256,192,213391,1,0,0:0:0:0:
402,192,213557,1,0,0:0:0:0:
109,192,213724,1,0,0:0:0:0:
109,192,213891,1,0,0:0:0:0:
256,192,214057,128,0,214391:0:0:0:0:
