osu file format v13

[General]
AudioFilename: Reol.mp3
AudioLeadIn: 0
PreviewTime: 56000
Countdown: 0
SampleSet: None
StackLeniency: 0.7
Mode: 3
LetterboxInBreaks: 0
SpecialStyle: 0
WidescreenStoryboard: 1

[Editor]
DistanceSpacing: 1
BeatDivisor: 8
GridSize: 4
TimelineZoom: 0.7

[Metadata]
Title:+Danshi
TitleUnicode:+Danshi
Artist:Reol
ArtistUnicode:れをる
Creator:lZenxl
Version:7K MX
Source:
Tags:GigaP neonat Tagre Plus Boy Hinsvar Fort Papcio [I]MMoRTal[S] mike91lau Player_X Soldsaga_KunG Okoratu
BeatmapID:409924
BeatmapSetID:165991

[Difficulty]
HPDrainRate:7.5
CircleSize:7
OverallDifficulty:8
ApproachRate:5
SliderMultiplier:1.8
SliderTickRate:1

[Events]
//Background and Video events
0,0,"BG.png",0,0
Video,0,"new.avi"
//Break Periods
2,48257,54857
//Storyboard Layer 0 (Background)
//Storyboard Layer 1 (Fail)
//Storyboard Layer 2 (Pass)
//Storyboard Layer 3 (Foreground)
//Storyboard Sound Samples
//Background Colour Transformations
3,100,163,162,255

[TimingPoints]
12058,333.333333333333,4,1,1,50,1,0
13391,-66.6666666666667,4,1,1,18,0,0
13474,-133.333333333333,4,1,1,18,0,0
13724,-66.6666666666667,4,1,1,18,0,0
13808,-133.333333333333,4,1,1,18,0,0
14058,-66.6666666666667,4,1,1,18,0,0
14141,-133.333333333333,4,1,1,18,0,0
14224,-66.6666666666667,4,1,1,18,0,0
14308,-133.333333333333,4,1,1,18,0,0
14391,-25,4,1,1,18,0,0
14474,-500,4,1,1,50,0,0
14724,-100,4,2,1,80,0,0
17724,-133.333333333333,4,2,1,80,0,0
17808,-100,4,2,1,80,0,0
17974,-66.6666666666667,4,2,1,80,0,0
18058,-100,4,2,1,80,0,0
23557,-50,4,2,1,80,0,0
23578,-1000,4,2,1,80,0,0
23599,-50,4,2,1,80,0,0
23620,-1000,4,2,1,80,0,0
23641,-50,4,2,1,80,0,0
23662,-1000,4,2,1,80,0,0
23682,-50,4,2,1,80,0,0
23703,-1000,4,2,1,80,0,0
23724,-50,4,2,1,80,0,0
23745,-133.333333333333,4,2,1,80,0,0
23807,-66.6666666666667,4,2,1,80,0,0
23828,-133.333333333333,4,2,1,80,0,0
23891,-66.6666666666667,4,2,1,80,0,0
23912,-133.333333333333,4,2,1,80,0,0
23974,-66.6666666666667,4,2,1,80,0,0
23995,-133.333333333333,4,2,1,80,0,0
24391,-66.6666666666667,4,2,1,80,0,0
24432,-200,4,2,1,80,0,0
24474,-133.333333333333,4,2,1,80,0,0
24599,-66.6666666666667,4,2,1,80,0,0
24641,-133.333333333333,4,2,1,80,0,0
24891,-33.3333333333333,4,2,1,80,0,0
24912,-133.333333333333,4,2,1,80,0,0
25057,-33.3333333333333,4,2,1,80,0,0
25078,-133.333333333333,4,2,1,80,0,0
25224,-33.3333333333333,4,2,1,80,0,0
25245,-133.333333333333,4,2,1,80,0,0
25391,-100,4,2,1,80,0,0
44057,-90.9090909090909,4,2,1,80,0,0
45391,-83.3333333333333,4,2,1,80,0,0
46057,-76.9230769230769,4,2,1,80,0,0
46724,-100,4,2,1,80,0,0
48057,-83.3333333333333,4,2,1,80,0,0
49391,-66.6666666666667,4,2,1,80,0,0
50724,-52.6315789473684,4,2,1,80,0,0
52057,-41.6666666666667,4,2,1,80,0,0
53391,-33.3333333333333,4,2,1,80,0,0
54724,-27.027027027027,4,2,1,80,0,0
55057,-20,4,2,1,80,0,0
55391,-10,4,2,1,80,0,0
55557,-1000,4,2,1,80,0,0
56057,-10,4,2,1,80,0,0
56141,-333.333333333333,4,2,1,80,0,0
56891,-166.666666666667,4,2,1,30,0,0
57057,-111.111111111111,4,2,1,50,0,0
57224,-83.3333333333333,4,2,1,70,0,0
57391,-100,4,2,1,80,0,1
58057,-133.333333333333,4,2,1,80,0,1
58391,-100,4,2,1,80,0,1
58724,-133.333333333333,4,2,1,80,0,1
59057,-100,4,2,1,80,0,1
61224,-133.333333333333,4,2,1,80,0,1
61557,-100,4,2,1,80,0,1
64224,-133.333333333333,4,2,1,80,0,1
64557,-100,4,2,1,80,0,1
67391,-10,4,2,1,80,0,0
67412,-100,4,2,1,80,0,0
67724,-133.333333333333,4,2,1,80,0,0
68057,-83.3333333333333,4,2,1,80,0,1
68391,-100,4,2,1,80,0,1
68557,-83.3333333333333,4,2,1,80,0,1
68891,-100,4,2,1,80,0,1
69391,-83.3333333333333,4,2,1,80,0,1
69724,-100,4,2,1,80,0,1
69891,-83.3333333333333,4,2,1,80,0,1
70224,-100,4,2,1,80,0,1
70724,-83.3333333333333,4,2,1,80,0,1
71057,-100,4,2,1,80,0,1
71224,-83.3333333333333,4,2,1,80,0,1
71557,-100,4,2,1,80,0,1
73057,-100,4,2,1,80,0,1
73391,-133.333333333333,4,2,1,80,0,1
73724,-100,4,2,1,80,0,1
74057,-133.333333333333,4,2,1,80,0,1
74391,-100,4,2,1,80,0,1
74724,-133.333333333333,4,2,1,80,0,1
75057,-100,4,2,1,80,0,1
78724,-100,4,2,1,80,0,0
80891,-33.3333333333333,4,2,1,80,0,0
80912,-133.333333333333,4,2,1,80,0,0
81057,-33.3333333333333,4,2,1,80,0,0
81078,-133.333333333333,4,2,1,80,0,0
81224,-33.3333333333333,4,2,1,80,0,0
81245,-133.333333333333,4,2,1,80,0,0
81391,-100,4,2,1,80,0,0
112057,-10,4,2,1,80,0,0
112078,-333.333333333333,4,2,1,80,0,0
112891,-166.666666666667,4,2,1,30,0,0
113057,-111.111111111111,4,2,1,50,0,0
113224,-83.3333333333333,4,2,1,70,0,0
113391,-100,4,2,1,80,0,1
114057,-133.333333333333,4,2,1,80,0,1
114391,-100,4,2,1,80,0,1
114724,-133.333333333333,4,2,1,80,0,1
115057,-100,4,2,1,80,0,1
117224,-133.333333333333,4,2,1,80,0,1
117557,-100,4,2,1,80,0,1
120224,-133.333333333333,4,2,1,80,0,1
120557,-100,4,2,1,80,0,1
123391,-10,4,2,1,80,0,0
123412,-100,4,2,1,80,0,0
123724,-133.333333333333,4,2,1,80,0,0
124057,-83.3333333333333,4,2,1,80,0,1
124391,-100,4,2,1,80,0,1
124557,-83.3333333333333,4,2,1,80,0,1
124891,-100,4,2,1,80,0,1
125391,-83.3333333333333,4,2,1,80,0,1
125724,-100,4,2,1,80,0,1
125891,-83.3333333333333,4,2,1,80,0,1
126224,-100,4,2,1,80,0,1
126724,-83.3333333333333,4,2,1,80,0,1
127057,-100,4,2,1,80,0,1
127224,-83.3333333333333,4,2,1,80,0,1
127557,-100,4,2,1,80,0,1
129057,-100,4,2,1,80,0,1
129391,-133.333333333333,4,2,1,80,0,1
129724,-100,4,2,1,80,0,1
130057,-133.333333333333,4,2,1,80,0,1
130391,-100,4,2,1,80,0,1
130724,-133.333333333333,4,2,1,80,0,1
131057,-100,4,2,1,80,0,1
134724,-100,4,2,1,80,0,0
145391,-100,4,2,1,80,0,1
145412,-100,4,2,1,80,0,0
166724,-100,4,2,1,30,0,0
168557,-95.2380952380952,4,2,1,40,0,0
168724,-90.9090909090909,4,2,1,50,0,0
168891,-86.9565217391304,4,2,1,60,0,0
169057,-83.3333333333333,4,2,1,70,0,0
169224,-80,4,2,1,80,0,0
169391,-100,4,2,1,80,0,1
170057,-133.333333333333,4,2,1,80,0,1
170391,-100,4,2,1,80,0,1
170724,-133.333333333333,4,2,1,80,0,1
171057,-100,4,2,1,80,0,1
173224,-133.333333333333,4,2,1,80,0,1
173557,-100,4,2,1,80,0,1
176224,-133.333333333333,4,2,1,80,0,1
176557,-100,4,2,1,80,0,1
179391,-10,4,2,1,80,0,0
179412,-100,4,2,1,80,0,0
179724,-133.333333333333,4,2,1,80,0,0
180057,-83.3333333333333,4,2,1,80,0,1
180391,-100,4,2,1,80,0,1
180557,-83.3333333333333,4,2,1,80,0,1
180891,-100,4,2,1,80,0,1
181391,-83.3333333333333,4,2,1,80,0,1
181724,-100,4,2,1,80,0,1
181891,-83.3333333333333,4,2,1,80,0,1
182224,-100,4,2,1,80,0,1
182724,-83.3333333333333,4,2,1,80,0,1
183057,-100,4,2,1,80,0,1
183224,-83.3333333333333,4,2,1,80,0,1
183557,-100,4,2,1,80,0,1
185057,-100,4,2,1,80,0,1
185391,-133.333333333333,4,2,1,80,0,1
185724,-100,4,2,1,80,0,1
186057,-133.333333333333,4,2,1,80,0,1
186391,-100,4,2,1,80,0,1
186724,-133.333333333333,4,2,1,80,0,1
187057,-100,4,2,1,80,0,1
190724,-100,4,2,1,80,0,0
192891,-33.3333333333333,4,2,1,80,0,0
192912,-133.333333333333,4,2,1,80,0,0
193057,-33.3333333333333,4,2,1,80,0,0
193078,-133.333333333333,4,2,1,80,0,0
193224,-33.3333333333333,4,2,1,80,0,0
193245,-133.333333333333,4,2,1,80,0,0
193391,-100,4,2,1,80,0,0
212891,-133.333333333333,4,2,1,80,0,0
213057,-100,4,2,1,80,0,0
213224,-66.6666666666667,4,2,1,80,0,0
213391,-100,4,2,1,80,0,0
213724,-66.6666666666667,4,2,1,80,0,0
213807,-133.333333333333,4,2,1,80,0,0
213891,-66.6666666666667,4,2,1,80,0,0
213974,-133.333333333333,4,2,1,80,0,0
214057,-100,4,2,1,80,0,0
214224,-66.6666666666667,4,2,1,80,0,0
214307,-133.333333333333,4,2,1,80,0,0
214391,-100,4,2,1,80,0,0

[HitObjects]
109,192,13391,5,0,0:0:0:0:
256,192,13391,1,0,0:0:0:0:
402,192,13391,1,0,0:0:0:0:
329,192,13391,1,0,0:0:0:0:
182,192,13391,1,0,0:0:0:0:
109,192,13724,1,0,0:0:0:0:
182,192,13724,1,0,0:0:0:0:
256,192,13724,1,0,0:0:0:0:
329,192,13724,1,0,0:0:0:0:
402,192,13724,1,0,0:0:0:0:
402,192,14058,1,0,0:0:0:0:
329,192,14058,1,0,0:0:0:0:
256,192,14058,1,0,0:0:0:0:
182,192,14058,1,0,0:0:0:0:
109,192,14058,1,0,0:0:0:0:
402,192,14224,1,0,0:0:0:0:
329,192,14224,1,0,0:0:0:0:
256,192,14224,1,0,0:0:0:0:
182,192,14224,1,0,0:0:0:0:
109,192,14224,1,0,0:0:0:0:
109,192,14391,1,0,0:0:0:0:
256,192,14391,1,0,0:0:0:0:
402,192,14391,1,0,0:0:0:0:
329,192,14391,1,0,0:0:0:0:
182,192,14391,1,0,0:0:0:0:
256,192,14724,128,8,15058:0:0:0:0:
36,192,15058,128,8,15391:0:0:0:0:
256,192,15224,1,8,0:0:0:0:
329,192,15308,1,8,0:0:0:0:
402,192,15391,128,8,15558:0:0:0:0:
475,192,15558,128,8,15724:0:0:0:0:
256,192,15724,1,8,0:0:0:0:
182,192,15724,1,4,0:0:0:0:
109,192,15891,128,0,16058:0:0:0:0:
402,192,15891,128,8,16058:0:0:0:0:
256,192,16058,128,8,16224:0:0:0:0:
475,192,16224,128,8,17391:0:0:0:0:
402,192,16308,128,8,17391:0:0:0:0:
329,192,16391,128,8,17391:0:0:0:0:
182,192,16558,128,8,16724:0:0:0:0:
36,192,16724,128,8,16891:0:0:0:0:
182,192,16891,128,8,17058:0:0:0:0:
36,192,17058,128,12,17224:0:0:0:0:
182,192,17224,128,8,17391:0:0:0:0:
256,192,17391,128,8,17724:0:0:0:0:
36,192,17724,128,0,18058:0:0:0:0:
475,192,17724,128,8,18058:0:0:0:0:
109,192,18058,1,0,0:0:0:0:
402,192,18058,1,8,0:0:0:0:
329,192,18141,1,8,0:0:0:0:
182,192,18141,1,0,0:0:0:0:
109,192,18224,1,0,0:0:0:0:
402,192,18224,1,8,0:0:0:0:
256,192,18391,1,8,0:0:0:0:
36,192,18558,1,0,0:0:0:0:
475,192,18558,1,8,0:0:0:0:
182,192,18641,1,0,0:0:0:0:
329,192,18641,1,8,0:0:0:0:
256,192,18724,128,8,18891:0:0:0:0:
109,192,18891,128,0,19224:0:0:0:0:
402,192,18891,128,8,19224:0:0:0:0:
256,192,19224,128,8,19391:0:0:0:0:
329,192,19391,1,8,0:0:0:0:
182,192,19474,1,8,0:0:0:0:
402,192,19558,1,8,0:0:0:0:
109,192,19641,1,8,0:0:0:0:
475,192,19724,128,8,20058:0:0:0:0:
36,192,19891,128,8,20058:0:0:0:0:
182,192,20058,128,4,20391:0:0:0:0:
329,192,20058,128,8,20391:0:0:0:0:
109,192,20391,128,0,20558:0:0:0:0:
402,192,20391,128,8,20558:0:0:0:0:
329,192,20558,1,8,0:0:0:0:
182,192,20641,1,8,0:0:0:0:
329,192,20724,128,8,20891:0:0:0:0:
182,192,20891,128,8,21058:0:0:0:0:
36,192,21224,128,0,21391:0:0:0:0:
475,192,21224,128,8,21391:0:0:0:0:
402,192,21391,128,8,21558:0:0:0:0:
329,192,21391,128,0,21558:0:0:0:0:
182,192,21558,1,8,0:0:0:0:
109,192,21558,1,0,0:0:0:0:
402,192,21641,1,8,0:0:0:0:
329,192,21641,1,0,0:0:0:0:
182,192,21724,128,8,21891:0:0:0:0:
109,192,21724,128,0,21891:0:0:0:0:
329,192,21891,128,0,22058:0:0:0:0:
402,192,21891,128,8,22058:0:0:0:0:
182,192,22058,128,8,22224:0:0:0:0:
36,192,22058,128,0,22224:0:0:0:0:
475,192,22224,128,0,22391:0:0:0:0:
329,192,22224,128,8,22391:0:0:0:0:
182,192,22391,128,8,22558:0:0:0:0:
36,192,22391,128,0,22558:0:0:0:0:
329,192,22558,128,8,22724:0:0:0:0:
475,192,22558,128,0,22724:0:0:0:0:
256,192,22724,128,8,23057:0:0:0:0:
36,192,23057,1,0,0:0:0:0:
182,192,23057,1,0,0:0:0:0:
475,192,23057,1,0,0:0:0:0:
329,192,23057,1,4,3:0:0:0:
36,192,23391,128,0,23724:0:0:0:0:
475,192,23391,128,0,23724:0:0:0:0:
402,192,23724,1,8,0:0:0:0:
109,192,23807,1,8,0:0:0:0:
329,192,23891,1,8,0:0:0:0:
182,192,23974,1,8,0:0:0:0:
256,192,24057,1,8,0:0:0:0:
36,192,24057,1,0,0:0:0:0:
475,192,24057,1,4,3:0:0:0:
475,192,24891,1,0,0:0:0:0:
256,192,24891,1,4,3:0:0:0:
36,192,24891,1,0,0:0:0:0:
36,192,25057,1,0,0:0:0:0:
256,192,25057,1,4,3:0:0:0:
475,192,25057,1,0,0:0:0:0:
256,192,25224,1,4,3:0:0:0:
36,192,25224,1,0,0:0:0:0:
475,192,25224,1,0,0:0:0:0:
36,192,25391,1,4,3:0:0:0:
475,192,25391,1,8,0:0:0:0:
109,192,25474,1,0,0:0:0:0:
402,192,25474,1,8,0:0:0:0:
182,192,25557,1,0,0:0:0:0:
329,192,25557,1,8,0:0:0:0:
109,192,25724,1,4,3:0:0:0:
402,192,25724,1,8,0:0:0:0:
36,192,25891,1,0,0:0:0:0:
475,192,25891,1,8,0:0:0:0:
109,192,26057,1,4,3:0:0:0:
402,192,26057,1,8,0:0:0:0:
329,192,26224,1,8,0:0:0:0:
182,192,26224,1,0,0:0:0:0:
36,192,26391,1,4,3:0:0:0:
475,192,26391,1,8,0:0:0:0:
329,192,26557,1,8,0:0:0:0:
182,192,26557,1,0,0:0:0:0:
402,192,26724,128,8,26891:0:0:0:0:
109,192,26724,128,4,26891:3:0:0:0:
182,192,26891,128,0,27057:0:0:0:0:
329,192,26891,128,8,27057:0:0:0:0:
36,192,27057,128,4,27224:3:0:0:0:
475,192,27057,128,8,27224:0:0:0:0:
182,192,27224,128,0,27391:0:0:0:0:
329,192,27224,128,8,27391:0:0:0:0:
402,192,27391,128,8,27557:0:0:0:0:
109,192,27391,128,4,27557:3:0:0:0:
182,192,27557,128,0,27724:0:0:0:0:
329,192,27557,128,8,27724:0:0:0:0:
109,192,27724,128,4,28057:3:0:0:0:
402,192,27724,128,8,27891:0:0:0:0:
256,192,27891,128,8,28057:0:0:0:0:
329,192,28057,1,4,3:0:0:0:
475,192,28057,1,8,0:0:0:0:
329,192,28224,1,0,0:0:0:0:
475,192,28224,1,8,0:0:0:0:
182,192,28391,1,8,0:0:0:0:
36,192,28391,1,4,3:0:0:0:
36,192,28557,1,0,0:0:0:0:
182,192,28557,1,8,0:0:0:0:
475,192,28724,1,8,0:0:0:0:
329,192,28724,1,4,3:0:0:0:
329,192,28891,1,0,0:0:0:0:
475,192,28891,1,8,0:0:0:0:
182,192,29057,1,8,0:0:0:0:
36,192,29057,1,4,3:0:0:0:
36,192,29224,1,0,0:0:0:0:
182,192,29224,1,8,0:0:0:0:
109,192,29391,128,4,29724:3:0:0:0:
402,192,29391,128,8,29724:0:0:0:0:
256,192,29557,1,8,0:0:0:0:
36,192,29724,128,4,30057:3:0:0:0:
475,192,29724,128,8,30057:0:0:0:0:
256,192,29891,1,8,0:0:0:0:
109,192,30057,128,8,30724:0:0:0:0:
256,192,30224,128,8,30724:0:0:0:0:
402,192,30391,128,8,30724:0:0:0:0:
329,192,30724,1,8,0:0:0:0:
182,192,30724,1,4,3:0:0:0:
182,192,30891,1,0,0:0:0:0:
329,192,30891,1,8,0:0:0:0:
329,192,31057,1,8,0:0:0:0:
182,192,31057,1,4,3:0:0:0:
329,192,31224,1,8,0:0:0:0:
182,192,31224,1,0,0:0:0:0:
36,192,31391,1,4,3:0:0:0:
475,192,31391,1,8,0:0:0:0:
109,192,31557,1,0,0:0:0:0:
402,192,31557,1,8,0:0:0:0:
329,192,31724,1,8,0:0:0:0:
182,192,31724,1,4,3:0:0:0:
402,192,31807,1,8,0:0:0:0:
109,192,31807,1,0,0:0:0:0:
329,192,31891,1,8,0:0:0:0:
182,192,31891,1,0,0:0:0:0:
109,192,31974,1,0,0:0:0:0:
402,192,31974,1,8,0:0:0:0:
329,192,32057,1,8,0:0:0:0:
182,192,32057,128,4,32224:3:0:0:0:
402,192,32224,128,8,32391:0:0:0:0:
109,192,32391,128,8,32557:0:0:0:0:
329,192,32557,128,8,32724:0:0:0:0:
109,192,32724,128,8,33057:0:0:0:0:
256,192,32891,128,8,33057:0:0:0:0:
329,192,33057,128,8,33391:0:0:0:0:
182,192,33224,128,8,33391:0:0:0:0:
256,192,33391,1,8,0:0:0:0:
109,192,33557,128,0,33724:0:0:0:0:
402,192,33557,128,8,33724:0:0:0:0:
256,192,33724,1,8,0:0:0:0:
36,192,33891,128,0,34057:0:0:0:0:
475,192,33891,128,8,34057:0:0:0:0:
256,192,34057,1,8,0:0:0:0:
109,192,34224,128,8,34391:0:0:0:0:
475,192,34391,128,8,34724:0:0:0:0:
402,192,34474,128,8,34724:0:0:0:0:
329,192,34557,128,8,34724:0:0:0:0:
256,192,34641,128,8,34724:0:0:0:0:
36,192,34724,1,8,0:0:0:0:
182,192,34807,1,8,0:0:0:0:
329,192,34891,1,8,0:0:0:0:
475,192,35057,1,8,0:0:0:0:
329,192,35141,1,8,0:0:0:0:
182,192,35224,1,8,0:0:0:0:
109,192,35391,1,8,0:0:0:0:
402,192,35391,1,4,3:0:0:0:
256,192,35557,1,8,0:0:0:0:
475,192,35641,1,8,0:0:0:0:
36,192,35641,1,0,0:0:0:0:
256,192,35724,1,8,0:0:0:0:
109,192,35891,128,0,36057:0:0:0:0:
402,192,35891,128,8,36057:0:0:0:0:
36,192,36057,128,4,36224:3:0:0:0:
329,192,36057,128,8,36224:0:0:0:0:
109,192,36224,128,0,36391:0:0:0:0:
402,192,36224,128,8,36391:0:0:0:0:
475,192,36391,128,8,36557:0:0:0:0:
182,192,36391,128,4,36557:3:0:0:0:
36,192,36557,128,0,36724:0:0:0:0:
329,192,36557,128,8,36724:0:0:0:0:
475,192,36724,128,8,36891:0:0:0:0:
182,192,36724,128,4,36891:3:0:0:0:
109,192,36891,128,0,37057:0:0:0:0:
402,192,36891,128,8,37057:0:0:0:0:
256,192,37057,1,8,0:0:0:0:
256,192,37224,1,8,0:0:0:0:
109,192,37391,128,4,37557:3:0:0:0:
402,192,37391,128,8,37557:0:0:0:0:
256,192,37557,128,8,37724:0:0:0:0:
402,192,37724,128,8,37891:0:0:0:0:
109,192,37724,128,4,37891:3:0:0:0:
256,192,37891,128,8,38057:0:0:0:0:
36,192,38057,128,4,38224:3:0:0:0:
475,192,38057,128,8,38224:0:0:0:0:
109,192,38224,128,0,38391:0:0:0:0:
402,192,38224,128,8,38391:0:0:0:0:
182,192,38391,1,4,3:0:0:0:
329,192,38391,1,8,0:0:0:0:
256,192,38557,128,0,38724:0:0:0:0:
36,192,38724,128,4,39057:3:0:0:0:
109,192,38724,1,8,0:0:0:0:
475,192,38891,128,0,39224:0:0:0:0:
402,192,38891,1,8,0:0:0:0:
109,192,39057,128,4,39391:3:0:0:0:
182,192,39057,1,8,0:0:0:0:
402,192,39224,128,0,39557:0:0:0:0:
329,192,39224,1,8,0:0:0:0:
36,192,39391,128,4,39724:3:0:0:0:
182,192,39391,1,8,0:0:0:0:
475,192,39557,128,0,39891:0:0:0:0:
329,192,39557,1,8,0:0:0:0:
109,192,39724,128,4,40057:3:0:0:0:
182,192,39724,1,8,0:0:0:0:
402,192,39891,128,0,40057:0:0:0:0:
256,192,39891,1,8,0:0:0:0:
182,192,40057,1,4,3:0:0:0:
329,192,40057,1,8,0:0:0:0:
36,192,40141,1,0,0:0:0:0:
475,192,40141,1,8,0:0:0:0:
329,192,40224,1,8,0:0:0:0:
182,192,40224,1,0,0:0:0:0:
109,192,40391,1,4,3:0:0:0:
402,192,40391,1,8,0:0:0:0:
182,192,40557,1,0,0:0:0:0:
329,192,40557,1,8,0:0:0:0:
256,192,40557,1,0,0:0:0:0:
109,192,40724,1,4,3:0:0:0:
402,192,40724,1,8,0:0:0:0:
256,192,40891,128,8,41057:0:0:0:0:
329,192,41057,128,8,41224:0:0:0:0:
182,192,41057,128,4,41224:3:0:0:0:
109,192,41224,128,0,41391:0:0:0:0:
402,192,41224,128,8,41391:0:0:0:0:
256,192,41391,1,8,0:0:0:0:
256,192,41557,1,0,0:0:0:0:
402,192,41891,1,0,0:0:0:0:
109,192,41891,1,0,0:0:0:0:
182,192,42057,1,4,0:0:0:0:
256,192,42057,1,0,0:0:0:0:
329,192,42057,1,8,0:0:0:0:
36,192,42057,1,4,1:0:0:0:
475,192,42057,1,0,0:0:0:0:
256,192,42224,1,0,0:0:0:0:
182,192,42224,1,4,0:0:0:0:
329,192,42224,1,8,0:0:0:0:
36,192,42224,1,4,1:0:0:0:
475,192,42224,1,0,0:0:0:0:
329,192,42391,1,8,0:0:0:0:
256,192,42391,1,0,0:0:0:0:
182,192,42391,1,4,0:0:0:0:
36,192,42391,1,4,1:0:0:0:
475,192,42391,1,0,0:0:0:0:
109,192,42557,128,0,42724:0:0:0:0:
402,192,42557,128,8,42724:0:0:0:0:
329,192,42724,128,8,42891:0:0:0:0:
182,192,42724,128,0,42891:0:0:0:0:
36,192,42891,128,0,43057:0:0:0:0:
475,192,42891,128,8,43057:0:0:0:0:
36,192,43224,1,0,0:0:0:0:
475,192,43224,1,8,0:0:0:0:
402,192,43391,1,0,0:0:0:0:
329,192,43391,1,8,0:0:0:0:
256,192,43391,1,4,0:0:0:0:
109,192,43391,1,0,0:0:0:0:
182,192,43391,1,4,1:0:0:0:
109,192,43557,1,0,0:0:0:0:
182,192,43557,1,4,1:0:0:0:
256,192,43557,1,4,0:0:0:0:
329,192,43557,1,8,0:0:0:0:
402,192,43557,1,0,0:0:0:0:
402,192,43724,1,0,0:0:0:0:
329,192,43724,1,8,0:0:0:0:
256,192,43724,1,4,0:0:0:0:
182,192,43724,1,4,1:0:0:0:
109,192,43724,1,0,0:0:0:0:
182,192,43891,1,0,0:0:0:0:
329,192,43891,1,8,0:0:0:0:
36,192,44057,1,8,0:0:0:0:
329,192,44141,1,8,0:0:0:0:
109,192,44224,1,8,0:0:0:0:
256,192,44307,1,8,0:0:0:0:
475,192,44391,1,8,0:0:0:0:
182,192,44474,1,8,0:0:0:0:
402,192,44557,1,8,0:0:0:0:
256,192,44641,1,8,0:0:0:0:
109,192,44724,1,8,0:0:0:0:
329,192,44807,1,8,0:0:0:0:
36,192,44891,1,8,0:0:0:0:
402,192,44974,1,8,0:0:0:0:
182,192,45057,1,8,0:0:0:0:
475,192,45141,1,8,0:0:0:0:
36,192,45224,1,8,0:0:0:0:
329,192,45307,1,8,0:0:0:0:
109,192,45391,1,8,0:0:0:0:
182,192,45474,1,8,0:0:0:0:
402,192,45557,1,8,0:0:0:0:
329,192,45641,1,8,0:0:0:0:
36,192,45724,1,8,0:0:0:0:
182,192,45807,1,8,0:0:0:0:
475,192,45891,1,8,0:0:0:0:
329,192,45974,1,8,0:0:0:0:
109,192,46057,1,8,0:0:0:0:
182,192,46141,1,8,0:0:0:0:
402,192,46224,1,8,0:0:0:0:
329,192,46307,1,8,0:0:0:0:
36,192,46391,1,8,0:0:0:0:
182,192,46474,1,8,0:0:0:0:
475,192,46557,1,8,0:0:0:0:
329,192,46641,1,8,0:0:0:0:
256,192,46724,128,4,48057:1:0:0:0:
256,192,56057,5,4,3:0:0:0:
182,192,56891,1,8,0:0:0:0:
256,192,56891,1,4,3:0:0:0:
329,192,56891,1,8,0:0:0:0:
256,192,57057,1,4,3:0:0:0:
182,192,57057,1,8,0:0:0:0:
329,192,57057,1,8,0:0:0:0:
256,192,57224,1,4,3:0:0:0:
182,192,57224,1,8,0:0:0:0:
329,192,57224,1,8,0:0:0:0:
182,192,57391,1,12,0:0:0:0:
36,192,57391,1,4,0:0:0:0:
329,192,57391,1,8,0:0:0:0:
475,192,57391,1,0,0:0:0:0:
475,192,57724,128,0,57891:0:0:0:0:
329,192,57724,128,8,57891:0:0:0:0:
182,192,57891,128,8,58057:0:0:0:0:
36,192,57891,128,0,58057:0:0:0:0:
329,192,58057,128,8,58391:0:0:0:0:
475,192,58057,128,0,58391:0:0:0:0:
182,192,58391,128,8,58557:0:0:0:0:
36,192,58391,128,0,58557:0:0:0:0:
329,192,58557,128,8,58724:0:0:0:0:
475,192,58557,128,0,58724:0:0:0:0:
182,192,58724,128,8,59057:0:0:0:0:
36,192,58724,128,0,59057:0:0:0:0:
329,192,59057,128,8,59224:0:0:0:0:
475,192,59057,128,0,59224:0:0:0:0:
182,192,59224,128,8,59391:0:0:0:0:
36,192,59224,128,0,59391:0:0:0:0:
109,192,59391,128,0,59724:0:0:0:0:
402,192,59391,128,8,59724:0:0:0:0:
329,192,59557,128,8,59724:0:0:0:0:
182,192,59557,128,0,59724:0:0:0:0:
256,192,59724,1,8,0:0:0:0:
182,192,59891,1,0,0:0:0:0:
329,192,59891,1,8,0:0:0:0:
109,192,60057,1,0,0:0:0:0:
402,192,60057,1,8,0:0:0:0:
36,192,60224,1,0,0:0:0:0:
475,192,60224,1,8,0:0:0:0:
402,192,60391,1,8,0:0:0:0:
109,192,60391,1,0,0:0:0:0:
36,192,60557,1,0,0:0:0:0:
475,192,60557,1,8,0:0:0:0:
329,192,60641,1,8,0:0:0:0:
182,192,60641,1,0,0:0:0:0:
36,192,60724,1,0,0:0:0:0:
475,192,60724,1,8,0:0:0:0:
256,192,60891,128,8,61057:0:0:0:0:
182,192,61057,128,0,61224:0:0:0:0:
329,192,61057,128,8,61224:0:0:0:0:
36,192,61224,128,0,62057:0:0:0:0:
475,192,61224,128,8,62057:0:0:0:0:
256,192,61557,1,8,0:0:0:0:
109,192,61724,1,0,0:0:0:0:
402,192,61724,1,8,0:0:0:0:
256,192,61891,1,8,0:0:0:0:
402,192,62057,1,8,0:0:0:0:
109,192,62057,1,0,0:0:0:0:
329,192,62224,1,8,0:0:0:0:
182,192,62224,1,0,0:0:0:0:
182,192,62391,1,0,0:0:0:0:
329,192,62391,1,8,0:0:0:0:
256,192,62557,1,8,0:0:0:0:
109,192,62724,128,0,62891:0:0:0:0:
182,192,62724,128,8,62891:0:0:0:0:
36,192,62724,128,0,62891:0:0:0:0:
329,192,62891,128,8,63057:0:0:0:0:
402,192,62891,128,0,63057:0:0:0:0:
475,192,62891,128,0,63057:0:0:0:0:
36,192,63057,128,0,63224:0:0:0:0:
109,192,63057,128,0,63224:0:0:0:0:
182,192,63057,128,8,63224:0:0:0:0:
475,192,63224,128,0,63391:0:0:0:0:
329,192,63224,128,8,63391:0:0:0:0:
402,192,63224,128,0,63391:0:0:0:0:
182,192,63391,128,8,63557:0:0:0:0:
109,192,63391,128,0,63557:0:0:0:0:
36,192,63391,128,0,63557:0:0:0:0:
402,192,63557,128,0,63724:0:0:0:0:
329,192,63557,128,8,63724:0:0:0:0:
475,192,63557,128,0,63724:0:0:0:0:
36,192,63724,128,0,63891:0:0:0:0:
109,192,63724,128,0,63891:0:0:0:0:
182,192,63724,128,8,63891:0:0:0:0:
475,192,63891,128,0,64057:0:0:0:0:
329,192,63891,128,8,64057:0:0:0:0:
402,192,63891,128,0,64057:0:0:0:0:
182,192,64057,128,8,64224:0:0:0:0:
109,192,64057,128,0,64224:0:0:0:0:
36,192,64057,128,0,64224:0:0:0:0:
402,192,64224,128,0,64557:0:0:0:0:
329,192,64224,128,8,64557:0:0:0:0:
475,192,64224,128,0,64557:0:0:0:0:
182,192,64557,128,8,64724:0:0:0:0:
109,192,64557,128,0,64724:0:0:0:0:
36,192,64557,128,0,64724:0:0:0:0:
256,192,64891,128,8,65391:0:0:0:0:
329,192,65057,128,8,65391:0:0:0:0:
402,192,65224,128,8,65391:0:0:0:0:
36,192,65391,1,4,0:0:0:0:
475,192,65391,1,8,0:0:0:0:
109,192,65557,1,0,0:0:0:0:
402,192,65557,1,8,0:0:0:0:
182,192,65724,1,0,0:0:0:0:
329,192,65724,1,8,0:0:0:0:
256,192,65724,1,0,0:0:0:0:
36,192,65891,1,4,0:0:0:0:
475,192,65891,1,8,0:0:0:0:
109,192,66057,1,0,0:0:0:0:
402,192,66057,1,8,0:0:0:0:
182,192,66224,1,0,0:0:0:0:
329,192,66224,1,8,0:0:0:0:
256,192,66224,1,0,0:0:0:0:
36,192,66391,1,4,0:0:0:0:
475,192,66391,1,8,0:0:0:0:
109,192,66557,1,0,0:0:0:0:
402,192,66557,1,8,0:0:0:0:
182,192,66724,1,0,0:0:0:0:
329,192,66724,1,8,0:0:0:0:
256,192,66724,1,0,0:0:0:0:
36,192,66891,1,4,0:0:0:0:
475,192,66891,1,8,0:0:0:0:
109,192,67057,1,0,0:0:0:0:
402,192,67057,1,8,0:0:0:0:
182,192,67224,1,0,0:0:0:0:
329,192,67224,1,8,0:0:0:0:
256,192,67391,1,4,3:0:0:0:
109,192,67391,1,4,0:0:0:0:
402,192,67391,1,8,0:0:0:0:
256,192,67724,1,4,1:0:0:0:
36,192,67724,1,4,1:0:0:0:
475,192,67724,1,8,0:0:0:0:
109,192,68057,128,0,68391:0:0:0:0:
36,192,68057,128,0,68391:0:0:0:0:
182,192,68057,128,8,68391:0:0:0:0:
329,192,68057,128,4,68391:1:0:0:0:
402,192,68057,128,4,68391:0:0:0:0:
475,192,68057,128,4,68391:0:0:0:0:
256,192,68391,128,8,68557:0:0:0:0:
36,192,68557,128,0,68891:0:0:0:0:
475,192,68557,128,4,68891:0:0:0:0:
402,192,68557,128,4,68891:0:0:0:0:
109,192,68557,128,0,68891:0:0:0:0:
182,192,68557,128,8,68891:0:0:0:0:
329,192,68557,128,4,68891:1:0:0:0:
256,192,68891,1,8,0:0:0:0:
256,192,69057,1,8,0:0:0:0:
256,192,69224,1,8,0:0:0:0:
475,192,69391,128,4,69724:0:0:0:0:
36,192,69391,128,0,69724:0:0:0:0:
402,192,69391,128,4,69724:0:0:0:0:
109,192,69391,128,0,69724:0:0:0:0:
329,192,69391,128,4,69724:1:0:0:0:
182,192,69391,128,8,69724:0:0:0:0:
256,192,69724,128,8,69891:0:0:0:0:
36,192,69891,128,0,70224:0:0:0:0:
402,192,69891,128,4,70224:0:0:0:0:
475,192,69891,128,4,70224:0:0:0:0:
182,192,69891,128,8,70224:0:0:0:0:
329,192,69891,128,4,70224:1:0:0:0:
109,192,69891,128,0,70224:0:0:0:0:
256,192,70224,1,8,0:0:0:0:
256,192,70391,1,8,0:0:0:0:
256,192,70557,1,8,0:0:0:0:
109,192,70724,128,0,71057:0:0:0:0:
329,192,70724,128,4,71057:1:0:0:0:
182,192,70724,128,8,71057:0:0:0:0:
475,192,70724,128,4,71057:0:0:0:0:
36,192,70724,128,0,71057:0:0:0:0:
402,192,70724,128,4,71057:0:0:0:0:
256,192,71057,128,8,71224:0:0:0:0:
182,192,71224,128,8,71557:0:0:0:0:
329,192,71224,128,4,71557:1:0:0:0:
109,192,71224,128,0,71557:0:0:0:0:
36,192,71224,128,0,71557:0:0:0:0:
402,192,71224,128,4,71557:0:0:0:0:
475,192,71224,128,4,71557:0:0:0:0:
256,192,71557,1,8,0:0:0:0:
256,192,71724,1,8,0:0:0:0:
256,192,71891,1,8,0:0:0:0:
36,192,72057,1,0,0:0:0:0:
109,192,72057,1,8,0:0:0:0:
475,192,72224,1,0,0:0:0:0:
402,192,72224,1,8,0:0:0:0:
182,192,72391,1,0,0:0:0:0:
109,192,72391,1,8,0:0:0:0:
402,192,72557,1,8,0:0:0:0:
329,192,72557,1,0,0:0:0:0:
36,192,72724,128,0,72891:0:0:0:0:
256,192,72724,128,8,72891:0:0:0:0:
475,192,72724,128,0,72891:0:0:0:0:
36,192,73057,128,0,73307:0:0:0:0:
256,192,73057,128,4,73307:0:0:0:0:
475,192,73057,128,0,73307:0:0:0:0:
329,192,73057,128,8,73307:0:0:0:0:
182,192,73057,128,0,73307:0:0:0:0:
256,192,73391,1,4,1:0:0:0:
182,192,73391,1,4,0:0:0:0:
36,192,73391,1,0,0:0:0:0:
329,192,73391,128,8,73724:0:0:0:0:
475,192,73391,128,4,73724:0:0:0:0:
36,192,73724,128,8,73891:0:0:0:0:
109,192,73891,128,8,74057:0:0:0:0:
329,192,74057,128,8,74391:0:0:0:0:
402,192,74057,128,0,74391:0:0:0:0:
475,192,74057,128,4,74391:0:0:0:0:
109,192,74391,128,8,74557:0:0:0:0:
182,192,74557,128,8,74724:0:0:0:0:
329,192,74724,128,8,75057:0:0:0:0:
402,192,74724,128,0,75057:0:0:0:0:
475,192,74724,128,4,75057:0:0:0:0:
36,192,75057,128,8,75224:0:0:0:0:
182,192,75224,128,8,75391:0:0:0:0:
475,192,75391,128,8,76057:0:0:0:0:
402,192,75557,128,8,76057:0:0:0:0:
329,192,75724,128,8,76057:0:0:0:0:
256,192,75891,128,8,76057:0:0:0:0:
182,192,76057,128,8,76224:0:0:0:0:
109,192,76057,128,0,76224:0:0:0:0:
329,192,76224,128,8,76391:0:0:0:0:
402,192,76224,128,0,76391:0:0:0:0:
182,192,76391,128,8,76557:0:0:0:0:
109,192,76391,128,0,76557:0:0:0:0:
402,192,76557,128,0,76724:0:0:0:0:
329,192,76557,128,8,76724:0:0:0:0:
182,192,76724,1,8,0:0:0:0:
109,192,76724,1,0,0:0:0:0:
182,192,76891,128,8,77057:0:0:0:0:
109,192,76891,128,0,77057:0:0:0:0:
256,192,77057,128,8,77557:0:0:0:0:
36,192,77224,128,4,77557:0:0:0:0:
475,192,77224,128,4,77557:0:0:0:0:
402,192,77557,128,8,77891:0:0:0:0:
109,192,77557,128,0,77891:0:0:0:0:
182,192,77724,128,0,77891:0:0:0:0:
329,192,77724,128,8,77891:0:0:0:0:
256,192,77891,128,8,78724:0:0:0:0:
36,192,78057,128,0,78724:0:0:0:0:
475,192,78057,128,8,78724:0:0:0:0:
402,192,78224,1,8,0:0:0:0:
109,192,78391,1,8,0:0:0:0:
402,192,78557,1,8,0:0:0:0:
109,192,78724,1,0,0:0:0:0:
329,192,78724,1,8,0:0:0:0:
182,192,78724,1,4,0:0:0:0:
182,192,79057,1,0,1:0:0:0:
329,192,79057,1,0,1:0:0:0:
182,192,79391,1,0,1:0:0:0:
329,192,79391,1,0,1:0:0:0:
182,192,79557,1,0,1:0:0:0:
329,192,79557,1,0,1:0:0:0:
256,192,79724,1,4,0:0:0:0:
36,192,79724,1,0,0:0:0:0:
475,192,79724,1,4,1:0:0:0:
182,192,80057,1,0,1:0:0:0:
329,192,80057,1,0,1:0:0:0:
402,192,80224,1,0,1:0:0:0:
109,192,80307,1,0,1:0:0:0:
402,192,80391,1,0,1:0:0:0:
109,192,80557,1,0,1:0:0:0:
402,192,80724,1,0,1:0:0:0:
256,192,80891,1,4,3:0:0:0:
36,192,80891,1,0,0:0:0:0:
475,192,80891,1,0,0:0:0:0:
36,192,81057,1,0,0:0:0:0:
256,192,81057,1,4,3:0:0:0:
475,192,81057,1,0,0:0:0:0:
256,192,81224,1,4,3:0:0:0:
36,192,81224,1,0,0:0:0:0:
475,192,81224,1,0,0:0:0:0:
109,192,81391,1,4,3:0:0:0:
402,192,81391,1,8,0:0:0:0:
329,192,81557,1,8,0:0:0:0:
182,192,81641,1,8,0:0:0:0:
329,192,81724,1,8,0:0:0:0:
109,192,81891,128,0,82057:0:0:0:0:
402,192,81891,128,8,82057:0:0:0:0:
182,192,82057,1,4,3:0:0:0:
329,192,82057,1,8,0:0:0:0:
475,192,82141,1,8,0:0:0:0:
402,192,82224,1,8,0:0:0:0:
329,192,82307,1,8,0:0:0:0:
36,192,82391,1,8,0:0:0:0:
109,192,82474,1,8,0:0:0:0:
182,192,82557,1,8,0:0:0:0:
256,192,82641,1,8,0:0:0:0:
402,192,82724,1,8,0:0:0:0:
109,192,82724,1,4,3:0:0:0:
36,192,82891,1,0,0:0:0:0:
475,192,82891,1,8,0:0:0:0:
182,192,82974,1,0,0:0:0:0:
329,192,82974,1,8,0:0:0:0:
256,192,83057,1,8,0:0:0:0:
109,192,83224,1,0,0:0:0:0:
402,192,83224,1,8,0:0:0:0:
182,192,83391,128,4,84057:3:0:0:0:
329,192,83391,128,8,84057:0:0:0:0:
36,192,83724,128,4,84057:3:0:0:0:
475,192,83724,128,8,84057:0:0:0:0:
109,192,84057,1,4,3:0:0:0:
402,192,84057,1,8,0:0:0:0:
475,192,84224,1,8,0:0:0:0:
36,192,84224,1,0,0:0:0:0:
182,192,84307,1,0,0:0:0:0:
329,192,84307,1,8,0:0:0:0:
109,192,84391,1,4,3:0:0:0:
402,192,84391,1,8,0:0:0:0:
329,192,84557,1,8,0:0:0:0:
182,192,84641,1,8,0:0:0:0:
329,192,84724,1,8,0:0:0:0:
182,192,84807,1,8,0:0:0:0:
329,192,84891,1,8,0:0:0:0:
109,192,84974,1,8,0:0:0:0:
402,192,85057,128,8,85224:0:0:0:0:
36,192,85224,128,0,85391:0:0:0:0:
475,192,85224,128,8,85391:0:0:0:0:
256,192,85391,1,8,0:0:0:0:
402,192,85474,1,8,0:0:0:0:
109,192,85474,1,0,0:0:0:0:
256,192,85557,1,8,0:0:0:0:
109,192,85641,1,0,0:0:0:0:
402,192,85641,1,8,0:0:0:0:
256,192,85724,1,8,0:0:0:0:
329,192,85807,1,8,0:0:0:0:
182,192,85891,1,8,0:0:0:0:
329,192,85974,1,8,0:0:0:0:
256,192,86057,1,8,0:0:0:0:
329,192,86224,1,8,0:0:0:0:
182,192,86224,1,0,0:0:0:0:
36,192,86391,128,4,86724:3:0:0:0:
256,192,86391,128,4,86724:0:0:0:0:
475,192,86391,128,8,86724:0:0:0:0:
109,192,86724,128,4,87224:3:0:0:0:
329,192,86891,1,8,0:0:0:0:
402,192,86974,1,8,0:0:0:0:
475,192,87057,1,8,0:0:0:0:
402,192,87141,1,8,0:0:0:0:
329,192,87224,1,8,0:0:0:0:
182,192,87391,1,8,0:0:0:0:
402,192,87391,128,4,87891:3:0:0:0:
109,192,87474,1,8,0:0:0:0:
36,192,87557,1,8,0:0:0:0:
109,192,87641,1,8,0:0:0:0:
182,192,87724,1,8,0:0:0:0:
256,192,87807,1,8,0:0:0:0:
329,192,87891,1,8,0:0:0:0:
36,192,88057,1,4,3:0:0:0:
475,192,88057,1,8,0:0:0:0:
402,192,88141,1,8,0:0:0:0:
109,192,88141,1,0,0:0:0:0:
329,192,88224,1,8,0:0:0:0:
182,192,88224,1,0,0:0:0:0:
256,192,88307,1,8,0:0:0:0:
109,192,88391,1,8,0:0:0:0:
402,192,88391,1,0,0:0:0:0:
256,192,88557,1,8,0:0:0:0:
36,192,88724,1,4,3:0:0:0:
109,192,88724,1,0,0:0:0:0:
402,192,88724,1,8,0:0:0:0:
475,192,88724,1,0,0:0:0:0:
256,192,88891,1,8,0:0:0:0:
182,192,89057,1,0,0:0:0:0:
109,192,89057,1,0,0:0:0:0:
36,192,89057,1,4,3:0:0:0:
329,192,89057,1,8,0:0:0:0:
402,192,89057,1,0,0:0:0:0:
475,192,89057,1,0,0:0:0:0:
256,192,89224,1,8,0:0:0:0:
182,192,89391,1,4,3:0:0:0:
329,192,89391,1,8,0:0:0:0:
109,192,89474,1,0,0:0:0:0:
402,192,89474,1,8,0:0:0:0:
256,192,89641,1,8,0:0:0:0:
109,192,89724,1,4,3:0:0:0:
402,192,89724,1,8,0:0:0:0:
329,192,89891,1,8,0:0:0:0:
182,192,89891,1,0,0:0:0:0:
36,192,90057,128,4,90724:3:0:0:0:
475,192,90057,128,8,90724:0:0:0:0:
402,192,90224,1,8,0:0:0:0:
109,192,90391,1,8,0:0:0:0:
182,192,90474,1,8,0:0:0:0:
256,192,90557,1,8,0:0:0:0:
329,192,90641,1,8,0:0:0:0:
402,192,90724,1,8,0:0:0:0:
109,192,90724,1,4,3:0:0:0:
256,192,90891,1,8,0:0:0:0:
109,192,91057,1,4,3:0:0:0:
402,192,91057,1,8,0:0:0:0:
256,192,91224,1,8,0:0:0:0:
109,192,91391,128,4,91724:3:0:0:0:
402,192,91391,128,8,91724:0:0:0:0:
256,192,91724,128,8,92057:0:0:0:0:
182,192,91724,128,4,92057:3:0:0:0:
329,192,91724,128,0,92057:0:0:0:0:
402,192,92057,128,8,92224:0:0:0:0:
256,192,92224,128,8,92307:0:0:0:0:
109,192,92307,128,8,92474:0:0:0:0:
256,192,92474,128,8,92557:0:0:0:0:
402,192,92557,128,8,92724:0:0:0:0:
329,192,92724,128,8,92891:0:0:0:0:
256,192,92891,128,8,93057:0:0:0:0:
402,192,93057,1,4,3:0:0:0:
109,192,93057,1,8,0:0:0:0:
109,192,93224,1,8,0:0:0:0:
402,192,93224,1,0,0:0:0:0:
109,192,93391,128,8,93474:0:0:0:0:
182,192,93474,128,8,93557:0:0:0:0:
256,192,93557,128,8,93641:0:0:0:0:
329,192,93641,128,8,93724:0:0:0:0:
402,192,93724,128,8,93891:0:0:0:0:
329,192,93891,128,8,94057:0:0:0:0:
182,192,94057,128,8,94224:0:0:0:0:
256,192,94224,128,8,94391:0:0:0:0:
182,192,94391,1,8,0:0:0:0:
329,192,94391,1,4,3:0:0:0:
329,192,94557,1,0,0:0:0:0:
182,192,94557,1,8,0:0:0:0:
475,192,94724,128,8,94891:0:0:0:0:
36,192,94724,128,4,94891:3:0:0:0:
109,192,94891,128,0,95057:0:0:0:0:
402,192,94891,128,8,95057:0:0:0:0:
182,192,95057,128,4,95141:3:0:0:0:
329,192,95057,128,8,95141:0:0:0:0:
256,192,95141,1,8,0:0:0:0:
256,192,95307,1,8,0:0:0:0:
182,192,95391,128,4,95557:3:0:0:0:
329,192,95391,128,8,95557:0:0:0:0:
109,192,95557,128,0,95724:0:0:0:0:
402,192,95557,128,8,95724:0:0:0:0:
36,192,95724,128,4,95891:3:0:0:0:
475,192,95724,128,8,95891:0:0:0:0:
109,192,95891,128,0,96057:0:0:0:0:
402,192,95891,128,8,96057:0:0:0:0:
182,192,96057,128,8,96724:0:0:0:0:
256,192,96224,128,8,96724:0:0:0:0:
329,192,96391,128,8,96724:0:0:0:0:
36,192,96724,128,8,97391:0:0:0:0:
109,192,96807,128,8,97391:0:0:0:0:
182,192,96891,128,8,97391:0:0:0:0:
329,192,97057,128,8,97391:0:0:0:0:
402,192,97057,128,4,97391:0:0:0:0:
256,192,97391,1,8,0:0:0:0:
36,192,97557,1,8,0:0:0:0:
475,192,97557,1,0,0:0:0:0:
402,192,97724,1,4,3:0:0:0:
109,192,97724,1,8,0:0:0:0:
36,192,97891,1,8,0:0:0:0:
475,192,97891,1,0,0:0:0:0:
182,192,97974,1,8,0:0:0:0:
329,192,97974,1,0,0:0:0:0:
182,192,98224,1,8,0:0:0:0:
329,192,98224,1,0,0:0:0:0:
109,192,98391,1,8,0:0:0:0:
402,192,98391,1,4,3:0:0:0:
36,192,98557,1,8,0:0:0:0:
475,192,98557,1,0,0:0:0:0:
182,192,98724,1,8,0:0:0:0:
329,192,98724,1,4,3:0:0:0:
36,192,98891,1,8,0:0:0:0:
475,192,98891,1,0,0:0:0:0:
182,192,98974,1,8,0:0:0:0:
329,192,98974,1,0,0:0:0:0:
36,192,99057,1,8,0:0:0:0:
475,192,99057,1,4,3:0:0:0:
109,192,99224,1,8,0:0:0:0:
402,192,99224,1,0,0:0:0:0:
329,192,99391,1,4,3:0:0:0:
182,192,99391,1,8,0:0:0:0:
256,192,99557,1,8,0:0:0:0:
182,192,99724,1,8,0:0:0:0:
329,192,99724,1,4,3:0:0:0:
109,192,99891,1,8,0:0:0:0:
402,192,99891,1,0,0:0:0:0:
256,192,100057,1,8,0:0:0:0:
36,192,100141,1,8,0:0:0:0:
475,192,100141,1,0,0:0:0:0:
256,192,100224,1,8,0:0:0:0:
109,192,100391,1,4,3:0:0:0:
402,192,100391,1,8,0:0:0:0:
182,192,100557,128,0,100724:0:0:0:0:
329,192,100557,128,8,100724:0:0:0:0:
256,192,100724,128,8,100891:0:0:0:0:
182,192,100891,1,0,0:0:0:0:
329,192,100891,1,8,0:0:0:0:
109,192,100974,1,0,0:0:0:0:
402,192,100974,1,8,0:0:0:0:
36,192,101057,1,4,3:0:0:0:
475,192,101057,1,8,0:0:0:0:
109,192,101391,1,4,3:0:0:0:
182,192,101391,1,0,0:0:0:0:
402,192,101391,1,4,0:0:0:0:
329,192,101391,1,8,0:0:0:0:
402,192,101724,1,4,0:0:0:0:
329,192,101724,1,8,0:0:0:0:
182,192,101724,1,0,0:0:0:0:
109,192,101724,1,4,3:0:0:0:
402,192,102057,1,4,0:0:0:0:
329,192,102057,1,8,0:0:0:0:
182,192,102057,1,0,0:0:0:0:
109,192,102057,1,4,3:0:0:0:
256,192,102391,128,4,102474:3:0:0:0:
36,192,102724,1,4,1:0:0:0:
182,192,102724,1,0,1:0:0:0:
329,192,102724,1,8,0:0:0:0:
475,192,102724,1,4,0:0:0:0:
182,192,103057,1,4,3:0:0:0:
329,192,103057,1,0,0:0:0:0:
182,192,103724,1,4,3:0:0:0:
329,192,103724,1,0,0:0:0:0:
182,192,104057,1,4,3:0:0:0:
329,192,104057,1,0,0:0:0:0:
182,192,104280,1,4,3:0:0:0:
329,192,104391,1,4,3:0:0:0:
182,192,104613,1,4,3:0:0:0:
329,192,104724,1,4,3:0:0:0:
329,192,105057,1,0,0:0:0:0:
182,192,105057,1,4,3:0:0:0:
36,192,105391,1,4,2:0:0:0:
256,192,105391,1,4,3:0:0:0:
475,192,105391,1,4,1:0:0:0:
182,192,105724,1,4,3:0:0:0:
329,192,105724,1,0,0:0:0:0:
182,192,106280,1,4,3:0:0:0:
329,192,106280,1,0,0:0:0:0:
182,192,106613,1,0,0:0:0:0:
36,192,106613,1,4,3:0:0:0:
329,192,106724,1,0,0:0:0:0:
475,192,106724,1,4,3:0:0:0:
182,192,106835,1,0,0:0:0:0:
36,192,106835,1,4,3:0:0:0:
329,192,106946,1,0,0:0:0:0:
475,192,106946,1,4,3:0:0:0:
182,192,107057,1,0,0:0:0:0:
36,192,107057,1,4,3:0:0:0:
329,192,107169,1,0,0:0:0:0:
475,192,107169,1,4,3:0:0:0:
182,192,107280,1,0,0:0:0:0:
36,192,107280,1,4,3:0:0:0:
475,192,107613,1,0,3:0:0:0:
329,192,107613,1,0,3:0:0:0:
329,192,107946,1,0,3:0:0:0:
256,192,108057,1,4,3:0:0:0:
36,192,108057,1,4,0:0:0:0:
475,192,108057,1,4,1:0:0:0:
182,192,108391,1,4,3:0:0:0:
329,192,108391,1,0,0:0:0:0:
182,192,109057,1,4,3:0:0:0:
329,192,109057,1,0,0:0:0:0:
182,192,109391,1,4,3:0:0:0:
329,192,109391,1,0,0:0:0:0:
182,192,109613,1,4,3:0:0:0:
329,192,109724,1,4,3:0:0:0:
182,192,109946,1,4,3:0:0:0:
329,192,109946,1,0,0:0:0:0:
182,192,110391,1,4,3:0:0:0:
329,192,110391,1,0,0:0:0:0:
256,192,110724,1,4,3:0:0:0:
475,192,110724,1,4,1:0:0:0:
36,192,110724,1,4,0:0:0:0:
182,192,111057,1,4,3:0:0:0:
329,192,111057,1,0,0:0:0:0:
182,192,111613,1,4,3:0:0:0:
329,192,111613,1,0,0:0:0:0:
182,192,111946,1,4,3:0:0:0:
36,192,112057,5,4,2:0:0:0:
329,192,112057,1,4,3:0:0:0:
109,192,112891,1,0,0:0:0:0:
402,192,112891,1,0,0:0:0:0:
256,192,112891,1,0,0:0:0:0:
109,192,113057,1,0,0:0:0:0:
402,192,113057,1,0,0:0:0:0:
256,192,113057,1,0,0:0:0:0:
402,192,113224,1,0,0:0:0:0:
109,192,113224,1,0,0:0:0:0:
256,192,113224,1,0,0:0:0:0:
256,192,113391,1,4,3:0:0:0:
402,192,113391,1,4,1:0:0:0:
109,192,113391,1,0,1:0:0:0:
256,192,113724,128,8,113891:0:0:0:0:
36,192,113891,128,0,114057:0:0:0:0:
475,192,113891,128,8,114057:0:0:0:0:
256,192,114057,128,8,114391:0:0:0:0:
109,192,114391,128,0,114557:0:0:0:0:
402,192,114391,128,8,114557:0:0:0:0:
256,192,114557,128,8,114724:0:0:0:0:
109,192,114724,128,0,115057:0:0:0:0:
402,192,114724,128,8,115057:0:0:0:0:
182,192,115057,128,0,115224:0:0:0:0:
329,192,115057,128,8,115224:0:0:0:0:
36,192,115224,128,0,115391:0:0:0:0:
475,192,115224,128,8,115391:0:0:0:0:
329,192,115391,128,8,115557:0:0:0:0:
182,192,115391,128,0,115557:0:0:0:0:
36,192,115557,128,0,115724:0:0:0:0:
475,192,115557,128,8,115724:0:0:0:0:
402,192,115724,128,8,115891:0:0:0:0:
109,192,115724,128,0,115891:0:0:0:0:
182,192,115891,128,0,116057:0:0:0:0:
329,192,115891,128,8,116057:0:0:0:0:
256,192,116057,1,8,0:0:0:0:
109,192,116224,1,0,0:0:0:0:
402,192,116224,1,8,0:0:0:0:
402,192,116391,1,8,0:0:0:0:
109,192,116391,1,0,0:0:0:0:
329,192,116557,1,0,0:0:0:0:
402,192,116557,1,8,0:0:0:0:
182,192,116641,1,8,0:0:0:0:
109,192,116641,1,0,0:0:0:0:
329,192,116724,1,0,0:0:0:0:
402,192,116724,1,8,0:0:0:0:
475,192,116891,1,8,0:0:0:0:
36,192,116891,1,0,0:0:0:0:
402,192,116974,1,8,0:0:0:0:
109,192,116974,1,0,0:0:0:0:
329,192,117057,1,8,0:0:0:0:
182,192,117057,1,0,0:0:0:0:
256,192,117224,128,8,117557:0:0:0:0:
475,192,117557,128,8,117724:0:0:0:0:
36,192,117557,128,0,117724:0:0:0:0:
256,192,117724,128,8,117891:0:0:0:0:
402,192,117891,128,8,118057:0:0:0:20:
109,192,117891,128,0,118057:0:0:0:20:
329,192,117891,128,0,118057:0:0:0:20:
182,192,117891,128,0,118057:0:0:0:20:
256,192,118057,128,8,118224:0:0:0:0:
182,192,118224,128,0,118391:0:0:0:0:
329,192,118224,128,8,118391:0:0:0:0:
256,192,118391,128,8,118557:0:0:0:0:
36,192,118557,128,0,118724:0:0:0:0:
475,192,118557,128,8,118724:0:0:0:0:
256,192,118724,128,8,118891:0:0:0:0:
109,192,118891,128,0,119057:0:0:0:0:
402,192,118891,128,8,119057:0:0:0:0:
256,192,119057,128,8,119224:0:0:0:0:
36,192,119224,128,0,119391:0:0:0:0:
475,192,119224,128,8,119391:0:0:0:0:
256,192,119391,128,8,119557:0:0:0:0:
109,192,119557,128,0,119724:0:0:0:0:
402,192,119557,128,8,119724:0:0:0:0:
256,192,119724,128,8,119891:0:0:0:0:
36,192,119891,128,0,120057:0:0:0:0:
475,192,119891,128,8,120057:0:0:0:0:
256,192,120057,128,8,121391:0:0:0:0:
475,192,120224,128,8,121391:0:0:0:0:
36,192,120557,128,8,121391:0:0:0:0:
402,192,120891,1,8,0:0:0:0:
109,192,121057,1,8,0:0:0:0:
402,192,121224,1,8,0:0:0:0:
182,192,121391,1,4,0:0:0:0:
329,192,121391,1,8,0:0:0:0:
402,192,121557,1,8,0:0:0:0:
109,192,121557,1,0,0:0:0:0:
36,192,121724,1,0,0:0:0:0:
475,192,121724,1,8,0:0:0:0:
329,192,121891,1,8,0:0:0:0:
182,192,121891,1,4,0:0:0:0:
109,192,122057,1,0,0:0:0:0:
402,192,122057,1,8,0:0:0:0:
36,192,122224,1,0,0:0:0:0:
475,192,122224,1,8,0:0:0:0:
329,192,122391,1,8,0:0:0:0:
182,192,122391,1,4,0:0:0:0:
109,192,122557,1,0,0:0:0:0:
402,192,122557,1,8,0:0:0:0:
36,192,122724,1,0,0:0:0:0:
475,192,122724,1,8,0:0:0:0:
182,192,122891,1,4,0:0:0:0:
329,192,122891,1,8,0:0:0:0:
109,192,123057,1,0,0:0:0:0:
402,192,123057,1,8,0:0:0:0:
36,192,123224,1,0,0:0:0:0:
475,192,123224,1,8,0:0:0:0:
256,192,123391,1,4,3:0:0:0:
109,192,123391,1,4,0:0:0:0:
402,192,123391,1,8,0:0:0:0:
109,192,123724,1,0,1:0:0:0:
182,192,123724,1,0,0:0:0:0:
256,192,123724,1,4,3:0:0:0:
402,192,123724,1,4,0:0:0:0:
329,192,123724,1,4,0:0:0:0:
475,192,124057,128,0,124391:0:0:0:0:
402,192,124057,128,0,124391:0:0:0:0:
329,192,124057,128,8,124391:0:0:0:0:
182,192,124391,128,8,124557:0:0:0:0:
109,192,124391,128,0,124557:0:0:0:0:
36,192,124391,128,0,124557:0:0:0:0:
329,192,124557,128,8,124891:0:0:0:0:
402,192,124557,128,0,124891:0:0:0:0:
475,192,124557,128,0,124891:0:0:0:0:
182,192,124891,1,8,0:0:0:0:
109,192,124891,1,0,0:0:0:0:
36,192,124891,1,0,0:0:0:0:
475,192,125057,1,0,0:0:0:0:
402,192,125057,1,0,0:0:0:0:
329,192,125057,1,8,0:0:0:0:
182,192,125224,1,8,0:0:0:0:
109,192,125224,1,0,0:0:0:0:
36,192,125224,1,0,0:0:0:0:
475,192,125391,128,0,125724:0:0:0:0:
402,192,125391,128,0,125724:0:0:0:0:
329,192,125391,128,8,125724:0:0:0:0:
182,192,125724,128,8,125891:0:0:0:0:
109,192,125724,128,0,125891:0:0:0:0:
36,192,125724,128,0,125891:0:0:0:0:
402,192,125891,128,0,126224:0:0:0:0:
475,192,125891,128,0,126224:0:0:0:0:
329,192,125891,128,8,126224:0:0:0:0:
182,192,126224,1,8,0:0:0:0:
109,192,126224,1,0,0:0:0:0:
36,192,126224,1,0,0:0:0:0:
402,192,126391,1,0,0:0:0:0:
329,192,126391,1,8,0:0:0:0:
475,192,126391,1,0,0:0:0:0:
36,192,126557,1,0,0:0:0:0:
182,192,126557,1,8,0:0:0:0:
109,192,126557,1,0,0:0:0:0:
329,192,126724,128,8,127057:0:0:0:0:
402,192,126724,128,0,127057:0:0:0:0:
475,192,126724,128,0,127057:0:0:0:0:
36,192,127057,128,0,127224:0:0:0:0:
109,192,127057,128,0,127224:0:0:0:0:
182,192,127057,128,8,127224:0:0:0:0:
329,192,127224,128,8,127557:0:0:0:0:
475,192,127224,128,0,127557:0:0:0:0:
402,192,127224,128,0,127557:0:0:0:0:
36,192,127557,1,0,0:0:0:0:
109,192,127557,1,0,0:0:0:0:
182,192,127557,1,8,0:0:0:0:
475,192,127724,1,0,0:0:0:0:
329,192,127724,1,8,0:0:0:0:
402,192,127724,1,0,0:0:0:0:
109,192,127891,1,0,0:0:0:0:
182,192,127891,1,8,0:0:0:0:
36,192,127891,1,0,0:0:0:0:
256,192,128057,1,8,0:0:0:0:
329,192,128057,1,0,0:0:0:0:
182,192,128057,1,0,0:0:0:0:
256,192,128224,1,8,0:0:0:0:
402,192,128224,1,0,0:0:0:0:
109,192,128224,1,0,0:0:0:0:
256,192,128391,1,8,0:0:0:0:
475,192,128391,1,0,0:0:0:0:
36,192,128391,1,0,0:0:0:0:
256,192,128557,1,8,0:0:0:0:
182,192,128557,1,0,0:0:0:0:
329,192,128557,1,0,0:0:0:0:
109,192,128724,1,0,0:0:0:0:
402,192,128724,1,0,0:0:0:0:
256,192,128724,1,8,0:0:0:0:
329,192,128891,1,0,0:0:0:0:
182,192,128891,1,0,0:0:0:0:
36,192,129057,128,4,129391:0:0:0:0:
475,192,129057,128,4,129391:3:0:0:0:
109,192,129391,128,0,129724:0:0:0:0:
182,192,129391,128,0,129724:0:0:0:0:
329,192,129391,128,4,129724:0:0:0:0:
402,192,129391,128,8,129724:0:0:0:0:
256,192,129724,128,8,129891:0:0:0:0:
36,192,129891,128,0,130057:0:0:0:0:
475,192,129891,128,8,130057:0:0:0:0:
182,192,130057,128,0,130391:0:0:0:0:
109,192,130057,128,0,130391:0:0:0:0:
402,192,130057,128,8,130391:0:0:0:0:
329,192,130057,128,4,130391:0:0:0:0:
256,192,130391,128,8,130557:0:0:0:0:
36,192,130557,128,0,130724:0:0:0:0:
475,192,130557,128,8,130724:0:0:0:0:
329,192,130724,128,4,131057:0:0:0:0:
402,192,130724,128,8,131057:0:0:0:0:
182,192,130724,128,0,131057:0:0:0:0:
109,192,130724,128,0,131057:0:0:0:0:
256,192,131057,128,8,131224:0:0:0:0:
36,192,131224,128,0,131391:0:0:0:0:
475,192,131224,128,8,131391:0:0:0:0:
402,192,131391,128,8,132057:0:0:0:0:
109,192,131391,128,0,132057:0:0:0:0:
182,192,131557,128,0,132057:0:0:0:0:
329,192,131557,128,8,132057:0:0:0:0:
256,192,131724,128,8,132057:0:0:0:0:
36,192,132057,1,8,0:0:0:0:
475,192,132224,1,0,0:0:0:0:
256,192,132224,1,8,0:0:0:0:
36,192,132391,1,8,0:0:0:0:
475,192,132557,1,0,0:0:0:0:
256,192,132557,1,8,0:0:0:0:
109,192,132724,1,0,0:0:0:0:
182,192,132724,1,8,0:0:0:0:
402,192,132891,1,0,0:0:0:0:
329,192,132891,1,8,0:0:0:0:
182,192,133057,1,0,0:0:0:0:
256,192,133057,1,8,0:0:0:0:
329,192,133224,128,4,133557:0:0:0:0:
256,192,133557,128,8,133724:0:0:0:0:
182,192,133724,128,0,133891:0:0:0:0:
329,192,133724,128,8,133891:0:0:0:0:
109,192,133891,128,0,134057:0:0:0:0:
402,192,133891,128,8,134057:0:0:0:0:
36,192,134057,1,0,0:0:0:0:
475,192,134057,1,8,0:0:0:0:
109,192,134224,1,0,0:0:0:0:
402,192,134224,1,8,0:0:0:0:
182,192,134391,1,0,0:0:0:0:
329,192,134391,1,8,0:0:0:0:
256,192,134557,1,8,0:0:0:0:
36,192,134724,1,0,0:0:0:0:
475,192,134724,1,4,2:0:0:0:
182,192,134724,1,0,0:0:0:0:
329,192,134724,1,8,0:0:0:0:
329,192,135057,1,8,0:0:0:0:
402,192,135224,1,8,0:0:0:0:
402,192,135391,1,8,0:0:0:0:
256,192,135724,1,8,0:0:0:0:
182,192,136057,1,8,0:0:0:0:
182,192,136391,1,8,0:0:0:0:
109,192,136557,1,8,0:0:0:0:
109,192,136724,1,8,0:0:0:0:
256,192,136891,1,8,0:0:0:0:
256,192,137057,1,8,0:0:0:0:
256,192,137224,1,8,0:0:0:0:
329,192,137391,1,8,0:0:0:0:
329,192,137724,1,8,0:0:0:0:
402,192,137891,1,8,0:0:0:0:
402,192,138057,1,8,0:0:0:0:
256,192,138391,1,8,0:0:0:0:
256,192,138557,1,8,0:0:0:0:
182,192,138891,1,8,0:0:0:0:
182,192,139224,1,8,0:0:0:0:
109,192,139391,1,8,0:0:0:0:
256,192,139391,1,4,1:0:0:0:
402,192,139391,1,4,0:0:0:0:
109,192,139724,1,8,0:0:0:0:
402,192,139724,1,4,0:0:0:0:
256,192,139724,1,4,1:0:0:0:
36,192,140057,1,4,1:0:0:0:
256,192,140057,1,8,0:0:0:0:
475,192,140057,1,4,0:0:0:0:
329,192,140057,1,0,0:0:0:0:
182,192,140057,1,4,1:0:0:0:
329,192,140391,1,8,0:0:0:0:
402,192,140557,1,8,0:0:0:0:
402,192,140724,1,8,0:0:0:0:
256,192,141057,1,8,0:0:0:0:
182,192,141391,1,8,0:0:0:0:
182,192,141724,1,8,0:0:0:0:
109,192,141891,1,8,0:0:0:0:
109,192,142057,1,8,0:0:0:0:
256,192,142224,1,8,0:0:0:0:
256,192,142391,1,8,0:0:0:0:
256,192,142557,1,8,0:0:0:0:
329,192,142724,1,8,0:0:0:0:
329,192,143057,1,8,0:0:0:0:
402,192,143224,1,8,0:0:0:0:
402,192,143391,1,8,0:0:0:0:
475,192,143724,1,8,0:0:0:0:
36,192,143724,1,0,0:0:0:0:
329,192,143891,1,8,0:0:0:0:
182,192,143891,1,0,0:0:0:0:
256,192,144224,1,8,0:0:0:0:
109,192,144391,1,0,0:0:0:0:
402,192,144391,1,8,0:0:0:0:
256,192,144557,1,8,0:0:0:0:
109,192,144724,1,0,0:0:0:0:
402,192,144724,1,8,0:0:0:0:
256,192,145057,1,4,3:0:0:0:
36,192,145391,1,0,0:0:0:0:
475,192,145391,1,8,0:0:0:0:
182,192,145474,1,0,0:0:0:0:
329,192,145474,1,8,0:0:0:0:
109,192,145724,1,0,0:0:0:0:
402,192,145724,1,8,0:0:0:0:
329,192,146057,128,8,146307:0:0:0:0:
182,192,146057,128,0,146307:0:0:0:0:
182,192,146391,128,0,146641:0:0:0:0:
329,192,146391,128,8,146641:0:0:0:0:
329,192,146724,1,8,0:0:0:0:
182,192,146724,1,0,0:0:0:0:
36,192,146807,1,0,0:0:0:0:
475,192,146807,1,8,0:0:0:0:
109,192,146974,1,0,0:0:0:0:
402,192,146974,1,8,0:0:0:0:
329,192,147224,1,0,0:0:0:0:
402,192,147224,1,8,0:0:0:0:
182,192,147307,1,8,0:0:0:0:
109,192,147307,1,0,0:0:0:0:
402,192,147391,1,8,0:0:0:0:
329,192,147391,1,0,0:0:0:0:
182,192,147557,1,8,0:0:0:0:
109,192,147557,1,0,0:0:0:0:
256,192,147724,1,8,0:0:0:0:
475,192,147891,1,8,0:0:0:0:
36,192,147891,1,0,0:0:0:0:
329,192,147974,1,8,0:0:0:0:
182,192,147974,1,0,0:0:0:0:
36,192,148057,1,0,0:0:0:0:
475,192,148057,1,8,0:0:0:0:
182,192,148141,1,0,0:0:0:0:
329,192,148141,1,8,0:0:0:0:
256,192,148307,1,8,0:0:0:0:
109,192,148724,128,0,149057:0:0:0:0:
182,192,148724,128,8,149057:0:0:0:0:
329,192,149057,128,8,149391:0:0:0:0:
402,192,149057,128,0,149391:0:0:0:0:
256,192,149391,1,8,0:0:0:0:
36,192,149557,1,0,0:0:0:0:
475,192,149557,1,8,0:0:0:0:
36,192,149891,1,0,0:0:0:0:
475,192,149891,1,8,0:0:0:0:
109,192,149974,1,0,0:0:0:0:
402,192,149974,1,8,0:0:0:0:
182,192,150057,1,0,0:0:0:0:
329,192,150057,1,8,0:0:0:0:
109,192,150224,1,0,0:0:0:0:
402,192,150224,1,8,0:0:0:0:
329,192,150391,1,8,0:0:0:0:
182,192,150391,1,0,0:0:0:0:
182,192,150557,1,0,0:0:0:0:
329,192,150557,1,8,0:0:0:0:
182,192,150724,1,0,0:0:0:0:
329,192,150724,1,8,0:0:0:0:
36,192,150891,1,0,0:0:0:0:
475,192,150891,1,8,0:0:0:0:
109,192,151391,128,0,151641:0:0:0:0:
402,192,151391,128,8,151641:0:0:0:0:
109,192,151724,128,0,151974:0:0:0:0:
402,192,151724,128,8,151974:0:0:0:0:
402,192,152057,1,8,0:0:0:0:
109,192,152057,1,0,0:0:0:0:
329,192,152224,1,8,0:0:0:0:
182,192,152224,1,0,0:0:0:0:
182,192,152724,1,0,0:0:0:0:
329,192,152724,1,8,0:0:0:0:
109,192,152891,1,0,0:0:0:0:
402,192,152891,1,8,0:0:0:0:
182,192,153391,1,0,0:0:0:0:
329,192,153391,1,8,0:0:0:0:
36,192,153557,1,0,0:0:0:0:
475,192,153557,1,8,0:0:0:0:
402,192,153724,1,8,0:0:0:0:
109,192,153724,1,0,0:0:0:0:
182,192,153807,1,0,0:0:0:0:
329,192,153807,1,8,0:0:0:0:
256,192,153974,1,8,0:0:0:0:
402,192,154057,128,8,154391:0:0:0:0:
109,192,154057,128,0,154391:0:0:0:0:
182,192,154391,128,0,154724:0:0:0:0:
329,192,154391,128,8,154724:0:0:0:0:
109,192,154724,128,4,154891:3:0:0:0:
402,192,154724,128,8,154891:0:0:0:0:
182,192,154891,128,0,155057:0:0:0:0:
329,192,154891,128,8,155057:0:0:0:0:
109,192,155057,128,4,155224:3:0:0:0:
402,192,155057,128,8,155224:0:0:0:0:
182,192,155224,128,0,155391:0:0:0:0:
329,192,155224,128,8,155391:0:0:0:0:
109,192,155391,1,4,3:0:0:0:
402,192,155391,1,8,0:0:0:0:
36,192,155724,1,0,0:0:0:0:
475,192,155724,1,12,0:0:0:0:
109,192,155807,1,0,0:0:0:0:
402,192,155807,1,8,0:0:0:0:
329,192,155891,1,8,0:0:0:0:
182,192,155891,1,0,0:0:0:0:
256,192,155974,1,8,0:0:0:0:
402,192,156057,1,8,0:0:0:0:
109,192,156224,1,8,0:0:0:0:
402,192,156307,1,8,0:0:0:0:
109,192,156391,1,8,0:0:0:0:
402,192,156474,1,8,0:0:0:0:
109,192,156557,1,8,0:0:0:0:
402,192,156641,1,8,0:0:0:0:
109,192,156724,128,8,157391:0:0:0:0:
182,192,156891,128,8,157391:0:0:0:0:
402,192,157057,128,8,157391:0:0:0:0:
329,192,157224,128,8,157391:0:0:0:0:
36,192,157391,128,8,158057:0:0:0:0:
475,192,157557,128,8,158057:0:0:0:0:
109,192,157724,128,8,158057:0:0:0:0:
402,192,157891,128,8,158057:0:0:0:0:
256,192,158057,128,8,158391:0:0:0:0:
182,192,158391,1,4,0:0:0:0:
109,192,158391,1,0,0:0:0:0:
402,192,158391,1,8,0:0:0:0:
329,192,158391,1,4,1:0:0:0:
36,192,158724,128,0,160057:0:0:0:0:
475,192,158724,128,8,160057:0:0:0:0:
402,192,159057,128,8,159391:0:0:0:0:
109,192,159057,128,0,159391:0:0:0:0:
182,192,159391,1,0,0:0:0:0:
329,192,159391,1,8,0:0:0:0:
256,192,159724,1,8,0:0:0:0:
329,192,160057,1,8,0:0:0:0:
182,192,160057,1,0,0:0:0:0:
182,192,160224,1,0,0:0:0:0:
329,192,160224,1,8,0:0:0:0:
109,192,160391,1,0,0:0:0:0:
402,192,160391,1,8,0:0:0:0:
109,192,160557,1,0,0:0:0:0:
402,192,160557,1,8,0:0:0:0:
256,192,160724,1,8,0:0:0:0:
36,192,161057,1,0,0:0:0:0:
256,192,161057,1,4,0:0:0:0:
475,192,161057,1,8,0:0:0:0:
109,192,161391,1,0,0:0:0:0:
329,192,161391,1,8,0:0:0:0:
182,192,161557,1,0,0:0:0:0:
402,192,161557,1,8,0:0:0:0:
109,192,161724,1,0,0:0:0:0:
329,192,161724,1,8,0:0:0:0:
402,192,161891,1,8,0:0:0:0:
182,192,161891,1,0,0:0:0:0:
256,192,162057,1,0,1:0:0:0:
36,192,162057,1,0,0:0:0:0:
475,192,162057,1,8,0:0:0:0:
256,192,162391,1,0,1:0:0:0:
36,192,162391,1,0,0:0:0:0:
475,192,162391,1,8,0:0:0:0:
36,192,162557,1,0,0:0:0:0:
256,192,162557,1,0,1:0:0:0:
475,192,162557,1,8,0:0:0:0:
182,192,162724,1,0,0:0:0:0:
402,192,162724,1,8,0:0:0:0:
109,192,162891,1,0,0:0:0:0:
329,192,162891,1,8,0:0:0:0:
182,192,163057,1,0,0:0:0:0:
402,192,163057,1,8,0:0:0:0:
109,192,163224,1,0,0:0:0:0:
329,192,163224,1,8,0:0:0:0:
256,192,163391,1,0,1:0:0:0:
36,192,163391,1,0,0:0:0:0:
475,192,163391,1,8,0:0:0:0:
256,192,163557,1,0,1:0:0:0:
36,192,163557,1,0,0:0:0:0:
475,192,163557,1,8,0:0:0:0:
256,192,163724,1,0,1:0:0:0:
475,192,163724,1,8,0:0:0:0:
36,192,163724,1,0,0:0:0:0:
256,192,164057,1,0,1:0:0:0:
182,192,164057,1,4,0:0:0:0:
109,192,164057,1,0,0:0:0:0:
329,192,164057,1,4,0:0:0:0:
402,192,164057,1,0,0:0:0:0:
256,192,164391,1,0,1:0:0:0:
182,192,164391,1,4,0:0:0:0:
109,192,164391,1,0,0:0:0:0:
329,192,164391,1,4,0:0:0:0:
402,192,164391,1,0,0:0:0:0:
182,192,164724,1,4,0:0:0:0:
475,192,164724,1,0,0:0:0:0:
329,192,164724,1,0,1:0:0:0:
36,192,164724,1,0,0:0:0:0:
182,192,164891,1,4,0:0:0:0:
475,192,164891,1,0,0:0:0:0:
329,192,164891,1,0,1:0:0:0:
36,192,164891,1,0,0:0:0:0:
182,192,165057,1,4,0:0:0:0:
36,192,165057,1,0,0:0:0:0:
475,192,165057,1,0,0:0:0:0:
329,192,165057,1,0,1:0:0:0:
182,192,165391,1,0,1:0:0:0:
109,192,165391,1,0,0:0:0:0:
36,192,165391,1,0,0:0:0:0:
475,192,165391,1,0,0:0:0:0:
402,192,165391,1,0,0:0:0:0:
329,192,165391,1,4,3:0:0:0:
182,192,165724,1,0,1:0:0:0:
109,192,165724,1,0,0:0:0:0:
475,192,165724,1,0,0:0:0:0:
402,192,165724,1,0,0:0:0:0:
329,192,165724,1,4,3:0:0:0:
36,192,165724,1,0,0:0:0:0:
402,192,166057,1,0,0:0:0:0:
329,192,166057,1,4,3:0:0:0:
36,192,166057,1,0,0:0:0:0:
182,192,166057,1,0,1:0:0:0:
109,192,166057,1,0,0:0:0:0:
475,192,166057,1,0,0:0:0:0:
182,192,166391,1,0,1:0:0:0:
109,192,166391,1,0,0:0:0:0:
475,192,166391,1,0,0:0:0:0:
402,192,166391,1,0,0:0:0:0:
329,192,166391,1,4,3:0:0:0:
36,192,166391,1,0,0:0:0:0:
329,192,166724,128,2,167057:0:0:0:0:
182,192,167057,128,2,167391:0:0:0:0:
329,192,167391,128,2,167724:0:0:0:0:
256,192,167724,128,2,168057:0:0:0:0:
402,192,168224,1,0,0:0:0:0:
182,192,168224,1,0,0:0:0:0:
109,192,168224,1,0,0:0:0:0:
329,192,168224,1,4,0:0:0:0:
402,192,168391,1,0,0:0:0:0:
329,192,168391,1,4,0:0:0:0:
182,192,168391,1,0,0:0:0:0:
109,192,168391,1,0,0:0:0:0:
402,192,168557,1,0,0:0:0:0:
329,192,168557,1,4,0:0:0:0:
182,192,168557,1,0,0:0:0:0:
109,192,168557,1,0,0:0:0:0:
182,192,168724,1,0,0:0:0:0:
109,192,168724,1,0,0:0:0:0:
329,192,168724,1,4,0:0:0:0:
402,192,168724,1,0,0:0:0:0:
402,192,168891,1,0,0:0:0:0:
329,192,168891,1,4,0:0:0:0:
182,192,168891,1,0,0:0:0:0:
109,192,168891,1,0,0:0:0:0:
402,192,169057,1,0,0:0:0:0:
329,192,169057,1,4,0:0:0:0:
182,192,169057,1,0,0:0:0:0:
109,192,169057,1,0,0:0:0:0:
402,192,169224,1,0,0:0:0:0:
329,192,169224,1,4,0:0:0:0:
182,192,169224,1,0,0:0:0:0:
109,192,169224,1,0,0:0:0:0:
182,192,169391,1,0,1:0:0:0:
109,192,169391,1,0,0:0:0:0:
329,192,169391,128,4,169724:0:0:0:0:
402,192,169391,128,4,169724:0:0:0:0:
182,192,169724,128,8,169891:0:0:0:0:
109,192,169724,128,0,169891:0:0:0:0:
329,192,169891,128,8,170057:0:0:0:0:
402,192,169891,128,0,170057:0:0:0:0:
182,192,170057,128,8,170391:0:0:0:0:
109,192,170057,128,0,170391:0:0:0:0:
329,192,170391,128,8,170557:0:0:0:0:
402,192,170391,128,0,170557:0:0:0:0:
182,192,170557,128,8,170724:0:0:0:0:
109,192,170557,128,0,170724:0:0:0:0:
329,192,170724,128,8,171057:0:0:0:0:
402,192,170724,128,0,171057:0:0:0:0:
256,192,171057,1,8,0:0:0:0:
36,192,171057,1,0,0:0:0:0:
109,192,171224,1,0,0:0:0:0:
329,192,171224,1,8,0:0:0:0:
182,192,171391,1,0,0:0:0:0:
402,192,171391,1,8,0:0:0:0:
256,192,171557,1,0,0:0:0:0:
475,192,171557,1,8,0:0:0:0:
402,192,171724,1,8,0:0:0:0:
182,192,171724,1,0,0:0:0:0:
329,192,171891,1,8,0:0:0:0:
109,192,171891,1,0,0:0:0:0:
36,192,172057,1,0,0:0:0:0:
402,192,172057,1,8,0:0:0:0:
329,192,172224,1,8,0:0:0:0:
182,192,172224,1,0,0:0:0:0:
36,192,172391,1,0,0:0:0:0:
475,192,172391,1,8,0:0:0:0:
36,192,172557,1,0,0:0:0:0:
475,192,172557,1,8,0:0:0:0:
109,192,172641,1,0,0:0:0:0:
402,192,172641,1,8,0:0:0:0:
182,192,172724,1,0,0:0:0:0:
329,192,172724,1,8,0:0:0:0:
256,192,172891,1,8,0:0:0:0:
36,192,173057,1,0,0:0:0:0:
475,192,173057,1,8,0:0:0:0:
109,192,173224,128,8,173557:0:0:0:0:
402,192,173224,128,4,173557:0:0:0:0:
256,192,173557,128,8,173724:0:0:0:0:
182,192,173724,128,0,173891:0:0:0:0:
329,192,173724,128,8,173891:0:0:0:0:
256,192,173891,128,8,174057:0:0:0:0:
109,192,174057,128,0,174224:0:0:0:0:
402,192,174057,128,8,174224:0:0:0:0:
329,192,174224,1,8,0:0:0:0:
182,192,174224,1,0,0:0:0:0:
256,192,174391,1,0,0:0:0:0:
109,192,174391,1,0,0:0:0:0:
402,192,174391,1,8,0:0:0:0:
36,192,174557,1,0,0:0:0:0:
475,192,174557,1,8,0:0:0:0:
329,192,174724,128,8,174891:0:0:0:0:
402,192,174724,128,0,174891:0:0:0:0:
475,192,174724,128,0,174891:0:0:0:0:
182,192,174891,128,8,175057:0:0:0:0:
109,192,174891,128,0,175057:0:0:0:0:
36,192,174891,128,0,175057:0:0:0:0:
329,192,175057,128,8,175224:0:0:0:0:
475,192,175057,128,0,175224:0:0:0:0:
402,192,175057,128,0,175224:0:0:0:0:
36,192,175224,128,0,175391:0:0:0:0:
109,192,175224,128,0,175391:0:0:0:0:
182,192,175224,128,8,175391:0:0:0:0:
402,192,175391,128,0,175557:0:0:0:0:
475,192,175391,128,0,175557:0:0:0:0:
329,192,175391,128,8,175557:0:0:0:0:
182,192,175557,128,8,175724:0:0:0:0:
109,192,175557,128,0,175724:0:0:0:0:
36,192,175557,128,0,175724:0:0:0:0:
329,192,175724,128,8,175891:0:0:0:0:
475,192,175724,128,0,175891:0:0:0:0:
402,192,175724,128,0,175891:0:0:0:0:
36,192,175891,128,0,176057:0:0:0:0:
109,192,175891,128,0,176057:0:0:0:0:
182,192,175891,128,8,176057:0:0:0:0:
402,192,176057,128,0,176224:0:0:0:0:
475,192,176057,128,0,176224:0:0:0:0:
329,192,176057,128,8,176224:0:0:0:0:
182,192,176224,128,8,176557:0:0:0:0:
109,192,176224,128,0,176557:0:0:0:0:
36,192,176224,128,0,176557:0:0:0:0:
329,192,176557,128,8,176891:0:0:0:0:
402,192,176557,128,0,176891:0:0:0:0:
475,192,176557,128,0,176891:0:0:0:0:
36,192,176891,1,8,0:0:0:0:
109,192,177057,1,8,0:0:0:0:
182,192,177224,1,8,0:0:0:0:
256,192,177391,1,4,2:0:0:0:
109,192,177391,1,8,0:0:0:0:
402,192,177391,1,0,0:0:0:0:
109,192,177557,1,8,0:0:0:0:
402,192,177557,1,0,0:0:0:0:
109,192,177724,1,8,0:0:0:0:
402,192,177724,1,0,0:0:0:0:
256,192,177891,1,4,2:0:0:0:
36,192,177891,1,8,0:0:0:0:
475,192,177891,1,0,0:0:0:0:
36,192,178057,1,8,0:0:0:0:
475,192,178057,1,0,0:0:0:0:
36,192,178224,1,8,0:0:0:0:
475,192,178224,1,0,0:0:0:0:
256,192,178391,1,4,2:0:0:0:
109,192,178391,1,8,0:0:0:0:
402,192,178391,1,0,0:0:0:0:
109,192,178557,1,8,0:0:0:0:
402,192,178557,1,0,0:0:0:0:
109,192,178724,1,8,0:0:0:0:
402,192,178724,1,0,0:0:0:0:
256,192,178891,1,4,2:0:0:0:
182,192,178891,1,8,0:0:0:0:
329,192,178891,1,0,0:0:0:0:
182,192,179057,1,8,0:0:0:0:
329,192,179057,1,0,0:0:0:0:
182,192,179224,1,8,0:0:0:0:
329,192,179224,1,0,0:0:0:0:
36,192,179391,1,0,1:0:0:0:
109,192,179391,1,0,1:0:0:0:
182,192,179391,1,8,0:0:0:0:
475,192,179391,1,0,0:0:0:0:
402,192,179391,1,0,0:0:0:0:
329,192,179391,1,0,0:0:0:0:
475,192,179724,1,0,0:0:0:0:
402,192,179724,1,4,2:0:0:0:
329,192,179724,1,0,0:0:0:0:
182,192,179724,1,0,0:0:0:0:
109,192,179724,1,4,1:0:0:0:
36,192,179724,1,0,1:0:0:0:
475,192,180057,128,0,180391:0:0:0:0:
402,192,180057,128,0,180391:0:0:0:0:
329,192,180057,128,8,180391:0:0:0:0:
182,192,180391,128,8,180557:0:0:0:0:
109,192,180391,128,0,180557:0:0:0:0:
36,192,180391,128,0,180557:0:0:0:0:
329,192,180557,128,8,180891:0:0:0:0:
402,192,180557,128,0,180891:0:0:0:0:
475,192,180557,128,0,180891:0:0:0:0:
182,192,180891,1,8,0:0:0:0:
109,192,180891,1,0,0:0:0:0:
36,192,180891,1,0,0:0:0:0:
182,192,181057,1,8,0:0:0:0:
109,192,181057,1,0,0:0:0:0:
36,192,181057,1,0,0:0:0:0:
182,192,181224,1,8,0:0:0:0:
109,192,181224,1,0,0:0:0:0:
36,192,181224,1,0,0:0:0:0:
109,192,181391,128,0,181724:0:0:0:0:
182,192,181391,128,8,181724:0:0:0:0:
36,192,181391,128,0,181724:0:0:0:0:
475,192,181724,128,0,181891:0:0:0:0:
329,192,181724,128,8,181891:0:0:0:0:
402,192,181724,128,0,181891:0:0:0:0:
109,192,181891,128,0,182224:0:0:0:0:
36,192,181891,128,0,182224:0:0:0:0:
182,192,181891,128,8,182224:0:0:0:0:
402,192,182224,1,0,0:0:0:0:
475,192,182224,1,0,0:0:0:0:
329,192,182224,1,8,0:0:0:0:
475,192,182391,1,0,0:0:0:0:
402,192,182391,1,0,0:0:0:0:
329,192,182391,1,8,0:0:0:0:
329,192,182557,1,8,0:0:0:0:
475,192,182557,1,0,0:0:0:0:
402,192,182557,1,0,0:0:0:0:
475,192,182724,128,0,183057:0:0:0:0:
329,192,182724,128,8,183057:0:0:0:0:
402,192,182724,128,0,183057:0:0:0:0:
109,192,183057,128,0,183224:0:0:0:0:
182,192,183057,128,8,183224:0:0:0:0:
36,192,183057,128,0,183224:0:0:0:0:
402,192,183224,128,0,183557:0:0:0:0:
475,192,183224,128,0,183557:0:0:0:0:
329,192,183224,128,8,183557:0:0:0:0:
182,192,183557,1,8,0:0:0:0:
109,192,183557,1,0,0:0:0:0:
36,192,183557,1,0,0:0:0:0:
109,192,183724,1,0,0:0:0:0:
36,192,183724,1,0,0:0:0:0:
182,192,183724,1,8,0:0:0:0:
36,192,183891,1,0,0:0:0:0:
109,192,183891,1,0,0:0:0:0:
182,192,183891,1,8,0:0:0:0:
256,192,184057,1,8,0:0:0:0:
182,192,184224,1,0,0:0:0:0:
329,192,184224,1,8,0:0:0:0:
109,192,184391,1,0,0:0:0:0:
402,192,184391,1,8,0:0:0:0:
182,192,184557,1,0,0:0:0:0:
329,192,184557,1,8,0:0:0:0:
36,192,184724,128,8,185057:0:0:0:0:
475,192,184724,128,4,185057:3:0:0:0:
256,192,184891,1,0,0:0:0:0:
182,192,185057,1,0,0:0:0:0:
329,192,185057,1,8,0:0:0:0:
256,192,185391,1,0,1:0:0:0:
182,192,185391,1,4,2:0:0:0:
109,192,185391,1,0,0:0:0:0:
475,192,185391,128,0,185724:0:0:0:0:
329,192,185391,128,8,185724:0:0:0:0:
182,192,185724,128,8,185891:0:0:0:0:
36,192,185724,128,0,185891:0:0:0:0:
329,192,185891,128,8,186057:0:0:0:0:
475,192,185891,128,0,186057:0:0:0:0:
182,192,186057,128,8,186391:0:0:0:0:
36,192,186057,128,0,186391:0:0:0:0:
329,192,186391,128,8,186557:0:0:0:0:
475,192,186391,128,0,186557:0:0:0:0:
182,192,186557,128,8,186724:0:0:0:0:
36,192,186557,128,0,186724:0:0:0:0:
329,192,186724,128,8,187057:0:0:0:0:
475,192,186724,128,0,187057:0:0:0:0:
36,192,187057,128,0,187224:0:0:0:0:
182,192,187057,128,8,187224:0:0:0:0:
475,192,187224,128,0,187391:0:0:0:0:
329,192,187224,128,8,187391:0:0:0:0:
182,192,187391,128,8,187557:0:0:0:0:
109,192,187391,128,0,187557:0:0:0:0:
329,192,187557,128,8,187724:0:0:0:0:
402,192,187557,128,0,187724:0:0:0:0:
182,192,187724,128,8,187891:0:0:0:0:
109,192,187724,128,0,187891:0:0:0:0:
329,192,187891,128,8,188057:0:0:0:0:
402,192,187891,128,0,188057:0:0:0:0:
256,192,188057,128,8,188224:0:0:0:0:
36,192,188224,128,0,188391:0:0:0:0:
475,192,188224,128,8,188391:0:0:0:0:
256,192,188391,128,8,188557:0:0:0:0:
182,192,188557,128,0,188724:0:0:0:0:
329,192,188557,128,8,188724:0:0:0:0:
256,192,188724,1,8,0:0:0:0:
256,192,188891,128,8,189057:0:0:0:0:
182,192,189057,128,0,189224:0:0:0:0:
329,192,189057,128,8,189224:0:0:0:0:
36,192,189224,128,4,189557:2:0:0:0:
475,192,189224,128,8,189557:0:0:0:0:
109,192,189557,1,0,0:0:0:0:
402,192,189557,1,8,0:0:0:0:
329,192,189724,1,8,0:0:0:0:
182,192,189724,1,0,0:0:0:0:
256,192,189891,1,8,0:0:0:0:
182,192,190057,1,0,0:0:0:0:
329,192,190057,1,8,0:0:0:0:
109,192,190224,1,0,0:0:0:0:
402,192,190224,1,8,0:0:0:0:
36,192,190391,1,0,0:0:0:0:
475,192,190391,1,8,0:0:0:0:
109,192,190557,1,0,0:0:0:0:
402,192,190557,1,8,0:0:0:0:
256,192,190724,1,4,0:0:0:0:
182,192,190724,1,4,0:0:0:0:
36,192,190724,1,0,0:0:0:0:
329,192,190724,1,0,0:0:0:0:
475,192,190724,1,8,0:0:0:0:
256,192,191057,1,0,1:0:0:0:
182,192,191057,1,4,0:0:0:0:
36,192,191057,1,0,0:0:0:0:
329,192,191057,1,0,0:0:0:0:
475,192,191057,1,0,0:0:0:0:
182,192,191391,1,8,1:0:0:0:
36,192,191391,1,0,0:0:0:0:
329,192,191391,1,8,0:0:0:0:
475,192,191391,1,0,0:0:0:0:
475,192,191557,1,0,0:0:0:0:
329,192,191557,1,8,0:0:0:0:
182,192,191557,1,8,1:0:0:0:
36,192,191557,1,0,0:0:0:0:
36,192,191724,1,0,0:0:0:0:
182,192,191724,1,8,1:0:0:0:
329,192,191724,1,8,0:0:0:0:
475,192,191724,1,0,0:0:0:0:
329,192,192057,1,4,0:0:0:0:
402,192,192057,1,0,0:0:0:0:
182,192,192057,1,4,1:0:0:0:
109,192,192057,1,0,1:0:0:0:
329,192,192391,1,4,0:0:0:0:
182,192,192391,1,0,0:0:0:0:
329,192,192557,1,4,0:0:0:0:
182,192,192557,1,0,0:0:0:0:
256,192,192724,1,4,0:0:0:0:
402,192,192891,1,4,3:0:0:0:
329,192,192891,1,4,0:0:0:0:
475,192,192891,1,0,0:0:0:0:
182,192,192891,1,0,0:0:0:0:
109,192,192891,1,0,0:0:0:0:
36,192,192891,1,0,0:0:0:0:
182,192,193057,1,0,0:0:0:0:
109,192,193057,1,0,0:0:0:0:
36,192,193057,1,0,0:0:0:0:
475,192,193057,1,0,0:0:0:0:
402,192,193057,1,4,3:0:0:0:
329,192,193057,1,4,0:0:0:0:
182,192,193224,1,0,0:0:0:0:
109,192,193224,1,0,0:0:0:0:
36,192,193224,1,0,0:0:0:0:
475,192,193224,1,0,0:0:0:0:
402,192,193224,1,4,3:0:0:0:
329,192,193224,1,4,0:0:0:0:
182,192,193391,1,0,1:0:0:0:
109,192,193391,1,4,1:0:0:0:
36,192,193391,1,0,0:0:0:0:
475,192,193391,1,0,0:0:0:0:
402,192,193391,1,4,3:0:0:0:
329,192,193391,1,4,0:0:0:0:
256,192,193724,1,8,0:0:0:0:
36,192,193891,1,0,0:0:0:0:
475,192,193891,1,8,0:0:0:0:
182,192,193974,1,0,0:0:0:0:
329,192,193974,1,8,0:0:0:0:
36,192,194057,1,0,0:0:0:0:
475,192,194057,1,8,0:0:0:0:
109,192,194224,128,0,194391:0:0:0:0:
402,192,194224,128,8,194391:0:0:0:0:
36,192,194557,128,0,194724:0:0:0:0:
182,192,194557,128,8,194724:0:0:0:0:
329,192,194724,1,8,0:0:0:0:
475,192,194724,1,0,0:0:0:0:
182,192,194891,1,8,0:0:0:0:
36,192,194891,1,0,0:0:0:0:
475,192,194974,1,0,0:0:0:0:
329,192,194974,1,8,0:0:0:0:
182,192,195057,1,8,0:0:0:0:
36,192,195057,1,0,0:0:0:0:
475,192,195224,1,0,0:0:0:0:
329,192,195224,1,8,0:0:0:0:
182,192,195391,128,8,195557:0:0:0:0:
36,192,195391,128,0,195557:0:0:0:0:
329,192,195557,128,8,195724:0:0:0:0:
475,192,195557,128,0,195724:0:0:0:0:
109,192,195724,128,0,195891:0:0:0:0:
182,192,195724,128,8,195891:0:0:0:0:
329,192,195891,128,8,196057:0:0:0:0:
402,192,195891,128,0,196057:0:0:0:0:
256,192,196057,128,8,196224:0:0:0:0:
36,192,196391,128,0,196557:0:0:0:0:
475,192,196391,128,8,196557:0:0:0:0:
256,192,196557,1,8,0:0:0:0:
402,192,196641,1,8,0:0:0:0:
109,192,196641,1,0,0:0:0:0:
256,192,196724,1,8,0:0:0:0:
256,192,196891,128,8,197057:0:0:0:0:
402,192,197224,1,0,0:0:0:0:
329,192,197224,1,8,0:0:0:0:
182,192,197307,1,8,0:0:0:0:
109,192,197307,1,0,0:0:0:0:
402,192,197391,128,0,197557:0:0:0:0:
329,192,197391,128,8,197557:0:0:0:0:
182,192,197557,128,8,197891:0:0:0:0:
36,192,197557,128,0,197891:0:0:0:0:
329,192,197891,1,8,0:0:0:0:
475,192,197891,1,0,0:0:0:0:
36,192,198057,1,8,0:0:0:0:
182,192,198141,1,0,0:0:0:0:
109,192,198141,1,8,0:0:0:0:
475,192,198224,1,8,0:0:0:0:
329,192,198307,1,0,0:0:0:0:
402,192,198307,1,8,0:0:0:0:
256,192,198391,1,8,0:0:0:0:
36,192,198391,1,0,0:0:0:0:
109,192,198557,1,8,0:0:0:0:
182,192,198599,1,8,0:0:0:0:
256,192,198641,1,8,0:0:0:0:
329,192,198682,1,8,0:0:0:0:
402,192,198724,128,8,199057:0:0:0:0:
256,192,199057,1,8,0:0:0:0:
182,192,199057,1,0,0:0:0:0:
36,192,199224,1,0,0:0:0:0:
475,192,199224,1,8,0:0:0:0:
182,192,199307,1,0,0:0:0:0:
329,192,199307,1,8,0:0:0:0:
36,192,199391,128,0,199557:0:0:0:0:
475,192,199391,128,8,199557:0:0:0:0:
329,192,199557,128,8,199724:0:0:0:0:
182,192,199557,128,0,199724:0:0:0:0:
256,192,199724,1,8,0:0:0:0:
36,192,199891,128,0,200057:0:0:0:0:
475,192,199891,128,8,200057:0:0:0:0:
256,192,200057,1,8,0:0:0:0:
109,192,200224,1,0,0:0:0:0:
402,192,200224,1,8,0:0:0:0:
256,192,200307,1,8,0:0:0:0:
109,192,200391,1,0,0:0:0:0:
402,192,200391,1,8,0:0:0:0:
182,192,200557,1,0,0:0:0:0:
329,192,200557,1,8,0:0:0:0:
36,192,200724,128,0,200891:0:0:0:0:
475,192,200724,128,8,200891:0:0:0:0:
256,192,200891,128,8,201057:0:0:0:0:
182,192,201057,128,0,201224:0:0:0:0:
329,192,201057,128,8,201224:0:0:0:0:
256,192,201224,128,8,201391:0:0:0:0:
109,192,201391,128,0,201724:0:0:0:0:
402,192,201391,128,8,201724:0:0:0:0:
256,192,201724,128,8,201891:0:0:0:0:
402,192,201891,1,0,0:0:0:0:
329,192,201891,1,8,0:0:0:0:
182,192,201974,1,8,0:0:0:0:
109,192,201974,1,0,0:0:0:0:
402,192,202057,1,0,0:0:0:0:
329,192,202057,1,8,0:0:0:0:
402,192,202224,1,0,0:0:0:0:
329,192,202224,1,8,0:0:0:0:
36,192,202391,128,0,202724:0:0:0:0:
475,192,202391,128,8,202724:0:0:0:0:
182,192,202557,1,0,0:0:0:0:
329,192,202557,1,8,0:0:0:0:
402,192,202724,1,8,0:0:0:0:
329,192,202807,1,8,0:0:0:0:
402,192,202891,1,8,0:0:0:0:
329,192,202974,1,8,0:0:0:0:
109,192,203057,1,8,0:0:0:0:
182,192,203141,1,8,0:0:0:0:
109,192,203224,1,8,0:0:0:0:
182,192,203307,1,8,0:0:0:0:
475,192,203391,1,10,0:0:0:0:
402,192,203474,1,10,0:0:0:0:
329,192,203557,1,10,0:0:0:0:
256,192,203641,1,10,0:0:0:0:
36,192,203724,1,10,0:0:0:0:
109,192,203807,1,10,0:0:0:0:
182,192,203891,1,10,0:0:0:0:
402,192,204057,1,0,0:0:0:0:
329,192,204057,1,4,0:0:0:0:
182,192,204057,1,0,1:0:0:0:
109,192,204057,1,0,0:0:0:0:
36,192,204391,1,0,0:0:0:0:
109,192,204391,1,0,0:0:0:0:
475,192,204391,1,0,0:0:0:0:
402,192,204391,1,8,0:0:0:0:
182,192,204557,1,0,0:0:0:0:
329,192,204557,1,8,0:0:0:0:
36,192,204641,1,0,0:0:0:0:
475,192,204641,1,8,0:0:0:0:
182,192,204724,128,0,204891:0:0:0:0:
329,192,204724,128,8,204891:0:0:0:0:
256,192,204891,128,8,205057:0:0:0:0:
36,192,205224,128,0,205391:0:0:0:0:
475,192,205224,128,8,205391:0:0:0:0:
109,192,205391,128,0,205557:0:0:0:0:
402,192,205391,128,8,205557:0:0:0:0:
256,192,205557,128,8,205641:0:0:0:0:
402,192,205641,128,8,205724:0:0:0:0:
109,192,205641,128,0,205724:0:0:0:0:
256,192,205724,128,8,205891:0:0:0:0:
36,192,205891,128,0,206057:0:0:0:0:
475,192,205891,128,8,206057:0:0:0:0:
256,192,206057,128,8,206224:0:0:0:0:
109,192,206224,128,0,206391:0:0:0:0:
402,192,206224,128,8,206391:0:0:0:0:
256,192,206391,128,8,206557:0:0:0:0:
182,192,206557,128,0,206724:0:0:0:0:
329,192,206557,128,8,206724:0:0:0:0:
256,192,206724,128,8,206891:0:0:0:0:
36,192,207057,128,0,207224:0:0:0:0:
475,192,207057,128,0,207224:0:0:0:0:
402,192,207057,128,8,207224:0:0:0:0:
109,192,207057,128,0,207224:0:0:0:0:
256,192,207391,1,8,0:0:0:0:
109,192,207474,1,0,0:0:0:0:
402,192,207474,1,8,0:0:0:0:
256,192,207557,1,8,0:0:0:0:
36,192,207891,1,0,0:0:0:0:
475,192,207891,1,8,0:0:0:0:
182,192,207974,1,0,0:0:0:0:
329,192,207974,1,8,0:0:0:0:
256,192,208057,1,8,0:0:0:0:
109,192,208224,128,0,208391:0:0:0:0:
402,192,208224,128,8,208391:0:0:0:0:
256,192,208557,128,8,208724:0:0:0:0:
36,192,208724,1,8,0:0:0:0:
182,192,208807,1,8,0:0:0:0:
475,192,208891,1,8,0:0:0:0:
329,192,208974,1,8,0:0:0:0:
182,192,209057,1,8,0:0:0:0:
109,192,209224,1,8,0:0:0:0:
182,192,209266,1,8,0:0:0:0:
256,192,209307,1,8,0:0:0:0:
329,192,209349,1,8,0:0:0:0:
402,192,209391,128,8,209557:0:0:0:0:
109,192,209724,1,0,0:0:0:0:
402,192,209724,1,8,0:0:0:0:
402,192,209891,1,8,0:0:0:0:
109,192,209891,1,0,0:0:0:0:
182,192,209974,1,0,0:0:0:0:
329,192,209974,1,8,0:0:0:0:
109,192,210057,128,0,210224:0:0:0:0:
402,192,210057,128,8,210224:0:0:0:0:
256,192,210224,128,8,210391:0:0:0:0:
475,192,210557,128,0,210724:0:0:0:0:
329,192,210557,128,8,210724:0:0:0:0:
182,192,210724,1,8,0:0:0:0:
36,192,210724,1,0,0:0:0:0:
475,192,210891,1,0,0:0:0:0:
329,192,210891,1,8,0:0:0:0:
182,192,210974,1,8,0:0:0:0:
36,192,210974,1,0,0:0:0:0:
329,192,211057,1,8,0:0:0:0:
475,192,211057,1,0,0:0:0:0:
182,192,211224,128,8,211391:0:0:0:0:
36,192,211224,128,0,211391:0:0:0:0:
329,192,211391,128,8,211557:0:0:0:0:
475,192,211391,128,0,211557:0:0:0:0:
256,192,211557,128,8,211724:0:0:0:0:
182,192,211724,128,0,211891:0:0:0:0:
329,192,211724,128,8,211891:0:0:0:0:
109,192,211891,128,0,212057:0:0:0:0:
402,192,211891,128,8,212057:0:0:0:0:
475,192,212057,1,8,0:0:0:0:
329,192,212141,1,8,0:0:0:0:
475,192,212224,1,8,0:0:0:0:
329,192,212307,1,8,0:0:0:0:
36,192,212391,1,8,0:0:0:0:
182,192,212474,1,8,0:0:0:0:
36,192,212557,1,8,0:0:0:0:
182,192,212641,1,8,0:0:0:0:
256,192,212724,1,8,0:0:0:0:
329,192,212807,1,8,0:0:0:0:
402,192,212891,128,8,213391:0:0:0:0:
256,192,213391,1,4,3:0:0:0:
329,192,213557,1,8,0:0:0:0:
182,192,213724,1,2,0:0:0:0:
182,192,213891,1,2,0:0:0:0:
256,192,214057,128,0,214391:3:0:0:0:
