osu file format v13

[General]
AudioFilename: +++++++.mp3
AudioLeadIn: 0
PreviewTime: 56874
Countdown: 0
SampleSet: Soft
StackLeniency: 0.2
Mode: 0
LetterboxInBreaks: 0
WidescreenStoryboard: 1

[Editor]
DistanceSpacing: 0.9
BeatDivisor: 4
GridSize: 4
TimelineZoom: 1.7

[Metadata]
Title:+Danshi
TitleUnicode:+♂
Artist:Reol
ArtistUnicode:れをる
Creator:fanzhen0019
Version:ABCDYES
Source:
Tags:giga-p plus
BeatmapID:429478
BeatmapSetID:178550

[Difficulty]
HPDrainRate:8
CircleSize:4
OverallDifficulty:8
ApproachRate:9
SliderMultiplier:1.6
SliderTickRate:1

[Events]
//Background and Video events
0,0,"kiminokiminokiminokimino.png",0,0
Video,0,"pipipi.avi"
//Break Periods
2,145574,155441
//Storyboard Layer 0 (Background)
//Storyboard Layer 1 (Fail)
//Storyboard Layer 2 (Pass)
//Storyboard Layer 3 (Foreground)
//Storyboard Sound Samples
//Background Colour Transformations
3,100,163,162,255

[TimingPoints]
41,333.333333333333,4,2,0,70,1,0
14374,-50,4,2,0,70,0,0
14707,-83.3333333333333,4,2,0,70,0,1
17707,-66.6666666666667,4,2,0,70,0,1
18707,-83.3333333333333,4,2,0,70,0,1
20041,-66.6666666666667,4,2,0,70,0,1
20374,-83.3333333333333,4,2,0,70,0,1
23041,-66.6666666666667,4,2,0,70,0,1
24207,-66.6666666666667,4,2,0,70,0,0
24374,-50,4,2,0,70,0,0
25374,-100,4,2,1,70,0,0
46707,-200,4,2,0,70,0,0
55596,-100,4,2,0,70,0,0
55819,-66.6666666666667,4,2,0,70,0,0
57374,-76.9230769230769,4,2,0,70,0,1
67374,-50,4,2,0,70,0,1
68041,-76.9230769230769,4,2,0,70,0,1
78707,-76.9230769230769,4,2,0,70,0,0
79041,-133.333333333333,4,2,0,70,0,0
81374,-100,4,2,1,70,0,0
97041,-83.3333333333333,4,2,1,70,0,0
97374,-100,4,2,1,70,0,0
102374,-133.333333333333,4,2,0,70,0,0
102707,-200,4,2,0,70,0,0
103207,-133.333333333333,4,2,0,70,0,0
112874,-66.6666666666667,4,2,0,70,0,0
113374,-76.9230769230769,4,2,0,70,0,1
123374,-50,4,2,0,70,0,1
124041,-76.9230769230769,4,2,0,70,0,1
134707,-100,4,2,0,70,0,0
144707,-76.9230769230769,4,2,0,70,0,0
156041,-100,4,2,0,70,0,0
168874,-76.9230769230769,4,2,0,70,0,0
169374,-66.6666666666667,4,2,0,70,0,1
179374,-50,4,2,0,70,0,1
180041,-66.6666666666667,4,2,0,70,0,1
190707,-58.8235294117647,4,2,0,70,0,0
191041,-100,4,2,0,70,0,0
193374,-66.6666666666667,4,2,0,70,0,0
193707,-100,4,2,0,70,0,0
196374,-66.6666666666667,4,2,0,70,0,0
196707,-100,4,2,0,70,0,0
198707,-66.6666666666667,4,2,0,70,0,0
199041,-100,4,2,0,70,0,0
203374,-66.6666666666667,4,2,0,70,0,0
204041,-66.6666666666667,4,2,0,70,0,1
204124,-66.6666666666667,4,2,0,70,0,0
204374,-100,4,2,0,70,0,0
207041,-66.6666666666667,4,2,0,70,0,0
208041,-100,4,2,0,70,0,0
209374,-66.6666666666667,4,2,0,70,0,0
209707,-100,4,2,0,70,0,0
213707,-66.6666666666667,4,2,0,70,0,0
214041,-133.333333333333,4,2,0,70,0,0

[Colours]
Combo1 : 255,255,128
Combo2 : 255,128,255
Combo3 : 166,255,166
Combo4 : 255,128,128

[HitObjects]
40,328,708,5,0,0:0:0:0:
164,344,1374,1,0,0:0:0:0:
176,224,2041,1,0,0:0:0:0:
52,208,2707,1,0,0:0:0:0:
52,208,3374,5,0,0:0:0:0:
204,192,4041,1,0,0:0:0:0:
188,40,4707,1,0,0:0:0:0:
36,56,5374,1,0,0:0:0:0:
476,56,6041,5,0,0:0:0:0:
324,40,6708,1,0,0:0:0:0:
308,192,7374,1,0,0:0:0:0:
460,208,8041,1,0,0:0:0:0:
460,208,8707,5,0,0:0:0:0:
308,340,9374,1,0,0:0:0:0:
204,44,10041,1,0,0:0:0:0:
52,176,10708,1,0,0:0:0:0:
256,192,10874,12,0,13207,0:0:0:0:
112,84,13374,6,0,L|132:180,1,80
192,72,13624,1,0,0:0:0:0:
184,84,13707,6,0,L|204:180,1,80
264,76,13957,1,0,0:0:0:0:
256,88,14041,6,0,L|264:128,1,40
284,204,14207,6,0,L|292:244,1,40
288,324,14374,6,0,P|352:344|364:212,1,240
284,204,14707,6,0,L|128:216,1,143.999995605469
72,240,15041,2,0,P|60:292|72:336,1,95.9999970703126
84,340,15291,1,0,0:0:0:0:
100,344,15374,1,0,0:0:0:0:
168,296,15541,1,0,0:0:0:0:
44,164,15707,2,0,L|48:52,1,95.9999970703126
184,88,16041,5,0,0:0:0:0:
224,100,16124,1,0,0:0:0:0:
268,96,16207,1,0,0:0:0:0:
308,76,16291,1,0,0:0:0:0:
332,40,16374,2,0,L|328:135,1,95.9999970703126
296,272,16707,5,0,0:0:0:0:
484,236,16874,1,0,0:0:0:0:
376,344,17041,5,0,0:0:0:0:
396,148,17208,1,0,0:0:0:0:
212,212,17374,1,0,0:0:0:0:
212,212,17707,6,0,P|164:252|104:232,1,120.000004577637
80,196,17957,1,0,0:0:0:0:
48,152,18041,5,0,0:0:0:0:
40,164,18124,1,0,0:0:0:0:
32,176,18207,1,0,0:0:0:0:
88,56,18374,1,0,0:0:0:0:
164,120,18541,1,0,0:0:0:0:
176,124,18624,1,0,0:0:0:0:
188,128,18707,6,0,P|216:88|212:40,1,95.9999970703126
213,42,18957,1,0,0:0:0:0:
213,42,19041,1,0,0:0:0:0:
376,44,19207,1,0,0:0:0:0:
304,120,19374,5,0,0:0:0:0:
296,160,19457,1,0,0:0:0:0:
308,200,19541,1,0,0:0:0:0:
336,232,19624,1,0,0:0:0:0:
376,248,19707,1,0,0:0:0:0:
480,240,19874,6,0,L|504:220,2,31.9999990234375
488,192,20041,6,0,B|464:296|520:276|496:372,1,180.000006866455
424,336,20374,2,0,L|328:344,1,95.9999970703126
328,343,20624,1,0,0:0:0:0:
328,343,20707,1,0,0:0:0:0:
200,248,20874,1,0,0:0:0:0:
136,304,21041,2,0,P|84:296|48:256,1,95.9999970703126
24,148,21374,5,0,0:0:0:0:
60,168,21457,1,0,0:0:0:0:
104,168,21541,1,0,0:0:0:0:
140,148,21624,1,0,0:0:0:0:
164,112,21707,1,0,0:0:0:0:
168,68,21791,1,0,0:0:0:0:
148,28,21874,1,0,0:0:0:0:
84,84,22041,5,0,0:0:0:0:
288,96,22207,1,0,0:0:0:0:
224,236,22374,5,0,0:0:0:0:
236,32,22540,1,0,0:0:0:0:
444,44,22707,2,0,L|442:141,1,95.9999970703126
392,216,23041,6,0,B|394:239|394:239|405:248|405:248|396:255|396:255|397:271|397:271|388:300|388:300|420:336|464:304,1,180.000006866455
463,304,23374,1,0,0:0:0:0:
312,296,23541,6,0,L|288:292,5,15.0000005722046
256,308,23707,2,0,P|244:328|240:364,1,60.0000022888184
148,332,23874,2,0,P|136:312|132:276,1,60.0000022888184
40,360,24041,1,0,0:0:0:0:
0,168,24207,5,0,0:0:0:0:
104,88,24374,2,0,P|104:48|144:60,1,80
144,188,24541,2,0,P|109:208|99:167,1,80
216,112,24707,2,0,L|232:92,1,20
272,208,24874,5,0,0:0:0:0:
352,200,25041,1,0,0:0:0:0:
432,192,25207,1,0,0:0:0:0:
424,332,25374,5,0,0:0:0:0:
408,328,25457,1,0,0:0:0:0:
396,316,25541,1,0,0:0:0:0:
392,300,25624,1,0,0:0:0:0:
396,284,25707,2,0,L|480:288,1,80,2|0,0:0|0:0,0:0:0:0:
280,340,26041,5,0,0:0:0:0:
192,348,26207,1,2,0:0:0:0:
228,268,26374,1,2,0:0:0:0:
192,348,26541,1,0,0:0:0:0:
56,316,26707,6,0,P|40:276|44:240,1,80
144,96,27041,2,0,P|147:135|131:171,1,80,2|0,0:0|0:0,0:0:0:0:
116,180,27291,1,0,0:0:0:0:
100,188,27374,5,0,0:0:0:0:
88,28,27541,1,2,0:0:0:0:
240,96,27707,1,2,0:0:0:0:
304,212,27874,6,0,P|308:180|320:160,1,40,0|2,0:0|0:0,0:0:0:0:
328,148,28041,5,0,0:0:0:0:
408,64,28207,1,0,0:0:0:0:
448,168,28374,1,2,0:0:0:0:
468,304,28541,5,0,0:0:0:0:
420,244,28707,1,0,0:0:0:0:
496,232,28874,1,0,0:0:0:0:
252,284,29041,5,2,0:0:0:0:
312,348,29207,1,2,0:0:0:0:
392,316,29374,1,0,0:0:0:0:
168,304,29541,2,0,P|104:308|40:236,1,160,2|2,0:0|0:0,0:0:0:0:
52,232,29957,1,0,0:0:0:0:
60,220,30041,5,0,0:0:0:0:
200,200,30207,1,2,0:0:0:0:
20,152,30374,2,0,P|40:144|68:137,1,40
181,121,30541,2,0,P|209:121|229:129,1,40,2|0,0:0|0:0,0:0:0:0:
344,172,30707,6,0,P|384:188|424:184,1,80
436,176,30957,1,0,0:0:0:0:
448,164,31041,1,2,0:0:0:0:
456,148,31124,1,0,0:0:0:0:
456,132,31207,1,0,0:0:0:0:
424,36,31374,6,0,L|332:48,1,80
180,120,31707,1,2,0:0:0:0:
204,124,31791,1,0,0:0:0:0:
228,128,31874,1,0,0:0:0:0:
252,132,31957,1,0,0:0:0:0:
276,136,32041,6,0,P|280:176|260:220,1,80
88,200,32374,1,2,0:0:0:0:
40,272,32541,2,0,P|36:312|56:356,1,80,2|0,0:0|0:0,0:0:0:0:
228,312,32874,5,2,0:0:0:0:
376,324,33041,1,0,0:0:0:0:
500,240,33207,5,2,0:0:0:0:
416,248,33374,1,2,0:0:0:0:
228,176,33541,5,0,0:0:0:0:
312,184,33708,1,2,0:0:0:0:
496,96,33874,5,0,0:0:0:0:
412,104,34041,1,2,0:0:0:0:
240,32,34207,5,2,0:0:0:0:
168,72,34374,2,0,L|88:68,1,80,2|2,0:0|0:0,0:0:0:0:
24,152,34707,5,4,0:0:0:0:
20,176,34791,1,0,0:0:0:0:
24,200,34874,1,0,0:0:0:0:
108,144,35041,2,0,L|100:232,1,80,2|0,0:0|0:0,0:0:0:0:
184,168,35374,1,4,0:0:0:0:
184,192,35457,1,0,0:0:0:0:
176,216,35541,1,0,0:0:0:0:
96,300,35707,2,0,L|88:388,1,80,2|0,0:0|0:0,0:0:0:0:
0,344,36041,5,4,0:0:0:0:
96,300,36207,1,0,0:0:0:0:
176,364,36374,2,0,L|256:364,1,80,8|0,0:0|0:0,0:0:0:0:
412,364,36707,1,0,0:0:0:0:
336,332,36874,1,0,0:0:0:0:
336,332,36957,1,0,0:0:0:0:
336,332,37041,2,0,P|320:292|328:252,1,80,8|0,0:0|0:0,0:0:0:0:
512,128,37374,5,0,0:0:0:0:
412,208,37541,1,0,0:0:0:0:
504,220,37707,1,8,0:0:0:0:
420,116,37874,1,0,0:0:0:0:
296,48,38041,5,0,0:0:0:0:
312,152,38207,1,0,0:0:0:0:
328,256,38374,1,8,0:0:0:0:
232,236,38541,5,0,0:0:0:0:
212,232,38624,1,0,0:0:0:0:
192,228,38707,2,0,L|104:236,1,80
8,156,39041,2,0,L|96:164,1,80,8|0,0:0|0:0,0:0:0:0:
224,112,39374,5,0,0:0:0:0:
244,108,39457,1,0,0:0:0:0:
264,104,39541,1,0,0:0:0:0:
284,100,39624,1,0,0:0:0:0:
336,72,39707,5,8,2:0:0:0:
329,91,39790,1,0,2:0:0:0:
322,110,39874,1,0,2:0:0:0:
316,129,39957,1,0,2:0:0:0:
280,148,40041,6,0,P|280:184|288:204,3,40
344,240,40374,2,0,P|344:276|336:296,3,40,8|0|0|0,0:0|0:0|0:0|0:0,0:0:0:0:
292,340,40707,1,0,0:0:0:0:
420,328,40874,5,0,0:0:0:0:
344,240,41041,1,0,0:0:0:0:
220,252,41207,1,0,0:0:0:0:
0,276,41374,5,2,0:0:0:0:
190,332,41541,2,0,B|118:308|118:308|43:344,1,160,2|0,0:0|0:0,0:0:0:0:
220,252,42041,1,10,0:0:0:0:
344,240,42207,5,0,0:0:0:0:
360,128,42374,1,8,0:0:0:0:
380,16,42541,1,0,0:0:0:0:
291,52,42707,6,0,P|264:105|272:164,1,120,2|2,0:0|0:0,0:0:0:0:
271,163,43041,1,8,0:0:0:0:
436,183,43207,2,0,P|452:147|448:108,1,80,2|2,0:0|0:0,0:0:0:0:
292,52,43541,5,0,0:0:0:0:
128,48,43707,1,8,0:0:0:0:
292,52,43874,1,0,0:0:0:0:
168,136,44041,5,0,0:0:0:0:
140,144,44124,1,0,0:0:0:0:
112,144,44207,1,0,0:0:0:0:
84,136,44291,1,0,0:0:0:0:
60,120,44374,1,0,0:0:0:0:
44,96,44457,1,0,0:0:0:0:
36,68,44541,1,0,0:0:0:0:
64,216,44707,6,0,L|72:264,3,40
64,276,45041,1,0,0:0:0:0:
52,292,45124,1,0,0:0:0:0:
36,300,45207,1,0,0:0:0:0:
180,308,45374,5,0,0:0:0:0:
200,324,45457,1,0,0:0:0:0:
220,340,45541,2,0,L|268:332,1,40
340,352,45707,5,0,0:0:0:0:
360,336,45790,1,0,0:0:0:0:
380,320,45874,2,0,L|428:328,1,40
488,284,46041,5,0,0:0:0:0:
492,260,46124,1,0,0:0:0:0:
480,240,46207,1,0,0:0:0:0:
484,216,46290,1,0,0:0:0:0:
472,196,46374,1,0,0:0:0:0:
476,172,46457,1,0,0:0:0:0:
464,152,46540,1,0,0:0:0:0:
468,128,46623,1,0,0:0:0:0:
452,108,46707,6,0,B|356:80|380:128|288:108,1,160,4|0,0:0|0:0,0:0:0:0:
232,60,47541,2,0,P|204:56|180:60,1,40
80,96,47874,2,0,P|108:100|132:96,1,40
192,136,48207,6,0,L|184:176,2,40
288,244,48707,5,0,0:0:0:0:
208,252,48874,1,0,0:0:0:0:
128,260,49041,1,0,0:0:0:0:
48,268,49207,1,0,0:0:0:0:
176,336,49374,6,0,P|256:348|336:316,1,160
416,348,50207,2,0,P|416:320|412:304,1,40
364,244,50541,2,0,P|357:202|368:164,1,80
436,92,51041,5,0,0:0:0:0:
512,112,51207,1,0,0:0:0:0:
492,36,51374,1,0,0:0:0:0:
320,64,51541,6,0,L|324:96,1,20
248,72,51707,2,0,L|252:104,1,20,0|0,0:0|0:0,0:0:0:0:
176,80,51874,2,0,L|180:112,1,20
88,72,52040,6,0,B|48:160|108:140|80:240,1,160,0|0,0:0|0:0,0:0:0:0:
48,296,52874,2,0,P|44:324|52:340,1,40
128,292,53207,2,0,P|152:296|168:292,1,40
260,252,53541,1,0,0:0:0:0:
336,268,53707,2,0,L|380:264,1,40
444,148,54041,6,0,P|444:168|440:188,1,40
336,172,54374,2,0,P|336:152|340:132,1,40
480,112,54707,6,0,P|488:188|456:232,1,120
421,290,55374,6,0,L|377:298,1,26.6666666666667
256,297,55596,6,0,L|195:307,1,53.3333333333333
92,304,55819,6,0,L|3:317,1,80.0000030517579
12,315,56041,1,0,0:0:0:0:
92,304,56874,6,0,L|80:244,1,60.0000022888184
256,296,57041,6,0,L|244:236,1,60.0000022888184
424,292,57207,6,0,L|412:232,1,60.0000022888184
472,84,57374,6,0,P|408:40|336:64,1,155.999992858887
320,88,57707,2,0,B|312:136|312:136|336:188,1,103.999995239258
173,115,58041,6,0,P|222:59|296:72,1,155.999992858887
320,88,58374,2,0,B|344:136|344:136|336:188,1,103.999995239258
412,256,58707,6,0,P|364:304|284:272,1,155.999992858887
280,256,59041,1,0,0:0:0:0:
412,232,59207,1,0,0:0:0:0:
252,352,59374,5,0,0:0:0:0:
132,344,59541,1,0,0:0:0:0:
24,264,59707,5,0,0:0:0:0:
144,256,59874,1,0,0:0:0:0:
116,128,60041,6,0,P|72:112|24:136,1,103.999995239258
136,144,60291,1,0,0:0:0:0:
152,124,60374,6,0,P|168:80|144:32,1,103.999995239258
136,144,60624,1,0,0:0:0:0:
156,160,60707,6,0,P|200:176|248:152,1,103.999995239258
408,76,61041,1,0,0:0:0:0:
340,16,61207,2,0,L|332:133,1,103.999995239258
328,223,61541,1,0,0:0:0:0:
328,223,61624,1,0,0:0:0:0:
328,223,61707,5,0,0:0:0:0:
316,384,61874,1,0,0:0:0:0:
228,332,62041,5,0,0:0:0:0:
336,312,62207,1,0,0:0:0:0:
320,304,62291,1,0,0:0:0:0:
304,296,62374,5,0,0:0:0:0:
412,276,62540,1,0,0:0:0:0:
440,88,62707,6,0,P|420:144|432:196,1,103.999995239258
440,88,63041,6,0,P|480:120|496:184,1,103.999995239258
440,88,63374,38,0,B|417:140|417:140|427:186,1,103.999995239258,0|0,0:0|0:0,0:0:0:0:
440,88,63707,6,0,B|486:125|486:125|498:172,1,103.999995239258
440,88,64041,5,0,0:0:0:0:
328,56,64207,1,0,0:0:0:0:
328,56,64291,1,0,0:0:0:0:
328,56,64374,2,0,P|300:76|216:72,1,103.999995239258
40,108,64707,1,0,0:0:0:0:
156,244,64874,5,0,0:0:0:0:
144,140,65041,1,0,0:0:0:0:
132,36,65207,1,0,0:0:0:0:
252,208,65374,6,0,P|296:240|312:296,1,103.999995239258
320,376,65707,1,0,0:0:0:0:
400,120,65874,6,0,L|372:228,1,103.999995239258
320,376,66207,1,0,0:0:0:0:
474,283,66374,6,0,P|423:280|380:308,1,103.999995239258
320,376,66707,1,0,0:0:0:0:
188,272,66874,5,0,0:0:0:0:
40,300,67041,1,0,0:0:0:0:
12,152,67207,1,0,0:0:0:0:
160,124,67374,6,0,P|232:68|144:80,1,240
190,89,67707,6,0,L|360:96,1,160
464,248,68041,6,0,P|408:260|336:192,1,155.999992858887
336,180,68374,1,0,0:0:0:0:
456,264,68541,6,0,P|400:276|328:208,1,155.999992858887
328,196,68874,1,0,0:0:0:0:
236,248,69041,1,0,0:0:0:0:
240,268,69124,1,0,0:0:0:0:
244,284,69207,1,0,0:0:0:0:
0,164,69374,6,0,P|56:176|128:108,1,155.999992858887
128,96,69707,1,0,0:0:0:0:
8,180,69874,6,0,P|64:192|136:124,1,155.999992858887
136,112,70207,1,0,0:0:0:0:
256,112,70374,1,0,0:0:0:0:
252,132,70457,1,0,0:0:0:0:
248,148,70540,1,0,0:0:0:0:
244,164,70624,1,0,0:0:0:0:
260,196,70707,6,0,P|308:244|400:220,1,155.999992858887
408,216,71041,1,0,0:0:0:0:
512,108,71207,6,0,P|500:176|420:216,1,155.999992858887
408,216,71541,1,0,0:0:0:0:
372,120,71707,2,0,L|336:12,1,103.999995239258
132,33,72041,5,0,0:0:0:0:
46,177,72207,1,0,0:0:0:0:
200,112,72374,1,0,0:0:0:0:
36,74,72541,1,0,0:0:0:0:
147,199,72707,1,0,0:0:0:0:
212,284,72874,5,0,0:0:0:0:
112,300,73041,2,0,B|52:296|64:312|4:304,1,103.999995239258
296,344,73374,6,0,P|372:360|428:304,1,155.999992858887
432,284,73707,2,0,B|408:235|408:235|364:212,1,103.999995239258
286,88,74041,6,0,P|234:145|254:222,1,155.999992858887
269,235,74374,2,0,B|323:238|323:238|365:212,1,103.999995239258
512,207,74707,6,0,P|487:133|411:112,1,155.999992858887
393,118,75040,2,0,B|362:163|362:163|364:212,1,103.999995239258
296,344,75374,5,0,0:0:0:0:
128,304,75541,1,0,0:0:0:0:
224,308,75707,1,0,0:0:0:0:
52,332,75874,1,0,0:0:0:0:
180,240,76041,6,0,L|184:128,1,103.999995239258
132,72,76291,1,0,0:0:0:0:
132,72,76374,6,0,P|180:48|228:68,1,103.999995239258
264,140,76624,1,0,0:0:0:0:
264,140,76707,5,0,0:0:0:0:
448,108,76874,2,0,L|328:96,1,103.999995239258
388,232,77207,1,0,0:0:0:0:
392,256,77291,1,0,0:0:0:0:
396,280,77374,5,0,0:0:0:0:
272,348,77541,1,0,0:0:0:0:
140,244,77707,1,0,0:0:0:0:
264,176,77874,1,0,0:0:0:0:
324,284,78041,5,0,0:0:0:0:
244,268,78207,1,0,0:0:0:0:
164,320,78374,1,0,0:0:0:0:
84,304,78540,1,0,0:0:0:0:
0,352,78707,6,0,L|-4:312,1,25.9999988098145
60,32,79041,6,0,L|68:136,1,90.0000034332277
56,144,79374,2,0,P|88:136|128:148,1,60.0000022888184
132,152,79624,1,0,0:0:0:0:
144,168,79707,1,0,0:0:0:0:
220,72,79874,1,0,0:0:0:0:
316,136,80041,6,0,L|376:132,1,60.0000022888184
452,128,80291,1,0,0:0:0:0:
436,128,80374,2,0,L|376:132,1,60.0000022888184
288,208,80707,1,0,0:0:0:0:
228,288,80874,5,0,0:0:0:0:
368,264,81041,1,0,0:0:0:0:
432,376,81207,1,0,0:0:0:0:
368,264,81374,6,0,L|356:348,1,80
340,360,81624,1,0,0:0:0:0:
316,364,81707,2,0,L|228:368,1,80
48,328,82041,5,0,0:0:0:0:
84,316,82124,1,0,0:0:0:0:
108,288,82207,1,0,0:0:0:0:
116,252,82291,1,0,0:0:0:0:
108,216,82374,1,0,0:0:0:0:
88,184,82457,1,0,0:0:0:0:
56,164,82541,1,0,0:0:0:0:
20,160,82624,1,0,0:0:0:0:
44,132,82707,6,0,P|48:104|48:76,3,40
132,88,83041,2,0,P|125:58|116:44,3,40
208,40,83374,6,0,L|304:36,1,80
400,136,83707,1,0,0:0:0:0:
288,172,83874,1,0,0:0:0:0:
400,136,84041,6,0,P|408:184|400:224,1,80
388,228,84291,1,0,0:0:0:0:
372,240,84374,2,0,L|328:244,3,40
272,288,84707,5,0,0:0:0:0:
244,264,84791,1,0,0:0:0:0:
208,260,84874,1,0,0:0:0:0:
176,272,84957,1,0,0:0:0:0:
156,304,85041,2,0,L|164:384,1,80
24,280,85374,5,0,0:0:0:0:
36,268,85457,1,0,0:0:0:0:
48,256,85541,2,0,L|40:204,1,40
80,152,85707,5,0,0:0:0:0:
68,140,85790,1,0,0:0:0:0:
56,128,85874,2,0,L|64:76,1,40
32,16,86041,5,0,0:0:0:0:
172,56,86207,2,0,L|132:64,1,40
172,56,86374,2,0,P|224:60|252:80,1,80
412,76,86707,6,0,L|320:68,1,80
292,144,87041,2,0,P|292:192|312:224,1,80
324,228,87291,1,0,0:0:0:0:
344,236,87374,6,0,L|388:232,3,40
448,272,87707,2,0,P|484:252|496:208,1,80
384,340,88041,6,0,L|288:336,1,80
288,324,88291,1,0,0:0:0:0:
272,336,88374,2,0,L|176:332,1,80
176,320,88624,1,0,0:0:0:0:
160,332,88707,5,0,0:0:0:0:
32,232,88874,1,0,0:0:0:0:
40,252,88957,1,0,0:0:0:0:
48,272,89041,2,0,L|56:176,1,80
36,76,89374,5,0,0:0:0:0:
68,56,89457,1,0,0:0:0:0:
104,56,89541,1,0,0:0:0:0:
132,76,89624,1,0,0:0:0:0:
148,108,89707,2,0,L|240:96,1,80
320,136,90041,5,0,0:0:0:0:
352,156,90124,1,0,0:0:0:0:
388,156,90208,1,0,0:0:0:0:
416,136,90291,1,0,0:0:0:0:
432,104,90374,2,0,L|525:114,1,80
512,120,90624,1,0,0:0:0:0:
512,128,90707,6,0,L|512:181,2,40
480,40,91041,1,0,0:0:0:0:
332,260,91207,1,0,0:0:0:0:
512,304,91374,5,0,0:0:0:0:
496,300,91457,1,0,0:0:0:0:
460,316,91541,5,0,0:0:0:0:
444,312,91624,1,0,0:0:0:0:
408,328,91707,5,0,0:0:0:0:
392,324,91790,1,0,0:0:0:0:
356,340,91874,5,0,0:0:0:0:
340,336,91957,1,0,0:0:0:0:
304,352,92041,6,0,L|208:356,1,80
40,288,92374,2,0,L|136:292,1,80
132,300,92624,1,0,0:0:0:0:
144,308,92707,5,0,0:0:0:0:
160,92,92874,1,0,0:0:0:0:
48,176,93041,5,0,0:0:0:0:
128,172,93207,1,0,0:0:0:0:
276,212,93374,5,0,0:0:0:0:
296,200,93457,1,0,0:0:0:0:
320,196,93541,1,0,0:0:0:0:
344,196,93624,1,0,0:0:0:0:
368,204,93707,1,0,0:0:0:0:
388,216,93791,1,0,0:0:0:0:
404,236,93874,1,0,0:0:0:0:
324,316,94041,6,0,L|332:272,1,40
364,60,94207,1,0,0:0:0:0:
496,136,94374,5,0,0:0:0:0:
416,128,94541,1,0,0:0:0:0:
272,60,94707,6,0,P|224:84|192:76,1,80
180,68,94957,1,0,0:0:0:0:
164,48,95041,1,0,0:0:0:0:
16,140,95207,1,0,0:0:0:0:
8,164,95291,1,0,0:0:0:0:
0,188,95374,5,0,0:0:0:0:
160,168,95541,1,0,0:0:0:0:
148,148,95624,1,0,0:0:0:0:
136,128,95707,5,0,0:0:0:0:
92,252,95874,1,0,0:0:0:0:
180,336,96041,6,0,L|228:332,2,40
296,264,96374,2,0,P|308:316|288:348,1,80
468,188,96707,6,0,L|420:184,2,40
348,96,97040,2,0,P|328:152|364:212,1,120
368,220,97374,6,0,L|376:308,1,80
468,188,97707,2,0,L|460:100,1,80
468,92,97957,1,0,0:0:0:0:
476,76,98041,1,0,0:0:0:0:
468,64,98124,1,0,0:0:0:0:
460,52,98207,1,0,0:0:0:0:
316,24,98374,1,0,0:0:0:0:
304,36,98457,1,0,0:0:0:0:
292,48,98541,1,0,0:0:0:0:
204,100,98707,6,0,P|160:104|120:96,1,80
112,92,98957,1,0,0:0:0:0:
100,80,99041,1,0,0:0:0:0:
40,232,99207,1,0,0:0:0:0:
200,204,99374,6,0,L|112:196,1,80
104,296,99707,2,0,L|192:304,1,80
316,284,100041,5,0,0:0:0:0:
348,304,100124,1,0,0:0:0:0:
384,308,100207,1,0,0:0:0:0:
420,296,100291,1,0,0:0:0:0:
448,272,100374,1,0,0:0:0:0:
460,236,100457,1,0,0:0:0:0:
456,200,100541,1,0,0:0:0:0:
372,220,100707,6,0,L|380:128,1,80
372,128,100957,1,0,0:0:0:0:
364,116,101041,2,0,L|372:24,1,80,0|0,0:0|0:0,0:0:0:0:
468,72,101374,5,0,0:0:0:0:
256,92,101541,1,0,0:0:0:0:
312,152,101707,5,0,0:0:0:0:
100,172,101874,1,0,0:0:0:0:
156,228,102041,6,0,P|116:253|32:252,1,120
20,244,102374,6,0,P|52:272|60:328,1,90.0000034332277
56,336,102707,6,0,P|96:324|136:336,1,80
256,312,103263,5,0,0:0:0:0:
256,312,103374,2,0,L|348:316,1,80.0000030517579
408,272,103707,2,0,P|416:324|448:348,1,80.0000030517579
496,280,104041,5,0,0:0:0:0:
460,124,104263,1,0,0:0:0:0:
476,200,104374,1,0,0:0:0:0:
296,116,104596,1,0,0:0:0:0:
376,120,104707,6,0,P|368:68|336:48,1,80.0000030517579
216,112,105041,2,0,P|224:164|256:184,1,80.0000030517579
328,188,105374,6,0,L|316:316,1,120.000004577637
112,344,105930,1,0,0:0:0:0:
112,344,106041,2,0,P|92:296|104:260,1,80.0000030517579
160,212,106374,2,0,L|248:220,1,80.0000030517579
84,172,106707,5,0,0:0:0:0:
76,92,106819,1,0,0:0:0:0:
68,12,106930,1,0,0:0:0:0:
144,44,107041,5,0,0:0:0:0:
216,80,107152,1,0,0:0:0:0:
152,128,107264,1,0,0:0:0:0:
216,80,107374,6,0,L|304:72,1,80.0000030517579
360,120,107707,2,0,P|400:112|428:80,1,80.0000030517579
480,16,108041,6,0,L|484:156,1,120.000004577637
388,236,108596,1,0,0:0:0:0:
388,236,108707,2,0,P|436:244|472:224,1,80.0000030517579
308,192,109041,2,0,L|312:280,1,80.0000030517579
316,356,109374,5,0,0:0:0:0:
156,344,109596,1,0,0:0:0:0:
236,348,109707,1,0,0:0:0:0:
48,280,109930,1,0,0:0:0:0:
128,264,110041,6,0,L|196:249,2,40.000001525879
76,200,110374,2,0,P|72:156|84:116,1,80.0000030517579
52,40,110707,6,0,L|140:52,1,80.0000030517579
208,28,111041,1,0,0:0:0:0:
248,144,111263,2,0,L|376:160,1,120.000004577637
440,116,111707,1,0,0:0:0:0:
452,196,111819,1,0,0:0:0:0:
468,276,111930,1,0,0:0:0:0:
484,356,112041,5,0,0:0:0:0:
44,352,112707,1,0,0:0:0:0:
44,352,112874,6,0,L|38:292,1,60.0000022888184
244,332,113041,6,0,L|238:272,1,60.0000022888184
440,316,113207,6,0,L|434:256,1,60.0000022888184
424,104,113374,6,0,P|364:136|296:80,1,155.999992858887
280,16,113707,1,0,0:0:0:0:
244,224,113874,1,0,0:0:0:0:
248,200,113957,1,0,0:0:0:0:
252,176,114041,6,0,P|192:144|124:200,1,155.999992858887
108,264,114374,1,0,0:0:0:0:
244,332,114541,1,0,0:0:0:0:
440,316,114707,6,0,L|276:308,1,155.999992858887
244,332,115041,1,0,0:0:0:0:
340,216,115207,1,0,0:0:0:0:
364,228,115291,1,0,0:0:0:0:
388,240,115374,5,0,0:0:0:0:
184,256,115541,1,0,0:0:0:0:
280,132,115707,1,0,0:0:0:0:
388,240,115874,1,0,0:0:0:0:
480,120,116041,6,0,P|472:68|496:12,1,103.999995239258
484,148,116291,1,0,0:0:0:0:
456,152,116374,6,0,P|404:160|348:136,1,103.999995239258
484,148,116624,1,0,0:0:0:0:
488,176,116707,6,0,P|496:228|472:284,1,103.999995239258
416,316,116957,2,0,L|352:312,1,51.999997619629
184,256,117207,2,0,L|300:252,1,103.999995239258
220,344,117541,5,0,0:0:0:0:
196,340,117624,1,0,0:0:0:0:
172,336,117707,1,0,0:0:0:0:
68,320,117874,1,0,0:0:0:0:
184,256,118041,5,0,0:0:0:0:
292,196,118207,1,0,0:0:0:0:
316,184,118291,1,0,0:0:0:0:
340,172,118374,5,0,0:0:0:0:
188,148,118540,1,0,0:0:0:0:
44,128,118707,6,0,P|32:88|60:28,1,103.999995239258
44,128,119041,6,0,P|56:168|28:228,1,103.999995239258
44,128,119374,38,0,B|30:78|30:78|55:33,1,103.999995239258
44,128,119707,6,0,B|58:178|58:178|33:223,1,103.999995239258
44,128,120041,37,0,0:0:0:0:
148,76,120207,1,0,0:0:0:0:
148,76,120291,1,0,0:0:0:0:
148,76,120374,1,0,0:0:0:0:
188,148,120541,2,0,P|192:200|172:256,1,103.999995239258
88,196,120874,5,0,0:0:0:0:
188,148,121041,1,0,0:0:0:0:
288,100,121207,1,0,0:0:0:0:
450,209,121374,6,0,P|462:253|510:289,1,103.999995239258
458,125,121707,1,0,0:0:0:0:
370,221,121874,6,0,L|294:301,1,103.999995239258
458,125,122207,1,0,0:0:0:0:
378,141,122374,6,0,P|326:133|282:89,1,103.999995239258
458,125,122707,1,0,0:0:0:0:
212,312,122874,5,0,0:0:0:0:
188,320,122957,1,0,0:0:0:0:
164,328,123041,5,0,0:0:0:0:
176,172,123207,1,0,0:0:0:0:
188,20,123374,6,0,P|208:100|160:24,1,240
180,64,123707,6,0,B|72:96|112:44|0:76,1,160
52,192,124041,6,0,P|56:236|96:280,1,103.999995239258
120,280,124291,1,0,0:0:0:0:
144,276,124374,1,0,0:0:0:0:
52,192,124541,6,0,P|60:256|36:300,1,103.999995239258
20,300,124791,1,0,0:0:0:0:
0,304,124874,1,0,0:0:0:0:
228,304,125041,5,0,0:0:0:0:
248,308,125124,1,0,0:0:0:0:
268,312,125207,1,0,0:0:0:0:
344,240,125374,6,0,P|408:252|440:292,1,103.999995239258
444,304,125624,1,0,0:0:0:0:
444,328,125707,1,0,0:0:0:0:
344,240,125874,6,0,P|412:236|444:204,1,103.999995239258
444,188,126124,1,0,0:0:0:0:
440,164,126207,1,0,0:0:0:0:
368,128,126374,5,0,0:0:0:0:
364,108,126457,1,0,0:0:0:0:
360,88,126541,1,0,0:0:0:0:
356,68,126624,1,0,0:0:0:0:
320,48,126707,6,0,P|264:72|232:120,1,103.999995239258
236,132,126957,1,0,0:0:0:0:
240,160,127041,1,0,0:0:0:0:
320,48,127207,6,0,P|268:64|220:48,1,103.999995239258
204,32,127457,1,0,0:0:0:0:
188,12,127541,1,0,0:0:0:0:
128,76,127707,1,0,0:0:0:0:
100,80,127791,1,0,0:0:0:0:
72,84,127874,1,0,0:0:0:0:
28,156,128041,5,0,0:0:0:0:
116,328,128207,1,0,0:0:0:0:
140,168,128374,1,0,0:0:0:0:
4,316,128541,1,0,0:0:0:0:
72,240,128707,1,0,0:0:0:0:
240,252,128874,5,0,0:0:0:0:
328,288,129041,2,0,B|376:280|360:296|408:288,1,80
444,56,129374,6,0,L|424:184,1,103.999995239258
424,184,129624,1,0,0:0:0:0:
420,208,129707,2,0,P|372:180|364:124,1,103.999995239258
171,70,130041,6,0,L|291:23,1,103.999995239258
292,24,130291,1,0,0:0:0:0:
314,15,130374,2,0,P|313:70|269:105,1,103.999995239258
316,296,130707,6,0,L|216:212,1,103.999995239258
217,212,130957,1,0,0:0:0:0:
199,198,131040,2,0,P|247:171|299:193,1,103.999995239258
316,296,131374,5,0,0:0:0:0:
152,320,131541,1,0,0:0:0:0:
152,320,131624,1,0,0:0:0:0:
152,320,131707,2,0,P|189:334|228:331,1,80
88,252,132041,6,0,P|76:204|84:172,1,80
160,172,132291,1,0,0:0:0:0:
176,184,132374,6,0,P|164:136|172:104,1,80
252,104,132624,1,0,0:0:0:0:
268,116,132707,5,0,0:0:0:0:
372,144,132874,2,0,P|384:96|376:64,1,80
296,208,133207,1,0,0:0:0:0:
304,228,133291,1,0,0:0:0:0:
312,248,133374,5,0,0:0:0:0:
448,200,133541,1,0,0:0:0:0:
496,336,133707,1,0,0:0:0:0:
360,384,133874,1,0,0:0:0:0:
264,340,134041,5,0,0:0:0:0:
184,344,134207,1,0,0:0:0:0:
140,264,134374,1,0,0:0:0:0:
60,268,134540,1,0,0:0:0:0:
12,188,134707,6,0,P|0:120|56:56,1,160
148,80,135207,1,0,0:0:0:0:
148,80,135291,1,0,0:0:0:0:
148,80,135374,2,0,L|228:84,1,80
316,68,135707,1,0,0:0:0:0:
288,152,135874,1,0,0:0:0:0:
288,152,135957,1,0,0:0:0:0:
288,152,136041,6,0,P|284:192|300:232,1,80
388,356,136374,2,0,P|401:318|397:279,1,80
384,192,136707,1,0,0:0:0:0:
312,316,136874,1,0,0:0:0:0:
292,320,136957,1,0,0:0:0:0:
272,324,137041,1,0,0:0:0:0:
252,328,137124,1,0,0:0:0:0:
232,332,137207,1,0,0:0:0:0:
212,336,137291,1,0,0:0:0:0:
192,340,137374,6,0,L|32:328,1,160
4,240,137874,1,0,0:0:0:0:
4,240,137957,1,0,0:0:0:0:
4,240,138041,2,0,P|-4:196|8:160,1,80
152,140,138374,5,0,0:0:0:0:
228,96,138541,2,0,P|240:56|228:16,1,80
88,80,138874,5,0,0:0:0:0:
152,140,139041,2,0,L|144:224,1,80
228,96,139374,2,0,P|280:136|368:108,1,160
408,36,139874,1,0,0:0:0:0:
408,36,139957,1,0,0:0:0:0:
408,36,140041,6,0,L|416:212,1,160
364,268,140541,1,0,0:0:0:0:
364,268,140624,1,0,0:0:0:0:
364,268,140707,2,0,P|404:288|440:280,1,80
296,208,141041,1,0,0:0:0:0:
276,292,141207,1,0,0:0:0:0:
276,292,141291,1,0,0:0:0:0:
276,292,141374,6,0,P|232:320|196:316,1,80
0,268,141707,2,0,P|40:256|84:268,1,80
124,336,142041,1,0,0:0:0:0:
160,248,142207,1,0,0:0:0:0:
164,228,142291,1,0,0:0:0:0:
164,208,142374,1,0,0:0:0:0:
160,188,142457,1,0,0:0:0:0:
152,168,142541,1,0,0:0:0:0:
140,152,142624,1,0,0:0:0:0:
124,140,142707,6,0,L|44:132,1,80
160,52,143041,2,0,L|240:44,1,80
256,56,143291,1,0,0:0:0:0:
272,68,143374,2,0,L|352:60,1,80
460,128,143707,5,0,0:0:0:0:
384,228,143874,1,0,0:0:0:0:
368,144,144041,1,0,0:0:0:0:
472,216,144207,1,0,0:0:0:0:
404,312,144374,1,0,0:0:0:0:
248,296,144541,5,0,0:0:0:0:
244,212,144707,2,0,B|244:195|244:195|296:180|296:108|232:76|184:120|180:156,1,207.999990478516
182,146,145374,5,0,0:0:0:0:
420,296,156041,6,0,L|336:292,1,80
328,295,156291,1,0,0:0:0:0:
316,298,156374,1,0,0:0:0:0:
304,301,156457,1,0,0:0:0:0:
292,304,156541,1,0,0:0:0:0:
280,307,156624,1,0,0:0:0:0:
268,310,156707,6,0,P|246:271|252:226,1,80
86,274,157041,2,0,L|171:269,1,80
4,228,157374,2,0,L|9:313,1,80
136,141,157707,2,0,L|51:146,1,80
218,187,158041,2,0,L|209:40,1,120
203,57,158374,2,0,P|252:58|280:43,1,80
440,75,158707,6,0,P|389:71|353:87,1,80
496,137,159041,2,0,P|500:178|482:220,1,80
330,253,159374,2,0,L|419:262,1,80
422,270,159624,1,0,0:0:0:0:
434,279,159707,2,0,L|354:271,1,80
72,277,160041,5,0,0:0:0:0:
243,238,160207,1,0,0:0:0:0:
154,223,160374,5,0,0:0:0:0:
233,316,160541,1,0,0:0:0:0:
330,254,160707,1,0,0:0:0:0:
470,200,160874,6,0,L|389:194,1,80
470,200,161207,1,0,0:0:0:0:
377,116,161374,5,0,0:0:0:0:
368,37,161541,1,0,0:0:0:0:
252,75,161707,5,0,0:0:0:0:
243,154,161874,1,0,0:0:0:0:
95,80,162041,5,0,0:0:0:0:
25,164,162207,1,0,0:0:0:0:
25,172,162291,1,0,0:0:0:0:
25,179,162374,1,0,0:0:0:0:
139,174,162541,1,0,0:0:0:0:
138,289,162707,6,0,P|94:284|46:295,1,80
272,356,163041,2,0,P|228:360|180:350,1,80
375,261,163374,5,0,0:0:0:0:
408,360,163541,1,0,0:0:0:0:
507,329,163707,1,0,0:0:0:0:
474,230,163874,1,0,0:0:0:0:
359,147,164041,6,0,P|346:100|356:69,1,80
505,36,164374,2,0,P|518:83|508:114,1,80
359,147,164707,5,0,0:0:0:0:
213,46,164874,1,0,0:0:0:0:
354,71,165041,2,0,P|308:86|275:80,1,80
45,91,165374,6,0,L|59:169,1,80
195,305,165707,2,0,L|209:227,1,80
39,154,166041,6,0,L|26:221,2,53.3333333333333
174,252,166374,2,0,L|163:199,2,53.3333333333333
256,248,166707,5,0,0:0:0:0:
256,192,166791,12,0,168124,0:0:0:0:
60,372,168207,5,0,0:0:0:0:
52,368,168374,5,0,0:0:0:0:
40,356,168541,5,0,0:0:0:0:
28,324,168707,5,0,0:0:0:0:
36,280,168874,6,0,L|28:196,1,51.999997619629
256,268,169041,6,0,L|248:184,1,51.999997619629
468,260,169207,6,0,L|460:176,1,51.999997619629
504,48,169374,6,0,P|444:96|352:52,1,180.000006866455
428,12,169707,2,0,L|440:148,1,120.000004577637
332,232,170041,6,0,P|272:184|180:228,1,180.000006866455
256,268,170374,2,0,L|268:132,1,120.000004577637
216,12,170707,5,0,0:0:0:0:
116,112,170874,1,0,0:0:0:0:
120,148,170957,1,0,0:0:0:0:
124,184,171041,1,0,0:0:0:0:
0,40,171207,1,0,0:0:0:0:
216,12,171374,5,0,0:0:0:0:
124,184,171541,1,0,0:0:0:0:
0,40,171707,1,0,0:0:0:0:
216,12,171874,1,0,0:0:0:0:
444,168,172041,6,0,P|505:158|500:108,1,120.000004577637
376,136,172291,1,0,0:0:0:0:
344,200,172374,6,0,P|353:261|404:256,1,120.000004577637
376,136,172624,1,0,0:0:0:0:
308,104,172707,6,0,P|246:113|252:164,1,120.000004577637
248,368,173041,1,0,0:0:0:0:
300,276,173207,6,0,P|224:260|172:292,1,120.000004577637
64,280,173541,1,0,0:0:0:0:
68,316,173624,1,0,0:0:0:0:
72,352,173707,1,0,0:0:0:0:
120,216,173874,1,0,0:0:0:0:
44,88,174041,5,0,0:0:0:0:
0,228,174207,1,0,0:0:0:0:
72,352,174374,1,0,0:0:0:0:
120,216,174541,1,0,0:0:0:0:
300,152,174707,6,0,P|320:104|300:40,1,120.000004577637
300,152,175041,6,0,P|352:104|400:108,1,120.000004577637
300,152,175374,38,0,B|323:84|323:84|301:42,1,120.000004577637
300,152,175707,6,0,B|335:106|335:106|398:107,1,120.000004577637
300,152,176041,5,0,0:0:0:0:
440,216,176207,1,0,0:0:0:0:
440,216,176291,1,0,0:0:0:0:
440,216,176374,1,0,0:0:0:0:
224,236,176541,2,0,L|352:240,1,120.000004577637
152,324,176874,5,0,0:0:0:0:
244,320,177041,1,0,0:0:0:0:
336,316,177207,1,0,0:0:0:0:
80,192,177374,6,0,P|12:176|0:128,1,120.000004577637
152,232,177707,1,0,0:0:0:0:
116,120,177874,6,0,L|80:4,1,120.000004577637
152,232,178207,1,0,0:0:0:0:
188,160,178374,6,0,P|220:124|204:52,1,120.000004577637
152,232,178707,1,0,0:0:0:0:
324,128,178874,5,0,0:0:0:0:
440,224,179041,1,0,0:0:0:0:
476,76,179207,1,0,0:0:0:0:
324,128,179374,6,0,P|264:112|352:80,1,240
304,88,179707,6,0,B|320:136|296:180|296:180|308:232|308:232|284:272|304:320,1,240
128,332,180041,6,0,P|56:344|20:304,1,120.000004577637
8,284,180291,1,0,0:0:0:0:
4,248,180374,1,0,0:0:0:0:
148,178,180541,2,0,P|184:225|180:284,1,120.000004577637
160,312,180790,1,0,0:0:0:0:
128,332,180873,1,0,0:0:0:0:
4,248,181041,5,0,0:0:0:0:
12,212,181124,1,0,0:0:0:0:
40,192,181207,1,0,0:0:0:0:
261,30,181374,6,0,P|333:18|369:58,1,120.000004577637
381,78,181624,1,0,0:0:0:0:
384,114,181707,1,0,0:0:0:0:
248,184,181874,2,0,P|212:137|216:78,1,120.000004577637
228,48,182123,1,0,0:0:0:0:
261,30,182206,1,0,0:0:0:0:
384,114,182374,5,0,0:0:0:0:
377,150,182457,1,0,0:0:0:0:
352,176,182540,1,0,0:0:0:0:
316,184,182624,1,0,0:0:0:0:
296,216,182707,6,0,P|284:288|324:324,1,120.000004577637
344,336,182957,1,0,0:0:0:0:
380,339,183040,1,0,0:0:0:0:
450,195,183207,2,0,P|403:159|344:163,1,120.000004577637
316,184,183456,1,0,0:0:0:0:
296,216,183539,1,0,0:0:0:0:
380,339,183707,5,0,0:0:0:0:
412,328,183790,1,0,0:0:0:0:
440,304,183873,1,0,0:0:0:0:
450,195,184041,5,0,0:0:0:0:
352,40,184207,1,0,0:0:0:0:
224,172,184374,1,0,0:0:0:0:
144,28,184541,1,0,0:0:0:0:
8,152,184707,1,0,0:0:0:0:
116,124,184874,5,0,0:0:0:0:
80,224,185041,2,0,B|72:296|112:268|108:344,1,120.000004577637
292,336,185374,6,0,P|364:344|412:300,1,120.000004577637
440,304,185624,1,0,0:0:0:0:
420,268,185707,2,0,P|416:220|364:172,1,120.000004577637
101,199,186041,6,0,P|58:257|72:320,1,120.000004577637
54,343,186291,1,0,0:0:0:0:
96,344,186374,2,0,P|139:364|207:343,1,120.000004577637
324,112,186707,6,0,P|294:45|232:26,1,120.000004577637
223,0,186957,1,0,0:0:0:0:
202,36,187040,2,0,P|162:63|146:132,1,120.000004577637
244,208,187374,5,0,0:0:0:0:
392,48,187541,1,0,0:0:0:0:
392,48,187624,1,0,0:0:0:0:
392,48,187707,2,0,L|512:56,1,120.000004577637
476,252,188041,6,0,P|448:212|456:144,1,120.000004577637
344,220,188291,1,0,0:0:0:0:
372,240,188374,6,0,P|344:200|352:132,1,120.000004577637
244,208,188624,1,0,0:0:0:0:
272,228,188707,5,0,0:0:0:0:
152,316,188874,2,0,P|200:344|236:296,1,120.000004577637
88,268,189207,2,0,B|72:208|104:220|92:148,1,120.000004577637
48,76,189541,1,0,0:0:0:0:
48,76,189624,1,0,0:0:0:0:
48,76,189707,6,0,P|100:60|160:100,1,120.000004577637
244,140,190041,5,0,0:0:0:0:
328,148,190207,1,0,0:0:0:0:
504,64,190374,5,0,0:0:0:0:
420,56,190540,1,0,0:0:0:0:
376,248,190707,6,0,B|352:304|420:328|420:328|496:240,1,204.000003890991
376,248,191041,6,0,L|324:316,1,80
296,340,191291,1,0,0:0:0:0:
280,332,191374,6,0,L|284:292,1,40
208,332,191541,2,0,L|196:292,1,40
140,360,191707,2,0,L|84:292,1,80
12,144,192041,6,0,P|0:192|68:224,1,120
84,220,192374,2,0,L|176:220,1,80
292,220,192707,1,0,0:0:0:0:
376,300,192874,6,0,L|392:324,1,20
408,192,193041,2,0,L|424:216,1,20
440,84,193207,2,0,L|456:108,1,20
356,8,193374,6,0,P|296:64|184:20,1,180.000006866455
132,56,193707,2,0,L|36:52,1,80
40,76,193957,1,0,0:0:0:0:
28,96,194041,1,0,0:0:0:0:
132,228,194207,1,0,0:0:0:0:
96,136,194374,2,0,L|175:139,1,80
284,196,194707,5,0,0:0:0:0:
320,196,194791,1,0,0:0:0:0:
352,180,194874,1,0,0:0:0:0:
372,152,194957,1,0,0:0:0:0:
380,116,195041,2,0,P|376:80|380:32,1,80
512,164,195374,5,0,0:0:0:0:
444,224,195541,2,0,L|456:324,1,80
468,384,195874,1,0,0:0:0:0:
308,312,196041,1,0,0:0:0:0:
308,312,196374,6,0,P|248:344|192:324,1,120.000004577637
172,292,196624,1,0,0:0:0:0:
172,244,196707,5,0,0:0:0:0:
176,228,196791,1,0,0:0:0:0:
180,212,196874,1,0,0:0:0:0:
100,168,197041,1,0,0:0:0:0:
176,108,197207,1,0,0:0:0:0:
172,92,197291,1,0,0:0:0:0:
168,76,197374,6,0,P|224:76|256:52,1,80
243,64,197624,1,0,0:0:0:0:
243,64,197707,1,0,0:0:0:0:
384,136,197874,1,0,0:0:0:0:
488,32,198041,5,0,0:0:0:0:
452,28,198124,1,0,0:0:0:0:
416,36,198207,1,0,0:0:0:0:
388,60,198291,1,0,0:0:0:0:
376,96,198374,1,0,0:0:0:0:
424,232,198541,6,0,L|420:264,2,26.6666666666667
452,248,198707,6,0,B|348:268|372:224|256:244,1,180.000006866455
200,212,199041,2,0,P|192:256|216:296,1,80
206,286,199291,1,0,0:0:0:0:
206,286,199374,1,0,0:0:0:0:
28,256,199541,1,0,0:0:0:0:
64,192,199707,2,0,P|76:160|64:108,1,80
220,60,200041,5,0,0:0:0:0:
240,88,200124,1,0,0:0:0:0:
272,104,200207,1,0,0:0:0:0:
308,108,200291,1,0,0:0:0:0:
344,100,200374,1,0,0:0:0:0:
372,80,200457,1,0,0:0:0:0:
392,52,200541,1,0,0:0:0:0:
304,20,200707,5,0,0:0:0:0:
316,192,200874,1,0,0:0:0:0:
224,168,201041,5,0,0:0:0:0:
400,152,201207,1,0,0:0:0:0:
320,304,201374,2,0,P|272:320|224:308,1,80
96,252,201707,6,0,L|92:352,1,80
100,356,201957,1,0,0:0:0:0:
108,380,202041,1,0,0:0:0:0:
136,176,202207,2,0,P|144:136|132:92,1,80
136,176,202541,1,0,0:0:0:0:
272,104,202707,6,0,L|412:100,1,120
460,52,203041,6,0,L|464:192,1,120
512,244,203374,6,0,B|495:245|495:245|477:246|477:246|448:272|448:272|451:246|451:246|403:247|403:247|372:248,1,180.000006866455
324,296,203708,5,0,0:0:0:0:
323,266,203791,1,0,0:0:0:0:
322,236,203874,1,0,0:0:0:0:
321,206,203958,1,0,0:0:0:0:
320,176,204041,6,0,P|284:264|196:264,1,180.000006866455
140,248,204374,2,0,L|36:252,1,80
44,268,204624,1,0,0:0:0:0:
28,284,204707,1,0,0:0:0:0:
96,176,204874,6,0,P|96:136|72:96,1,80
8,40,205207,1,0,0:0:0:0:
152,88,205374,5,0,0:0:0:0:
188,88,205457,1,0,0:0:0:0:
220,72,205541,1,0,0:0:0:0:
244,44,205624,1,0,0:0:0:0:
248,8,205707,2,0,L|260:104,1,80
276,204,206041,5,0,0:0:0:0:
416,224,206207,1,0,0:0:0:0:
364,96,206374,2,0,L|352:192,1,80
328,340,206707,1,0,0:0:0:0:
328,340,207041,6,0,P|269:318|196:340,1,120.000004577637
180,372,207291,1,0,0:0:0:0:
132,348,207374,5,0,0:0:0:0:
120,348,207457,1,0,0:0:0:0:
108,348,207541,1,0,0:0:0:0:
16,224,207707,1,0,0:0:0:0:
108,260,207874,1,0,0:0:0:0:
120,260,207957,1,0,0:0:0:0:
132,260,208041,6,0,P|144:212|132:176,1,80
56,52,208374,2,0,P|44:100|56:136,1,80
152,104,208707,5,0,0:0:0:0:
188,100,208791,1,0,0:0:0:0:
224,108,208874,1,0,0:0:0:0:
260,108,208957,1,0,0:0:0:0:
296,116,209041,1,0,0:0:0:0:
416,176,209207,6,0,L|448:172,2,26.6666666666667
428,152,209374,6,0,B|400:260|448:224|416:344,1,180.000006866455
352,368,209707,2,0,P|336:328|352:288,1,80
346,294,209957,1,0,0:0:0:0:
346,294,210041,1,0,0:0:0:0:
272,232,210207,5,0,0:0:0:0:
188,272,210374,2,0,L|96:260,1,80
20,160,210707,5,0,0:0:0:0:
36,128,210791,1,0,0:0:0:0:
72,116,210874,1,0,0:0:0:0:
108,124,210957,1,0,0:0:0:0:
132,152,211041,2,0,P|127:107|136:72,1,80
296,80,211374,6,0,L|212:96,1,80
376,132,211707,2,0,L|460:148,1,80
328,216,212041,6,0,B|260:236|280:320|280:320|240:312|208:292|208:292|188:360|188:360|160:344|128:344|128:344|48:336|40:248|112:204|188:288|152:304|96:300,1,560
114,300,213374,5,0,0:0:0:0:
104,88,213541,1,0,0:0:0:0:
196,148,213707,2,0,P|204:180|180:208,1,60.0000022888184
32,208,213874,2,0,P|16:184|28:152,1,60.0000022888184
105,87,214041,6,0,P|95:50|104:88,1,120.000004577637,0|0,0:0|0:0,3:0:0:0:
