osu file format v12

[General]
AudioFilename: pipipi.mp3
AudioLeadIn: 0
PreviewTime: 56123
Countdown: 0
SampleSet: None
StackLeniency: 0.7
Mode: 3
LetterboxInBreaks: 0
SpecialStyle: 0
WidescreenStoryboard: 0

[Editor]
DistanceSpacing: 1
BeatDivisor: 4
GridSize: 4
TimelineZoom: 1.4

[Metadata]
Title:+Danshi
TitleUnicode:+♂
Artist:Reol
ArtistUnicode:れをる
Creator:Cuppp
Version:No SV Another
Source:
Tags:
BeatmapID:408784
BeatmapSetID:168001

[Difficulty]
HPDrainRate:8
CircleSize:7
OverallDifficulty:8
ApproachRate:5
SliderMultiplier:1.4
SliderTickRate:1

[Events]
//Background and Video events
0,0,"pipipibg.jpg",0,0
//Break Periods
//Storyboard Layer 0 (Background)
//Storyboard Layer 1 (Fail)
//Storyboard Layer 2 (Pass)
//Storyboard Layer 3 (Foreground)
//Storyboard Sound Samples
//Background Colour Transformations
3,100,163,162,255

[TimingPoints]
708,333.333333333333,4,1,0,0,1,0
13374,333.333333333333,4,1,0,0,1,0

[HitObjects]
402,192,708,5,0,0:0:0:0:
109,192,1374,1,0,0:0:0:0:
329,192,2041,1,0,0:0:0:0:
36,192,2708,1,0,0:0:0:0:
109,192,3374,1,0,0:0:0:0:
402,192,4041,1,0,0:0:0:0:
182,192,4708,1,0,0:0:0:0:
475,192,5374,1,0,0:0:0:0:
402,192,6041,128,0,6707:0:0:0:0:
109,192,6707,128,0,7374:0:0:0:0:
329,192,7374,128,0,8041:0:0:0:0:
36,192,8041,128,0,8707:0:0:0:0:
109,192,8707,128,0,9374:0:0:0:0:
182,192,9374,128,0,10041:0:0:0:0:
402,192,9374,128,0,10041:0:0:0:0:
256,192,10041,128,0,10707:0:0:0:0:
475,192,10041,128,0,10707:0:0:0:0:
329,192,10707,128,0,11707:0:0:0:0:
109,192,10707,128,0,11707:0:0:0:0:
256,192,12041,128,0,13374:0:0:0:0:
329,192,13374,1,0,0:0:0:0:
182,192,13374,1,0,0:0:0:0:
475,192,13540,1,0,0:0:0:0:
36,192,13540,1,0,0:0:0:0:
402,192,13624,1,0,0:0:0:0:
109,192,13624,1,0,0:0:0:0:
329,192,13707,1,0,0:0:0:0:
182,192,13707,1,0,0:0:0:0:
475,192,13874,1,0,0:0:0:0:
36,192,13874,1,0,0:0:0:0:
402,192,13957,1,0,0:0:0:0:
109,192,13957,1,0,0:0:0:0:
329,192,14040,1,0,0:0:0:0:
182,192,14040,1,0,0:0:0:0:
329,192,14207,1,0,0:0:0:0:
182,192,14207,1,0,0:0:0:0:
256,192,14373,1,0,0:0:0:0:
475,192,14373,1,0,0:0:0:0:
36,192,14373,1,0,0:0:0:0:
109,192,14373,1,0,0:0:0:0:
402,192,14373,1,0,0:0:0:0:
256,192,14707,128,0,14873:0:0:0:0:
109,192,14707,1,0,0:0:0:0:
36,192,14707,1,0,0:0:0:0:
329,192,14873,128,0,14957:0:0:0:0:
182,192,14873,1,0,0:0:0:0:
475,192,15040,1,0,0:0:0:0:
109,192,15040,1,0,0:0:0:0:
36,192,15040,1,0,0:0:0:0:
329,192,15123,1,0,0:0:0:0:
475,192,15207,1,0,0:0:0:0:
182,192,15207,1,0,0:0:0:0:
329,192,15290,1,0,0:0:0:0:
402,192,15373,128,0,15540:0:0:0:0:
36,192,15373,1,0,0:0:0:0:
182,192,15373,1,0,0:0:0:0:
475,192,15540,128,0,15707:0:0:0:0:
109,192,15540,1,0,0:0:0:0:
36,192,15707,1,0,0:0:0:0:
182,192,15707,1,0,0:0:0:0:
329,192,15873,128,0,16040:0:0:0:0:
109,192,15873,1,0,0:0:0:0:
256,192,16040,128,0,16207:0:0:0:0:
36,192,16040,1,0,0:0:0:0:
475,192,16040,1,0,0:0:0:0:
182,192,16207,128,0,16290:0:0:0:0:
402,192,16207,1,0,0:0:0:0:
256,192,16290,128,0,16373:0:0:0:0:
329,192,16373,128,0,16457:0:0:0:0:
109,192,16373,1,0,0:0:0:0:
475,192,16373,1,0,0:0:0:0:
329,192,16540,128,0,16707:0:0:0:0:
36,192,16540,1,0,0:0:0:0:
182,192,16707,128,0,16873:0:0:0:0:
109,192,16707,1,0,0:0:0:0:
475,192,16707,1,0,0:0:0:0:
402,192,16873,128,0,17207:0:0:0:0:
256,192,16873,1,0,0:0:0:0:
36,192,17040,128,0,17207:0:0:0:0:
182,192,17040,1,0,0:0:0:0:
329,192,17040,1,0,0:0:0:0:
475,192,17040,1,0,0:0:0:0:
109,192,17207,128,0,17373:0:0:0:0:
329,192,17207,128,0,17373:0:0:0:0:
256,192,17207,1,0,0:0:0:0:
182,192,17373,128,0,17540:0:0:0:0:
402,192,17373,128,0,17707:0:0:0:0:
36,192,17373,1,0,0:0:0:0:
256,192,17540,128,0,17707:0:0:0:0:
109,192,17540,1,0,0:0:0:0:
475,192,17707,128,0,17873:0:0:0:0:
36,192,17707,128,0,17873:0:0:0:0:
182,192,17707,1,0,0:0:0:0:
329,192,17873,1,0,0:0:0:0:
182,192,17873,1,0,0:0:0:0:
475,192,17957,1,0,0:0:0:0:
36,192,17957,1,0,0:0:0:0:
329,192,18040,1,0,0:0:0:0:
182,192,18040,128,0,18123:0:0:0:0:
256,192,18207,128,0,18373:0:0:0:0:
36,192,18207,1,0,0:0:0:0:
402,192,18207,1,0,0:0:0:0:
475,192,18373,1,0,0:0:0:0:
329,192,18373,1,0,0:0:0:0:
109,192,18373,1,0,0:0:0:0:
36,192,18540,1,0,0:0:0:0:
402,192,18540,1,0,0:0:0:0:
256,192,18540,1,0,0:0:0:0:
109,192,18623,1,0,0:0:0:0:
182,192,18707,128,0,18873:0:0:0:0:
256,192,18707,1,0,0:0:0:0:
475,192,18707,1,0,0:0:0:0:
329,192,18873,128,0,19040:0:0:0:0:
402,192,18873,1,0,0:0:0:0:
36,192,19040,1,0,0:0:0:0:
182,192,19040,1,0,0:0:0:0:
109,192,19207,128,0,19373:0:0:0:0:
402,192,19207,1,0,0:0:0:0:
329,192,19373,128,0,19540:0:0:0:0:
182,192,19373,1,0,0:0:0:0:
36,192,19373,1,0,0:0:0:0:
475,192,19457,128,0,19623:0:0:0:0:
256,192,19540,128,0,19707:0:0:0:0:
109,192,19540,1,0,0:0:0:0:
402,192,19623,128,0,19790:0:0:0:0:
182,192,19707,128,0,19790:0:0:0:0:
36,192,19707,1,0,0:0:0:0:
329,192,19790,1,0,0:0:0:0:
109,192,19873,1,0,0:0:0:0:
475,192,19957,1,0,0:0:0:0:
402,192,19998,1,0,0:0:0:0:
36,192,20040,1,0,0:0:0:0:
109,192,20040,1,0,0:0:0:0:
256,192,20040,128,0,20206:0:0:0:0:
329,192,20040,1,0,0:0:0:0:
182,192,20206,1,0,0:0:0:0:
329,192,20206,128,0,20290:0:0:0:0:
109,192,20373,1,0,0:0:0:0:
475,192,20373,1,0,0:0:0:0:
36,192,20373,1,0,0:0:0:0:
329,192,20456,1,0,0:0:0:0:
182,192,20540,1,0,0:0:0:0:
475,192,20540,1,0,0:0:0:0:
329,192,20623,1,0,0:0:0:0:
36,192,20706,1,0,0:0:0:0:
182,192,20706,1,0,0:0:0:0:
402,192,20706,128,0,20873:0:0:0:0:
109,192,20873,1,0,0:0:0:0:
475,192,20873,128,0,21040:0:0:0:0:
182,192,21040,1,0,0:0:0:0:
36,192,21040,1,0,0:0:0:0:
329,192,21206,128,0,21373:0:0:0:0:
109,192,21206,1,0,0:0:0:0:
256,192,21373,128,0,21540:0:0:0:0:
475,192,21373,1,0,0:0:0:0:
36,192,21373,1,0,0:0:0:0:
402,192,21540,1,0,0:0:0:0:
182,192,21540,128,0,21623:0:0:0:0:
256,192,21623,128,0,21706:0:0:0:0:
109,192,21706,1,0,0:0:0:0:
329,192,21706,128,0,21790:0:0:0:0:
475,192,21706,1,0,0:0:0:0:
329,192,21873,128,0,22040:0:0:0:0:
36,192,21873,1,0,0:0:0:0:
475,192,22040,1,0,0:0:0:0:
109,192,22040,1,0,0:0:0:0:
182,192,22040,128,0,22206:0:0:0:0:
256,192,22206,5,0,0:0:0:0:
402,192,22206,128,0,22540:0:0:0:0:
36,192,22373,128,0,22540:0:0:0:0:
329,192,22373,1,0,0:0:0:0:
475,192,22373,1,0,0:0:0:0:
182,192,22373,1,0,0:0:0:0:
329,192,22540,128,0,22706:0:0:0:0:
109,192,22540,128,0,22706:0:0:0:0:
256,192,22540,1,0,0:0:0:0:
402,192,22706,128,0,23040:0:0:0:0:
182,192,22706,128,0,22873:0:0:0:0:
36,192,22707,1,0,0:0:0:0:
256,192,22873,128,0,23040:0:0:0:0:
109,192,22873,1,0,0:0:0:0:
36,192,23040,128,0,23206:0:0:0:0:
475,192,23040,128,0,23206:0:0:0:0:
182,192,23040,1,0,0:0:0:0:
329,192,23206,1,0,0:0:0:0:
182,192,23206,1,0,0:0:0:0:
475,192,23290,1,0,0:0:0:0:
36,192,23290,1,0,0:0:0:0:
402,192,23373,1,0,0:0:0:0:
109,192,23373,1,0,0:0:0:0:
256,192,23540,128,0,23707:0:0:0:0:
329,192,23707,1,0,0:0:0:0:
182,192,23790,1,0,0:0:0:0:
329,192,23873,1,0,0:0:0:0:
182,192,23957,1,0,0:0:0:0:
475,192,24040,1,0,0:0:0:0:
36,192,24040,1,0,0:0:0:0:
256,192,24207,1,0,0:0:0:0:
109,192,24373,1,0,0:0:0:0:
109,192,24540,1,0,0:0:0:0:
182,192,24707,1,0,0:0:0:0:
329,192,24873,1,0,0:0:0:0:
402,192,24873,1,0,0:0:0:0:
329,192,25040,1,0,0:0:0:0:
402,192,25040,1,0,0:0:0:0:
329,192,25207,1,0,0:0:0:0:
402,192,25207,1,0,0:0:0:0:
329,192,25373,1,0,0:0:0:0:
402,192,25373,1,0,0:0:0:0:
36,192,25373,1,0,0:0:0:0:
182,192,25540,1,0,0:0:0:0:
475,192,25623,1,0,0:0:0:0:
109,192,25707,1,0,0:0:0:0:
36,192,25707,1,0,0:0:0:0:
329,192,25707,1,0,0:0:0:0:
475,192,25873,1,0,0:0:0:0:
182,192,25873,1,0,0:0:0:0:
109,192,26040,1,0,0:0:0:0:
36,192,26040,1,0,0:0:0:0:
329,192,26040,1,0,0:0:0:0:
402,192,26207,1,0,0:0:0:0:
182,192,26207,1,0,0:0:0:0:
109,192,26373,1,0,0:0:0:0:
36,192,26373,1,0,0:0:0:0:
329,192,26373,1,0,0:0:0:0:
256,192,26540,1,0,0:0:0:0:
475,192,26707,1,0,0:0:0:0:
402,192,26707,1,0,0:0:0:0:
182,192,26707,1,0,0:0:0:0:
36,192,26873,128,0,27040:0:0:0:0:
329,192,26873,1,0,0:0:0:0:
109,192,27040,1,0,0:0:0:0:
475,192,27040,1,0,0:0:0:0:
402,192,27040,1,0,0:0:0:0:
182,192,27040,1,0,0:0:0:0:
36,192,27207,1,0,0:0:0:0:
329,192,27207,1,0,0:0:0:0:
109,192,27373,1,0,0:0:0:0:
475,192,27373,1,0,0:0:0:0:
402,192,27373,1,0,0:0:0:0:
182,192,27373,1,0,0:0:0:0:
36,192,27373,128,0,27873:0:0:0:0:
329,192,27540,1,0,0:0:0:0:
182,192,27540,128,0,27873:0:0:0:0:
475,192,27540,1,0,0:0:0:0:
329,192,27707,128,0,27873:0:0:0:0:
256,192,27707,1,0,0:0:0:0:
475,192,27873,1,0,0:0:0:0:
182,192,28040,1,0,0:0:0:0:
402,192,28040,1,0,0:0:0:0:
109,192,28040,1,0,0:0:0:0:
475,192,28207,1,0,0:0:0:0:
256,192,28207,1,0,0:0:0:0:
329,192,28290,1,0,0:0:0:0:
182,192,28373,1,0,0:0:0:0:
402,192,28373,1,0,0:0:0:0:
109,192,28373,1,0,0:0:0:0:
36,192,28540,1,0,0:0:0:0:
402,192,28540,1,0,0:0:0:0:
182,192,28707,1,0,0:0:0:0:
475,192,28707,1,0,0:0:0:0:
329,192,28707,1,0,0:0:0:0:
36,192,28873,1,0,0:0:0:0:
256,192,28873,1,0,0:0:0:0:
109,192,29040,1,0,0:0:0:0:
475,192,29040,1,0,0:0:0:0:
329,192,29040,1,0,0:0:0:0:
182,192,29207,1,0,0:0:0:0:
36,192,29373,1,0,0:0:0:0:
402,192,29373,1,0,0:0:0:0:
329,192,29373,1,0,0:0:0:0:
109,192,29540,1,0,0:0:0:0:
36,192,29707,1,0,0:0:0:0:
402,192,29707,1,0,0:0:0:0:
475,192,29707,1,0,0:0:0:0:
256,192,29707,128,0,29873:0:0:0:0:
182,192,29873,1,0,0:0:0:0:
329,192,29873,128,0,30040:0:0:0:0:
256,192,30040,1,0,0:0:0:0:
36,192,30040,1,0,0:0:0:0:
402,192,30040,128,0,30207:0:0:0:0:
182,192,30207,1,0,0:0:0:0:
475,192,30207,128,0,30373:0:0:0:0:
256,192,30373,1,0,0:0:0:0:
36,192,30373,1,0,0:0:0:0:
402,192,30373,128,0,30540:0:0:0:0:
329,192,30540,128,0,30707:0:0:0:0:
182,192,30540,1,0,0:0:0:0:
109,192,30707,1,0,0:0:0:0:
256,192,30707,1,0,0:0:0:0:
475,192,30707,128,0,30790:0:0:0:0:
402,192,30873,128,0,30957:0:0:0:0:
36,192,30957,1,0,0:0:0:0:
182,192,31040,1,0,0:0:0:0:
109,192,31040,1,0,0:0:0:0:
329,192,31040,128,0,31123:0:0:0:0:
475,192,31207,1,0,0:0:0:0:
256,192,31207,128,0,31290:0:0:0:0:
182,192,31373,1,0,0:0:0:0:
109,192,31373,1,0,0:0:0:0:
402,192,31540,1,0,0:0:0:0:
256,192,31540,1,0,0:0:0:0:
182,192,31707,1,0,0:0:0:0:
109,192,31707,1,0,0:0:0:0:
402,192,31873,1,0,0:0:0:0:
36,192,31873,1,0,0:0:0:0:
256,192,32040,1,0,0:0:0:0:
329,192,32040,1,0,0:0:0:0:
36,192,32207,1,0,0:0:0:0:
109,192,32207,1,0,0:0:0:0:
475,192,32207,1,0,0:0:0:0:
329,192,32373,1,0,0:0:0:0:
256,192,32373,1,0,0:0:0:0:
109,192,32373,1,0,0:0:0:0:
182,192,32540,1,0,0:0:0:0:
329,192,32707,1,0,0:0:0:0:
256,192,32707,1,0,0:0:0:0:
109,192,32707,1,0,0:0:0:0:
475,192,32873,1,0,0:0:0:0:
36,192,32873,1,0,0:0:0:0:
109,192,32873,128,0,33040:0:0:0:0:
182,192,33040,1,0,0:0:0:0:
256,192,33040,1,0,0:0:0:0:
402,192,33040,128,0,33207:0:0:0:0:
475,192,33207,1,0,0:0:0:0:
36,192,33207,1,0,0:0:0:0:
182,192,33373,1,0,0:0:0:0:
329,192,33373,1,0,0:0:0:0:
256,192,33373,1,0,0:0:0:0:
475,192,33540,1,0,0:0:0:0:
36,192,33540,1,0,0:0:0:0:
402,192,33623,1,0,0:0:0:0:
329,192,33707,1,0,0:0:0:0:
182,192,33707,1,0,0:0:0:0:
256,192,33707,1,0,0:0:0:0:
475,192,33873,1,0,0:0:0:0:
36,192,33873,1,0,0:0:0:0:
109,192,34040,1,0,0:0:0:0:
329,192,34040,1,0,0:0:0:0:
402,192,34040,1,0,0:0:0:0:
182,192,34207,1,0,0:0:0:0:
475,192,34207,1,0,0:0:0:0:
256,192,34373,1,0,0:0:0:0:
109,192,34373,1,0,0:0:0:0:
36,192,34373,1,0,0:0:0:0:
402,192,34540,1,0,0:0:0:0:
182,192,34540,1,0,0:0:0:0:
329,192,34707,1,0,0:0:0:0:
36,192,34707,1,0,0:0:0:0:
256,192,34707,1,0,0:0:0:0:
182,192,34790,1,0,0:0:0:0:
402,192,34873,1,0,0:0:0:0:
109,192,34957,1,0,0:0:0:0:
475,192,35040,1,0,0:0:0:0:
256,192,35040,1,0,0:0:0:0:
329,192,35040,1,0,0:0:0:0:
36,192,35123,1,0,0:0:0:0:
402,192,35207,1,0,0:0:0:0:
182,192,35290,1,0,0:0:0:0:
329,192,35373,1,0,0:0:0:0:
475,192,35373,1,0,0:0:0:0:
109,192,35457,1,0,0:0:0:0:
256,192,35540,1,0,0:0:0:0:
402,192,35540,1,0,0:0:0:0:
36,192,35623,1,0,0:0:0:0:
182,192,35707,1,0,0:0:0:0:
402,192,35707,1,0,0:0:0:0:
329,192,35790,1,0,0:0:0:0:
475,192,35873,1,0,0:0:0:0:
109,192,35873,1,0,0:0:0:0:
256,192,35957,1,0,0:0:0:0:
329,192,36040,1,0,0:0:0:0:
36,192,36040,1,0,0:0:0:0:
402,192,36040,1,0,0:0:0:0:
182,192,36207,1,0,0:0:0:0:
475,192,36290,1,0,0:0:0:0:
109,192,36374,1,0,0:0:0:0:
36,192,36374,1,0,0:0:0:0:
329,192,36374,1,0,0:0:0:0:
182,192,36540,1,0,0:0:0:0:
475,192,36540,1,0,0:0:0:0:
36,192,36707,1,0,0:0:0:0:
329,192,36707,1,0,0:0:0:0:
109,192,36707,1,0,0:0:0:0:
182,192,36874,1,0,0:0:0:0:
402,192,36874,1,0,0:0:0:0:
109,192,37040,1,0,0:0:0:0:
329,192,37040,1,0,0:0:0:0:
36,192,37040,1,0,0:0:0:0:
256,192,37207,1,0,0:0:0:0:
182,192,37373,128,0,37540:0:0:0:0:
109,192,37373,1,0,0:0:0:0:
475,192,37374,1,0,0:0:0:0:
402,192,37374,1,0,0:0:0:0:
329,192,37540,1,0,0:0:0:0:
36,192,37540,128,0,37707:0:0:0:0:
475,192,37707,1,0,0:0:0:0:
402,192,37707,1,0,0:0:0:0:
182,192,37707,1,0,0:0:0:0:
256,192,37707,128,0,37873:0:0:0:0:
329,192,37873,1,0,0:0:0:0:
475,192,37873,1,0,0:0:0:0:
109,192,37873,128,0,38040:0:0:0:0:
182,192,38040,1,0,0:0:0:0:
329,192,38040,1,0,0:0:0:0:
36,192,38040,1,0,0:0:0:0:
402,192,38040,1,0,0:0:0:0:
475,192,38040,128,0,38123:0:0:0:0:
256,192,38207,1,0,0:0:0:0:
182,192,38207,1,0,0:0:0:0:
402,192,38207,128,0,38290:0:0:0:0:
475,192,38373,1,0,0:0:0:0:
182,192,38373,1,0,0:0:0:0:
109,192,38373,1,0,0:0:0:0:
329,192,38373,128,0,38457:0:0:0:0:
36,192,38540,1,0,0:0:0:0:
256,192,38540,1,0,0:0:0:0:
329,192,38707,1,0,0:0:0:0:
402,192,38707,1,0,0:0:0:0:
109,192,38707,1,0,0:0:0:0:
256,192,38874,1,0,0:0:0:0:
475,192,38874,1,0,0:0:0:0:
329,192,38957,1,0,0:0:0:0:
402,192,39040,1,0,0:0:0:0:
182,192,39040,1,0,0:0:0:0:
109,192,39040,1,0,0:0:0:0:
402,192,39207,1,0,0:0:0:0:
36,192,39207,1,0,0:0:0:0:
475,192,39374,1,0,0:0:0:0:
182,192,39374,1,0,0:0:0:0:
329,192,39374,1,0,0:0:0:0:
256,192,39540,1,0,0:0:0:0:
36,192,39540,1,0,0:0:0:0:
109,192,39707,1,0,0:0:0:0:
475,192,39707,1,0,0:0:0:0:
329,192,39707,1,0,0:0:0:0:
182,192,39874,1,0,0:0:0:0:
402,192,40040,1,0,0:0:0:0:
36,192,40040,1,0,0:0:0:0:
329,192,40040,1,0,0:0:0:0:
109,192,40207,1,0,0:0:0:0:
256,192,40374,128,0,40540:0:0:0:0:
402,192,40374,1,0,0:0:0:0:
475,192,40374,1,0,0:0:0:0:
36,192,40374,1,0,0:0:0:0:
182,192,40540,1,0,0:0:0:0:
329,192,40540,128,0,40707:0:0:0:0:
256,192,40707,1,0,0:0:0:0:
402,192,40707,128,0,40874:0:0:0:0:
36,192,40707,1,0,0:0:0:0:
182,192,40874,1,0,0:0:0:0:
475,192,40874,128,0,41040:0:0:0:0:
402,192,41040,128,0,41207:0:0:0:0:
36,192,41040,1,0,0:0:0:0:
256,192,41040,1,0,0:0:0:0:
329,192,41207,128,0,41374:0:0:0:0:
109,192,41207,1,0,0:0:0:0:
182,192,41373,1,0,0:0:0:0:
36,192,41373,1,0,0:0:0:0:
475,192,41373,1,0,0:0:0:0:
329,192,41540,1,0,0:0:0:0:
109,192,41707,1,0,0:0:0:0:
475,192,41707,1,0,0:0:0:0:
256,192,41707,1,0,0:0:0:0:
329,192,41873,1,0,0:0:0:0:
402,192,42040,1,0,0:0:0:0:
182,192,42040,1,0,0:0:0:0:
36,192,42040,1,0,0:0:0:0:
475,192,42207,1,0,0:0:0:0:
402,192,42373,1,0,0:0:0:0:
182,192,42373,1,0,0:0:0:0:
109,192,42373,1,0,0:0:0:0:
329,192,42540,1,0,0:0:0:0:
36,192,42540,1,0,0:0:0:0:
475,192,42707,1,0,0:0:0:0:
109,192,42707,1,0,0:0:0:0:
182,192,42707,1,0,0:0:0:0:
36,192,42873,1,0,0:0:0:0:
402,192,42957,1,0,0:0:0:0:
329,192,43040,1,0,0:0:0:0:
256,192,43040,1,0,0:0:0:0:
109,192,43040,1,0,0:0:0:0:
182,192,43207,1,0,0:0:0:0:
475,192,43373,1,0,0:0:0:0:
36,192,43373,1,0,0:0:0:0:
256,192,43373,1,0,0:0:0:0:
329,192,43540,1,0,0:0:0:0:
182,192,43540,1,0,0:0:0:0:
475,192,43707,1,0,0:0:0:0:
36,192,43707,1,0,0:0:0:0:
256,192,43707,1,0,0:0:0:0:
182,192,43873,1,0,0:0:0:0:
402,192,44040,1,0,0:0:0:0:
109,192,44040,1,0,0:0:0:0:
36,192,44040,1,0,0:0:0:0:
329,192,44207,1,0,0:0:0:0:
182,192,44207,1,0,0:0:0:0:
36,192,44373,1,0,0:0:0:0:
475,192,44373,1,0,0:0:0:0:
256,192,44373,1,0,0:0:0:0:
109,192,44457,1,0,0:0:0:0:
182,192,44540,1,0,0:0:0:0:
329,192,44623,1,0,0:0:0:0:
402,192,44707,1,0,0:0:0:0:
36,192,44707,1,0,0:0:0:0:
256,192,44790,1,0,0:0:0:0:
182,192,44873,1,0,0:0:0:0:
329,192,44957,1,0,0:0:0:0:
402,192,45040,1,0,0:0:0:0:
109,192,45040,1,0,0:0:0:0:
475,192,45123,1,0,0:0:0:0:
36,192,45207,1,0,0:0:0:0:
256,192,45373,1,0,0:0:0:0:
109,192,45373,1,0,0:0:0:0:
329,192,45373,1,0,0:0:0:0:
402,192,45457,1,0,0:0:0:0:
182,192,45540,5,0,0:0:0:0:
329,192,45623,1,0,0:0:0:0:
109,192,45707,1,0,0:0:0:0:
256,192,45707,1,0,0:0:0:0:
402,192,45790,1,0,0:0:0:0:
182,192,45873,1,0,0:0:0:0:
475,192,45957,1,0,0:0:0:0:
109,192,46040,1,0,0:0:0:0:
256,192,46040,1,0,0:0:0:0:
402,192,46123,1,0,0:0:0:0:
36,192,46207,1,0,0:0:0:0:
329,192,46290,1,0,0:0:0:0:
109,192,46373,1,0,0:0:0:0:
475,192,46373,1,0,0:0:0:0:
402,192,46457,1,0,0:0:0:0:
256,192,46540,1,0,0:0:0:0:
182,192,46707,128,0,47707:0:0:0:0:
109,192,46707,128,0,48040:0:0:0:0:
36,192,46707,128,0,49373:0:0:0:0:
329,192,46707,128,0,47707:0:0:0:0:
402,192,46707,128,0,48040:0:0:0:0:
475,192,46707,128,0,49373:0:0:0:0:
256,192,48040,1,0,0:0:0:0:
329,192,48873,128,0,50707:0:0:0:0:
182,192,48873,128,0,50707:0:0:0:0:
402,192,49373,128,0,51207:0:0:0:0:
109,192,49373,128,0,51207:0:0:0:0:
475,192,49707,128,0,52040:0:0:0:0:
36,192,49707,128,0,52040:0:0:0:0:
329,192,51707,1,0,0:0:0:0:
182,192,51790,1,0,0:0:0:0:
329,192,51873,1,0,0:0:0:0:
182,192,51957,1,0,0:0:0:0:
402,192,52040,128,0,53707:0:0:0:0:
109,192,52040,128,0,53707:0:0:0:0:
36,192,52373,128,0,54707:0:0:0:0:
475,192,52373,128,0,54707:0:0:0:0:
329,192,54207,128,0,55540:0:0:0:0:
182,192,54207,128,0,55540:0:0:0:0:
109,192,54707,128,0,56040:0:0:0:0:
402,192,54707,128,0,56040:0:0:0:0:
36,192,55040,128,0,56040:0:0:0:0:
475,192,55040,128,0,56040:0:0:0:0:
329,192,56040,1,0,0:0:0:0:
182,192,56040,1,0,0:0:0:0:
256,192,56040,1,0,0:0:0:0:
109,192,56873,5,0,0:0:0:0:
402,192,56873,1,0,0:0:0:0:
109,192,57040,1,0,0:0:0:0:
402,192,57040,1,0,0:0:0:0:
109,192,57207,1,0,0:0:0:0:
402,192,57207,1,0,0:0:0:0:
109,192,57373,1,0,0:0:0:0:
329,192,57373,1,0,0:0:0:0:
475,192,57373,1,0,0:0:0:0:
256,192,57373,128,0,57540:0:0:0:0:
402,192,57457,1,0,0:0:0:0:
36,192,57540,1,0,0:0:0:0:
109,192,57623,1,0,0:0:0:0:
329,192,57707,1,0,0:0:0:0:
475,192,57707,1,0,0:0:0:0:
182,192,57707,1,0,0:0:0:0:
109,192,57790,1,0,0:0:0:0:
256,192,57873,1,0,0:0:0:0:
36,192,57873,1,0,0:0:0:0:
402,192,57957,1,0,0:0:0:0:
329,192,58040,1,0,0:0:0:0:
182,192,58040,1,0,0:0:0:0:
36,192,58040,128,0,58207:0:0:0:0:
402,192,58123,1,0,0:0:0:0:
475,192,58207,1,0,0:0:0:0:
109,192,58207,1,0,0:0:0:0:
402,192,58290,1,0,0:0:0:0:
329,192,58373,1,0,0:0:0:0:
182,192,58373,1,0,0:0:0:0:
109,192,58373,1,0,0:0:0:0:
256,192,58457,1,0,0:0:0:0:
182,192,58540,1,0,0:0:0:0:
475,192,58540,1,0,0:0:0:0:
329,192,58623,1,0,0:0:0:0:
109,192,58707,1,0,0:0:0:0:
256,192,58707,1,0,0:0:0:0:
402,192,58707,1,0,0:0:0:0:
475,192,58707,128,0,58873:0:0:0:0:
182,192,58790,1,0,0:0:0:0:
36,192,58873,1,0,0:0:0:0:
256,192,58873,1,0,0:0:0:0:
329,192,58957,1,0,0:0:0:0:
109,192,59040,1,0,0:0:0:0:
402,192,59040,1,0,0:0:0:0:
36,192,59040,1,0,0:0:0:0:
182,192,59123,1,0,0:0:0:0:
329,192,59207,1,0,0:0:0:0:
402,192,59207,1,0,0:0:0:0:
475,192,59290,1,0,0:0:0:0:
36,192,59373,1,0,0:0:0:0:
109,192,59373,1,0,0:0:0:0:
256,192,59373,1,0,0:0:0:0:
329,192,59457,1,0,0:0:0:0:
402,192,59540,1,0,0:0:0:0:
182,192,59540,1,0,0:0:0:0:
329,192,59623,1,0,0:0:0:0:
256,192,59707,1,0,0:0:0:0:
109,192,59707,1,0,0:0:0:0:
36,192,59707,1,0,0:0:0:0:
182,192,59790,1,0,0:0:0:0:
36,192,59873,1,0,0:0:0:0:
475,192,59873,1,0,0:0:0:0:
109,192,59957,1,0,0:0:0:0:
182,192,60040,1,0,0:0:0:0:
329,192,60040,1,0,0:0:0:0:
402,192,60040,1,0,0:0:0:0:
109,192,60123,1,0,0:0:0:0:
36,192,60207,1,0,0:0:0:0:
475,192,60207,1,0,0:0:0:0:
109,192,60290,1,0,0:0:0:0:
182,192,60373,1,0,0:0:0:0:
329,192,60373,1,0,0:0:0:0:
402,192,60373,1,0,0:0:0:0:
475,192,60457,1,0,0:0:0:0:
256,192,60540,1,0,0:0:0:0:
36,192,60540,1,0,0:0:0:0:
475,192,60623,1,0,0:0:0:0:
329,192,60707,1,0,0:0:0:0:
109,192,60707,1,0,0:0:0:0:
182,192,60707,1,0,0:0:0:0:
402,192,60790,1,0,0:0:0:0:
256,192,60873,1,0,0:0:0:0:
36,192,60873,1,0,0:0:0:0:
402,192,60957,1,0,0:0:0:0:
329,192,61040,1,0,0:0:0:0:
109,192,61040,1,0,0:0:0:0:
182,192,61040,1,0,0:0:0:0:
36,192,61123,1,0,0:0:0:0:
109,192,61207,1,0,0:0:0:0:
402,192,61207,1,0,0:0:0:0:
182,192,61290,1,0,0:0:0:0:
256,192,61373,1,0,0:0:0:0:
475,192,61373,1,0,0:0:0:0:
402,192,61373,1,0,0:0:0:0:
182,192,61457,1,0,0:0:0:0:
109,192,61540,1,0,0:0:0:0:
329,192,61540,1,0,0:0:0:0:
36,192,61623,1,0,0:0:0:0:
256,192,61707,1,0,0:0:0:0:
402,192,61707,1,0,0:0:0:0:
475,192,61707,1,0,0:0:0:0:
182,192,61790,1,0,0:0:0:0:
36,192,61873,1,0,0:0:0:0:
329,192,61873,1,0,0:0:0:0:
182,192,61957,1,0,0:0:0:0:
402,192,62040,1,0,0:0:0:0:
256,192,62040,1,0,0:0:0:0:
109,192,62040,1,0,0:0:0:0:
475,192,62123,1,0,0:0:0:0:
256,192,62207,1,0,0:0:0:0:
402,192,62207,1,0,0:0:0:0:
109,192,62290,1,0,0:0:0:0:
36,192,62373,1,0,0:0:0:0:
182,192,62373,1,0,0:0:0:0:
329,192,62373,1,0,0:0:0:0:
475,192,62457,1,0,0:0:0:0:
182,192,62540,1,0,0:0:0:0:
402,192,62540,1,0,0:0:0:0:
329,192,62623,1,0,0:0:0:0:
109,192,62707,1,0,0:0:0:0:
256,192,62707,1,0,0:0:0:0:
475,192,62707,1,0,0:0:0:0:
182,192,62790,1,0,0:0:0:0:
402,192,62873,1,0,0:0:0:0:
36,192,62873,1,0,0:0:0:0:
329,192,62957,1,0,0:0:0:0:
256,192,63040,1,0,0:0:0:0:
475,192,63040,1,0,0:0:0:0:
109,192,63040,1,0,0:0:0:0:
182,192,63123,1,0,0:0:0:0:
36,192,63207,1,0,0:0:0:0:
402,192,63207,1,0,0:0:0:0:
329,192,63290,1,0,0:0:0:0:
475,192,63373,1,0,0:0:0:0:
109,192,63373,1,0,0:0:0:0:
256,192,63373,1,0,0:0:0:0:
182,192,63457,1,0,0:0:0:0:
36,192,63540,1,0,0:0:0:0:
402,192,63540,1,0,0:0:0:0:
329,192,63623,1,0,0:0:0:0:
475,192,63707,1,0,0:0:0:0:
256,192,63707,1,0,0:0:0:0:
109,192,63707,1,0,0:0:0:0:
182,192,63790,1,0,0:0:0:0:
36,192,63873,1,0,0:0:0:0:
402,192,63873,1,0,0:0:0:0:
329,192,63957,1,0,0:0:0:0:
256,192,64040,1,0,0:0:0:0:
475,192,64040,1,0,0:0:0:0:
109,192,64040,1,0,0:0:0:0:
182,192,64123,1,0,0:0:0:0:
402,192,64207,1,0,0:0:0:0:
36,192,64207,1,0,0:0:0:0:
109,192,64290,1,0,0:0:0:0:
182,192,64373,1,0,0:0:0:0:
475,192,64373,1,0,0:0:0:0:
256,192,64457,1,0,0:0:0:0:
182,192,64540,1,0,0:0:0:0:
329,192,64540,1,0,0:0:0:0:
402,192,64623,1,0,0:0:0:0:
475,192,64707,1,0,0:0:0:0:
36,192,64707,1,0,0:0:0:0:
109,192,64707,1,0,0:0:0:0:
329,192,64790,1,0,0:0:0:0:
182,192,64873,1,0,0:0:0:0:
402,192,64873,1,0,0:0:0:0:
475,192,64957,1,0,0:0:0:0:
256,192,65040,1,0,0:0:0:0:
36,192,65040,1,0,0:0:0:0:
109,192,65040,1,0,0:0:0:0:
475,192,65123,1,0,0:0:0:0:
182,192,65123,1,0,0:0:0:0:
329,192,65207,1,0,0:0:0:0:
402,192,65207,1,0,0:0:0:0:
256,192,65290,1,0,0:0:0:0:
182,192,65373,5,0,0:0:0:0:
475,192,65373,1,0,0:0:0:0:
36,192,65457,1,0,0:0:0:0:
402,192,65540,5,0,0:0:0:0:
109,192,65540,1,0,0:0:0:0:
475,192,65623,1,0,0:0:0:0:
329,192,65707,1,0,0:0:0:0:
36,192,65707,1,0,0:0:0:0:
256,192,65790,1,0,0:0:0:0:
475,192,65873,1,0,0:0:0:0:
182,192,65873,1,0,0:0:0:0:
36,192,65957,1,0,0:0:0:0:
402,192,66040,1,0,0:0:0:0:
109,192,66040,1,0,0:0:0:0:
475,192,66123,1,0,0:0:0:0:
329,192,66207,1,0,0:0:0:0:
36,192,66207,1,0,0:0:0:0:
256,192,66290,1,0,0:0:0:0:
475,192,66373,1,0,0:0:0:0:
182,192,66373,1,0,0:0:0:0:
36,192,66457,1,0,0:0:0:0:
402,192,66540,1,0,0:0:0:0:
109,192,66540,1,0,0:0:0:0:
475,192,66623,1,0,0:0:0:0:
182,192,66707,5,0,0:0:0:0:
402,192,66707,128,0,67040:0:0:0:0:
329,192,66707,1,0,0:0:0:0:
36,192,66707,1,0,0:0:0:0:
475,192,67040,1,0,0:0:0:0:
36,192,67040,1,0,0:0:0:0:
109,192,67040,128,0,67373:0:0:0:0:
182,192,67040,1,0,0:0:0:0:
329,192,67040,1,0,0:0:0:0:
256,192,67373,1,0,0:0:0:0:
182,192,67373,128,0,67707:0:0:0:0:
329,192,67373,128,0,67707:0:0:0:0:
475,192,67707,1,0,0:0:0:0:
36,192,67707,1,0,0:0:0:0:
329,192,68040,1,0,0:0:0:0:
36,192,68040,1,0,0:0:0:0:
475,192,68040,128,0,68207:0:0:0:0:
109,192,68123,1,0,0:0:0:0:
182,192,68207,1,0,0:0:0:0:
256,192,68290,1,0,0:0:0:0:
36,192,68373,1,0,0:0:0:0:
109,192,68373,1,0,0:0:0:0:
475,192,68373,1,0,0:0:0:0:
402,192,68457,1,0,0:0:0:0:
329,192,68540,1,0,0:0:0:0:
475,192,68540,128,0,68707:0:0:0:0:
256,192,68623,1,0,0:0:0:0:
109,192,68707,1,0,0:0:0:0:
402,192,68707,1,0,0:0:0:0:
329,192,68790,1,0,0:0:0:0:
182,192,68873,1,0,0:0:0:0:
36,192,68873,1,0,0:0:0:0:
475,192,68957,1,0,0:0:0:0:
182,192,69040,1,0,0:0:0:0:
402,192,69040,1,0,0:0:0:0:
329,192,69123,1,0,0:0:0:0:
182,192,69207,1,0,0:0:0:0:
109,192,69290,1,0,0:0:0:0:
329,192,69373,1,0,0:0:0:0:
36,192,69373,1,0,0:0:0:0:
475,192,69373,128,0,69540:0:0:0:0:
109,192,69457,1,0,0:0:0:0:
182,192,69540,1,0,0:0:0:0:
256,192,69623,1,0,0:0:0:0:
36,192,69707,1,0,0:0:0:0:
109,192,69707,1,0,0:0:0:0:
475,192,69707,1,0,0:0:0:0:
402,192,69790,1,0,0:0:0:0:
329,192,69873,1,0,0:0:0:0:
475,192,69873,128,0,70040:0:0:0:0:
256,192,69957,1,0,0:0:0:0:
402,192,70040,1,0,0:0:0:0:
109,192,70040,1,0,0:0:0:0:
329,192,70123,1,0,0:0:0:0:
182,192,70207,1,0,0:0:0:0:
36,192,70207,1,0,0:0:0:0:
329,192,70290,1,0,0:0:0:0:
109,192,70373,1,0,0:0:0:0:
256,192,70373,1,0,0:0:0:0:
402,192,70373,1,0,0:0:0:0:
329,192,70457,1,0,0:0:0:0:
182,192,70540,1,0,0:0:0:0:
256,192,70623,1,0,0:0:0:0:
182,192,70707,1,0,0:0:0:0:
475,192,70707,1,0,0:0:0:0:
36,192,70707,128,0,70873:0:0:0:0:
402,192,70790,1,0,0:0:0:0:
329,192,70874,1,0,0:0:0:0:
256,192,70957,1,0,0:0:0:0:
402,192,71040,1,0,0:0:0:0:
475,192,71040,1,0,0:0:0:0:
36,192,71040,1,0,0:0:0:0:
109,192,71124,1,0,0:0:0:0:
182,192,71207,1,0,0:0:0:0:
36,192,71207,128,0,71373:0:0:0:0:
256,192,71290,1,0,0:0:0:0:
402,192,71374,1,0,0:0:0:0:
109,192,71374,1,0,0:0:0:0:
182,192,71457,1,0,0:0:0:0:
329,192,71540,1,0,0:0:0:0:
475,192,71540,1,0,0:0:0:0:
36,192,71624,1,0,0:0:0:0:
109,192,71707,1,0,0:0:0:0:
329,192,71707,1,0,0:0:0:0:
182,192,71790,1,0,0:0:0:0:
329,192,71874,1,0,0:0:0:0:
402,192,71957,1,0,0:0:0:0:
36,192,71957,1,0,0:0:0:0:
475,192,72040,1,0,0:0:0:0:
256,192,72040,1,0,0:0:0:0:
182,192,72040,1,0,0:0:0:0:
329,192,72123,1,0,0:0:0:0:
402,192,72207,1,0,0:0:0:0:
182,192,72207,1,0,0:0:0:0:
36,192,72290,1,0,0:0:0:0:
182,192,72373,1,0,0:0:0:0:
109,192,72373,1,0,0:0:0:0:
402,192,72373,1,0,0:0:0:0:
256,192,72457,1,0,0:0:0:0:
329,192,72540,1,0,0:0:0:0:
109,192,72540,1,0,0:0:0:0:
402,192,72623,1,0,0:0:0:0:
109,192,72707,1,0,0:0:0:0:
36,192,72707,1,0,0:0:0:0:
329,192,72707,128,0,73040:0:0:0:0:
475,192,72707,1,0,0:0:0:0:
182,192,72790,1,0,0:0:0:0:
402,192,72873,1,0,0:0:0:0:
256,192,72873,1,0,0:0:0:0:
109,192,72957,1,0,0:0:0:0:
182,192,73040,128,0,73373:0:0:0:0:
475,192,73040,1,0,0:0:0:0:
36,192,73040,1,0,0:0:0:0:
402,192,73123,1,0,0:0:0:0:
256,192,73207,1,0,0:0:0:0:
109,192,73207,1,0,0:0:0:0:
329,192,73290,1,0,0:0:0:0:
36,192,73373,128,0,73707:0:0:0:0:
402,192,73373,1,0,0:0:0:0:
475,192,73373,1,0,0:0:0:0:
329,192,73457,1,0,0:0:0:0:
256,192,73540,1,0,0:0:0:0:
182,192,73540,1,0,0:0:0:0:
402,192,73623,1,0,0:0:0:0:
475,192,73707,128,0,73873:0:0:0:0:
329,192,73707,1,0,0:0:0:0:
109,192,73707,1,0,0:0:0:0:
256,192,73790,1,0,0:0:0:0:
402,192,73873,128,0,74040:0:0:0:0:
182,192,73873,1,0,0:0:0:0:
36,192,73873,1,0,0:0:0:0:
329,192,73957,1,0,0:0:0:0:
182,192,74040,128,0,74373:0:0:0:0:
256,192,74040,1,0,0:0:0:0:
36,192,74040,1,0,0:0:0:0:
109,192,74123,1,0,0:0:0:0:
402,192,74207,1,0,0:0:0:0:
329,192,74207,1,0,0:0:0:0:
475,192,74290,1,0,0:0:0:0:
36,192,74373,128,0,74540:0:0:0:0:
329,192,74373,1,0,0:0:0:0:
256,192,74373,1,0,0:0:0:0:
402,192,74457,1,0,0:0:0:0:
109,192,74540,128,0,74707:0:0:0:0:
475,192,74540,1,0,0:0:0:0:
329,192,74540,1,0,0:0:0:0:
256,192,74623,1,0,0:0:0:0:
329,192,74707,128,0,75040:0:0:0:0:
402,192,74707,1,0,0:0:0:0:
182,192,74707,1,0,0:0:0:0:
475,192,74790,1,0,0:0:0:0:
36,192,74873,1,0,0:0:0:0:
109,192,74957,1,0,0:0:0:0:
475,192,75040,128,0,75207:0:0:0:0:
182,192,75040,1,0,0:0:0:0:
256,192,75040,1,0,0:0:0:0:
402,192,75207,128,0,75373:0:0:0:0:
36,192,75207,1,0,0:0:0:0:
182,192,75207,1,0,0:0:0:0:
256,192,75290,1,0,0:0:0:0:
182,192,75373,128,0,75540:0:0:0:0:
109,192,75373,1,0,0:0:0:0:
329,192,75373,1,0,0:0:0:0:
475,192,75457,1,0,0:0:0:0:
256,192,75540,128,0,75707:0:0:0:0:
402,192,75540,1,0,0:0:0:0:
36,192,75540,1,0,0:0:0:0:
329,192,75707,128,0,75873:0:0:0:0:
36,192,75707,1,0,0:0:0:0:
475,192,75707,1,0,0:0:0:0:
402,192,75790,1,0,0:0:0:0:
109,192,75873,128,0,76040:0:0:0:0:
182,192,75873,1,0,0:0:0:0:
402,192,75957,1,0,0:0:0:0:
256,192,76040,1,0,0:0:0:0:
475,192,76040,1,0,0:0:0:0:
329,192,76123,1,0,0:0:0:0:
109,192,76207,1,0,0:0:0:0:
182,192,76207,1,0,0:0:0:0:
329,192,76290,1,0,0:0:0:0:
256,192,76373,1,0,0:0:0:0:
475,192,76373,1,0,0:0:0:0:
109,192,76457,1,0,0:0:0:0:
36,192,76540,1,0,0:0:0:0:
402,192,76540,1,0,0:0:0:0:
109,192,76623,1,0,0:0:0:0:
329,192,76707,1,0,0:0:0:0:
475,192,76707,1,0,0:0:0:0:
182,192,76790,1,0,0:0:0:0:
256,192,76873,1,0,0:0:0:0:
475,192,76873,1,0,0:0:0:0:
109,192,76957,1,0,0:0:0:0:
402,192,77040,1,0,0:0:0:0:
182,192,77040,1,0,0:0:0:0:
36,192,77123,1,0,0:0:0:0:
329,192,77207,1,0,0:0:0:0:
109,192,77207,1,0,0:0:0:0:
256,192,77290,1,0,0:0:0:0:
402,192,77373,128,0,77623:0:0:0:0:
109,192,77373,128,0,77623:0:0:0:0:
256,192,77540,1,0,0:0:0:0:
109,192,77707,128,0,77957:0:0:0:0:
402,192,77707,128,0,77957:0:0:0:0:
256,192,77873,1,0,0:0:0:0:
329,192,77957,1,0,0:0:0:0:
182,192,77957,1,0,0:0:0:0:
475,192,78040,128,0,78290:0:0:0:0:
36,192,78040,128,0,78290:0:0:0:0:
256,192,78207,1,0,0:0:0:0:
329,192,78290,1,0,0:0:0:0:
182,192,78290,1,0,0:0:0:0:
475,192,78373,128,0,78623:0:0:0:0:
36,192,78373,128,0,78623:0:0:0:0:
256,192,78540,1,0,0:0:0:0:
329,192,78623,1,0,0:0:0:0:
182,192,78623,1,0,0:0:0:0:
402,192,78707,1,0,0:0:0:0:
475,192,78707,1,0,0:0:0:0:
109,192,78707,1,0,0:0:0:0:
36,192,78707,1,0,0:0:0:0:
402,192,79040,1,0,0:0:0:0:
329,192,79040,1,0,0:0:0:0:
182,192,79373,1,0,0:0:0:0:
36,192,79373,1,0,0:0:0:0:
182,192,79540,1,0,0:0:0:0:
36,192,79540,1,0,0:0:0:0:
402,192,79707,1,0,0:0:0:0:
475,192,79707,128,0,80040:0:0:0:0:
256,192,79707,1,0,0:0:0:0:
109,192,79707,1,0,0:0:0:0:
329,192,79873,1,0,0:0:0:0:
256,192,80040,1,0,0:0:0:0:
182,192,80207,1,0,0:0:0:0:
109,192,80290,1,0,0:0:0:0:
36,192,80373,1,0,0:0:0:0:
329,192,80373,1,0,0:0:0:0:
329,192,80540,1,0,0:0:0:0:
36,192,80540,1,0,0:0:0:0:
329,192,80707,1,0,0:0:0:0:
36,192,80707,1,0,0:0:0:0:
256,192,80707,1,0,0:0:0:0:
182,192,80873,1,0,0:0:0:0:
109,192,80873,1,0,0:0:0:0:
182,192,81040,1,0,0:0:0:0:
109,192,81040,1,0,0:0:0:0:
182,192,81207,1,0,0:0:0:0:
109,192,81207,1,0,0:0:0:0:
182,192,81373,1,0,0:0:0:0:
109,192,81373,1,0,0:0:0:0:
475,192,81373,1,0,0:0:0:0:
329,192,81540,1,0,0:0:0:0:
36,192,81623,1,0,0:0:0:0:
475,192,81707,1,0,0:0:0:0:
182,192,81707,1,0,0:0:0:0:
402,192,81707,1,0,0:0:0:0:
329,192,81873,1,0,0:0:0:0:
36,192,81873,1,0,0:0:0:0:
402,192,82040,1,0,0:0:0:0:
475,192,82040,1,0,0:0:0:0:
182,192,82040,1,0,0:0:0:0:
329,192,82207,1,0,0:0:0:0:
109,192,82207,1,0,0:0:0:0:
402,192,82373,1,0,0:0:0:0:
475,192,82373,1,0,0:0:0:0:
182,192,82373,1,0,0:0:0:0:
256,192,82540,1,0,0:0:0:0:
109,192,82707,1,0,0:0:0:0:
329,192,82707,1,0,0:0:0:0:
36,192,82707,1,0,0:0:0:0:
182,192,82873,1,0,0:0:0:0:
475,192,82873,128,0,83040:0:0:0:0:
402,192,83040,1,0,0:0:0:0:
329,192,83040,1,0,0:0:0:0:
109,192,83040,1,0,0:0:0:0:
36,192,83040,1,0,0:0:0:0:
182,192,83207,1,0,0:0:0:0:
475,192,83207,1,0,0:0:0:0:
402,192,83373,1,0,0:0:0:0:
109,192,83373,1,0,0:0:0:0:
36,192,83373,1,0,0:0:0:0:
475,192,83373,128,0,83873:0:0:0:0:
329,192,83373,1,0,0:0:0:0:
36,192,83540,1,0,0:0:0:0:
182,192,83540,1,0,0:0:0:0:
329,192,83540,128,0,83873:0:0:0:0:
182,192,83707,128,0,83873:0:0:0:0:
256,192,83707,1,0,0:0:0:0:
36,192,83873,1,0,0:0:0:0:
329,192,84040,1,0,0:0:0:0:
109,192,84040,1,0,0:0:0:0:
402,192,84040,1,0,0:0:0:0:
256,192,84207,1,0,0:0:0:0:
36,192,84207,1,0,0:0:0:0:
182,192,84290,1,0,0:0:0:0:
402,192,84373,1,0,0:0:0:0:
329,192,84373,1,0,0:0:0:0:
109,192,84373,1,0,0:0:0:0:
109,192,84540,1,0,0:0:0:0:
475,192,84540,1,0,0:0:0:0:
36,192,84707,1,0,0:0:0:0:
329,192,84707,1,0,0:0:0:0:
182,192,84707,1,0,0:0:0:0:
256,192,84873,1,0,0:0:0:0:
475,192,84873,1,0,0:0:0:0:
36,192,85040,1,0,0:0:0:0:
182,192,85040,1,0,0:0:0:0:
402,192,85040,1,0,0:0:0:0:
329,192,85207,1,0,0:0:0:0:
182,192,85373,1,0,0:0:0:0:
475,192,85373,1,0,0:0:0:0:
109,192,85373,1,0,0:0:0:0:
402,192,85540,1,0,0:0:0:0:
475,192,85707,1,0,0:0:0:0:
36,192,85707,1,0,0:0:0:0:
256,192,85707,128,0,85873:0:0:0:0:
109,192,85707,1,0,0:0:0:0:
182,192,85873,128,0,86040:0:0:0:0:
329,192,85873,1,0,0:0:0:0:
109,192,86040,128,0,86207:0:0:0:0:
256,192,86040,1,0,0:0:0:0:
475,192,86040,1,0,0:0:0:0:
329,192,86207,1,0,0:0:0:0:
36,192,86207,128,0,86373:0:0:0:0:
109,192,86373,128,0,86540:0:0:0:0:
256,192,86373,1,0,0:0:0:0:
475,192,86373,1,0,0:0:0:0:
182,192,86540,128,0,86707:0:0:0:0:
329,192,86540,1,0,0:0:0:0:
256,192,86707,1,0,0:0:0:0:
402,192,86707,1,0,0:0:0:0:
36,192,86707,1,0,0:0:0:0:
109,192,86873,1,0,0:0:0:0:
475,192,86957,1,0,0:0:0:0:
402,192,87040,1,0,0:0:0:0:
329,192,87040,1,0,0:0:0:0:
182,192,87040,1,0,0:0:0:0:
36,192,87207,1,0,0:0:0:0:
256,192,87207,1,0,0:0:0:0:
402,192,87373,1,0,0:0:0:0:
329,192,87373,1,0,0:0:0:0:
256,192,87540,1,0,0:0:0:0:
109,192,87540,1,0,0:0:0:0:
329,192,87707,1,0,0:0:0:0:
402,192,87707,1,0,0:0:0:0:
475,192,87873,1,0,0:0:0:0:
109,192,87873,1,0,0:0:0:0:
256,192,88040,1,0,0:0:0:0:
182,192,88040,1,0,0:0:0:0:
475,192,88207,1,0,0:0:0:0:
36,192,88207,1,0,0:0:0:0:
402,192,88207,1,0,0:0:0:0:
182,192,88373,1,0,0:0:0:0:
256,192,88373,1,0,0:0:0:0:
402,192,88373,1,0,0:0:0:0:
329,192,88540,1,0,0:0:0:0:
256,192,88707,1,0,0:0:0:0:
402,192,88707,1,0,0:0:0:0:
182,192,88707,1,0,0:0:0:0:
402,192,88873,128,0,89040:0:0:0:0:
475,192,88873,1,0,0:0:0:0:
36,192,88873,1,0,0:0:0:0:
329,192,89040,1,0,0:0:0:0:
256,192,89040,1,0,0:0:0:0:
109,192,89040,128,0,89207:0:0:0:0:
475,192,89207,1,0,0:0:0:0:
36,192,89207,1,0,0:0:0:0:
256,192,89373,1,0,0:0:0:0:
329,192,89373,1,0,0:0:0:0:
182,192,89373,1,0,0:0:0:0:
36,192,89540,1,0,0:0:0:0:
475,192,89540,1,0,0:0:0:0:
109,192,89623,1,0,0:0:0:0:
329,192,89707,1,0,0:0:0:0:
256,192,89707,1,0,0:0:0:0:
182,192,89707,1,0,0:0:0:0:
36,192,89873,1,0,0:0:0:0:
475,192,89873,1,0,0:0:0:0:
402,192,90040,1,0,0:0:0:0:
109,192,90040,1,0,0:0:0:0:
182,192,90040,1,0,0:0:0:0:
329,192,90207,1,0,0:0:0:0:
36,192,90207,1,0,0:0:0:0:
475,192,90373,1,0,0:0:0:0:
402,192,90373,1,0,0:0:0:0:
256,192,90373,1,0,0:0:0:0:
329,192,90540,1,0,0:0:0:0:
109,192,90540,1,0,0:0:0:0:
475,192,90707,1,0,0:0:0:0:
182,192,90707,1,0,0:0:0:0:
256,192,90707,1,0,0:0:0:0:
329,192,90790,1,0,0:0:0:0:
109,192,90873,1,0,0:0:0:0:
402,192,90957,1,0,0:0:0:0:
256,192,91040,1,0,0:0:0:0:
36,192,91040,1,0,0:0:0:0:
182,192,91040,1,0,0:0:0:0:
475,192,91123,1,0,0:0:0:0:
109,192,91207,1,0,0:0:0:0:
329,192,91290,1,0,0:0:0:0:
36,192,91373,1,0,0:0:0:0:
182,192,91373,1,0,0:0:0:0:
402,192,91457,1,0,0:0:0:0:
109,192,91540,1,0,0:0:0:0:
256,192,91540,1,0,0:0:0:0:
475,192,91623,1,0,0:0:0:0:
329,192,91707,1,0,0:0:0:0:
109,192,91707,1,0,0:0:0:0:
182,192,91790,1,0,0:0:0:0:
402,192,91873,5,0,0:0:0:0:
36,192,91873,1,0,0:0:0:0:
256,192,91957,1,0,0:0:0:0:
109,192,92040,1,0,0:0:0:0:
182,192,92040,1,0,0:0:0:0:
475,192,92040,1,0,0:0:0:0:
329,192,92040,1,0,0:0:0:0:
329,192,92207,1,0,0:0:0:0:
36,192,92290,1,0,0:0:0:0:
475,192,92374,1,0,0:0:0:0:
402,192,92374,1,0,0:0:0:0:
182,192,92374,1,0,0:0:0:0:
329,192,92540,1,0,0:0:0:0:
36,192,92540,1,0,0:0:0:0:
402,192,92707,1,0,0:0:0:0:
475,192,92707,1,0,0:0:0:0:
182,192,92707,1,0,0:0:0:0:
329,192,92874,1,0,0:0:0:0:
109,192,92874,1,0,0:0:0:0:
182,192,93040,1,0,0:0:0:0:
329,192,93040,1,0,0:0:0:0:
402,192,93040,128,0,93207:0:0:0:0:
256,192,93207,1,0,0:0:0:0:
475,192,93207,128,0,93373:0:0:0:0:
36,192,93373,1,0,0:0:0:0:
182,192,93373,1,0,0:0:0:0:
329,192,93373,1,0,0:0:0:0:
256,192,93540,1,0,0:0:0:0:
329,192,93707,1,0,0:0:0:0:
182,192,93707,1,0,0:0:0:0:
36,192,93707,1,0,0:0:0:0:
109,192,93873,1,0,0:0:0:0:
36,192,94040,1,0,0:0:0:0:
182,192,94040,1,0,0:0:0:0:
329,192,94040,1,0,0:0:0:0:
256,192,94207,1,0,0:0:0:0:
182,192,94373,128,0,94540:0:0:0:0:
402,192,94373,1,0,0:0:0:0:
475,192,94373,1,0,0:0:0:0:
109,192,94373,1,0,0:0:0:0:
36,192,94540,128,0,94707:0:0:0:0:
256,192,94540,1,0,0:0:0:0:
109,192,94707,1,0,0:0:0:0:
402,192,94707,1,0,0:0:0:0:
475,192,94707,1,0,0:0:0:0:
256,192,94873,1,0,0:0:0:0:
329,192,94957,1,0,0:0:0:0:
402,192,95040,1,0,0:0:0:0:
182,192,95040,1,0,0:0:0:0:
109,192,95040,1,0,0:0:0:0:
256,192,95207,1,0,0:0:0:0:
475,192,95207,1,0,0:0:0:0:
329,192,95373,1,0,0:0:0:0:
109,192,95373,1,0,0:0:0:0:
402,192,95373,1,0,0:0:0:0:
182,192,95540,1,0,0:0:0:0:
329,192,95540,1,0,0:0:0:0:
36,192,95707,1,0,0:0:0:0:
256,192,95707,1,0,0:0:0:0:
402,192,95707,1,0,0:0:0:0:
329,192,95873,1,0,0:0:0:0:
182,192,95873,1,0,0:0:0:0:
475,192,95873,1,0,0:0:0:0:
109,192,96040,1,0,0:0:0:0:
182,192,96040,1,0,0:0:0:0:
475,192,96040,1,0,0:0:0:0:
402,192,96207,1,0,0:0:0:0:
36,192,96374,1,0,0:0:0:0:
475,192,96374,1,0,0:0:0:0:
109,192,96374,1,0,0:0:0:0:
256,192,96374,128,0,96540:0:0:0:0:
182,192,96540,128,0,96707:0:0:0:0:
329,192,96540,1,0,0:0:0:0:
475,192,96707,1,0,0:0:0:0:
109,192,96707,128,0,96874:0:0:0:0:
256,192,96707,1,0,0:0:0:0:
329,192,96874,1,0,0:0:0:0:
36,192,96874,128,0,97040:0:0:0:0:
256,192,97040,1,0,0:0:0:0:
475,192,97040,1,0,0:0:0:0:
109,192,97040,128,0,97207:0:0:0:0:
402,192,97207,1,0,0:0:0:0:
182,192,97207,128,0,97374:0:0:0:0:
329,192,97373,1,0,0:0:0:0:
475,192,97373,1,0,0:0:0:0:
36,192,97373,1,0,0:0:0:0:
182,192,97540,1,0,0:0:0:0:
402,192,97623,1,0,0:0:0:0:
256,192,97707,1,0,0:0:0:0:
36,192,97707,1,0,0:0:0:0:
475,192,97707,1,0,0:0:0:0:
182,192,97873,1,0,0:0:0:0:
402,192,97873,1,0,0:0:0:0:
329,192,98040,1,0,0:0:0:0:
475,192,98040,1,0,0:0:0:0:
109,192,98040,1,0,0:0:0:0:
36,192,98207,1,0,0:0:0:0:
256,192,98207,1,0,0:0:0:0:
402,192,98373,1,0,0:0:0:0:
109,192,98373,1,0,0:0:0:0:
329,192,98373,1,0,0:0:0:0:
182,192,98540,1,0,0:0:0:0:
475,192,98540,1,0,0:0:0:0:
36,192,98707,1,0,0:0:0:0:
329,192,98707,1,0,0:0:0:0:
402,192,98707,1,0,0:0:0:0:
475,192,98873,1,0,0:0:0:0:
36,192,98873,1,0,0:0:0:0:
109,192,98957,1,0,0:0:0:0:
182,192,99040,1,0,0:0:0:0:
256,192,99040,1,0,0:0:0:0:
402,192,99040,1,0,0:0:0:0:
329,192,99207,1,0,0:0:0:0:
109,192,99207,1,0,0:0:0:0:
36,192,99373,1,0,0:0:0:0:
256,192,99373,1,0,0:0:0:0:
475,192,99373,1,0,0:0:0:0:
182,192,99540,1,0,0:0:0:0:
329,192,99540,1,0,0:0:0:0:
402,192,99540,1,0,0:0:0:0:
36,192,99707,1,0,0:0:0:0:
475,192,99707,1,0,0:0:0:0:
256,192,99707,1,0,0:0:0:0:
329,192,99873,1,0,0:0:0:0:
182,192,99873,1,0,0:0:0:0:
402,192,100040,1,0,0:0:0:0:
36,192,100040,1,0,0:0:0:0:
109,192,100123,1,0,0:0:0:0:
182,192,100207,1,0,0:0:0:0:
475,192,100290,1,0,0:0:0:0:
36,192,100373,1,0,0:0:0:0:
329,192,100373,1,0,0:0:0:0:
256,192,100540,1,0,0:0:0:0:
402,192,100540,128,0,100707:0:0:0:0:
329,192,100707,1,0,0:0:0:0:
475,192,100707,1,0,0:0:0:0:
182,192,100707,128,0,100873:0:0:0:0:
36,192,100707,1,0,0:0:0:0:
256,192,100873,1,0,0:0:0:0:
109,192,100873,1,0,0:0:0:0:
402,192,101040,1,0,0:0:0:0:
36,192,101040,1,0,0:0:0:0:
182,192,101040,1,0,0:0:0:0:
475,192,101207,1,0,0:0:0:0:
256,192,101207,1,0,0:0:0:0:
182,192,101373,5,0,0:0:0:0:
256,192,101373,1,0,0:0:0:0:
329,192,101457,1,0,0:0:0:0:
109,192,101540,1,0,0:0:0:0:
402,192,101623,1,0,0:0:0:0:
36,192,101707,1,0,0:0:0:0:
256,192,101707,1,0,0:0:0:0:
475,192,101790,1,0,0:0:0:0:
109,192,101873,1,0,0:0:0:0:
402,192,101957,1,0,0:0:0:0:
256,192,102040,1,0,0:0:0:0:
182,192,102040,1,0,0:0:0:0:
329,192,102040,1,0,0:0:0:0:
256,192,102373,1,0,0:0:0:0:
329,192,102707,5,0,0:0:0:0:
182,192,102707,1,0,0:0:0:0:
402,192,102707,1,0,0:0:0:0:
109,192,102707,1,0,0:0:0:0:
329,192,103040,1,0,0:0:0:0:
182,192,103040,1,0,0:0:0:0:
36,192,103290,1,0,0:0:0:0:
182,192,103373,1,0,0:0:0:0:
475,192,103373,1,0,0:0:0:0:
109,192,103623,1,0,0:0:0:0:
329,192,103707,1,0,0:0:0:0:
182,192,103707,1,0,0:0:0:0:
36,192,103957,1,0,0:0:0:0:
329,192,104040,1,0,0:0:0:0:
109,192,104040,1,0,0:0:0:0:
329,192,104290,1,0,0:0:0:0:
36,192,104290,1,0,0:0:0:0:
329,192,104373,1,0,0:0:0:0:
182,192,104373,1,0,0:0:0:0:
329,192,104623,1,0,0:0:0:0:
109,192,104623,1,0,0:0:0:0:
475,192,104707,1,0,0:0:0:0:
182,192,104707,1,0,0:0:0:0:
36,192,104957,1,0,0:0:0:0:
329,192,105040,1,0,0:0:0:0:
182,192,105040,1,0,0:0:0:0:
36,192,105290,1,0,0:0:0:0:
109,192,105373,1,0,0:0:0:0:
329,192,105373,1,0,0:0:0:0:
402,192,105373,1,0,0:0:0:0:
475,192,105373,1,0,0:0:0:0:
329,192,105707,1,0,0:0:0:0:
182,192,105707,1,0,0:0:0:0:
475,192,106040,1,0,0:0:0:0:
109,192,106040,1,0,0:0:0:0:
329,192,106373,1,0,0:0:0:0:
36,192,106373,1,0,0:0:0:0:
329,192,106623,1,0,0:0:0:0:
329,192,106707,1,0,0:0:0:0:
36,192,106707,1,0,0:0:0:0:
182,192,106790,1,0,0:0:0:0:
329,192,106873,1,0,0:0:0:0:
329,192,106957,1,0,0:0:0:0:
182,192,107040,1,0,0:0:0:0:
36,192,107040,1,0,0:0:0:0:
329,192,107123,1,0,0:0:0:0:
329,192,107207,1,0,0:0:0:0:
182,192,107290,1,0,0:0:0:0:
475,192,107373,1,0,0:0:0:0:
36,192,107373,1,0,0:0:0:0:
256,192,107623,1,0,0:0:0:0:
36,192,107707,1,0,0:0:0:0:
256,192,107957,1,0,0:0:0:0:
36,192,108040,1,0,0:0:0:0:
402,192,108040,1,0,0:0:0:0:
475,192,108040,1,0,0:0:0:0:
182,192,108040,1,0,0:0:0:0:
329,192,108373,1,0,0:0:0:0:
182,192,108373,1,0,0:0:0:0:
36,192,108623,1,0,0:0:0:0:
475,192,108707,1,0,0:0:0:0:
182,192,108707,1,0,0:0:0:0:
109,192,108957,1,0,0:0:0:0:
329,192,109040,1,0,0:0:0:0:
182,192,109040,1,0,0:0:0:0:
36,192,109290,1,0,0:0:0:0:
329,192,109373,1,0,0:0:0:0:
109,192,109373,1,0,0:0:0:0:
329,192,109623,1,0,0:0:0:0:
36,192,109623,1,0,0:0:0:0:
329,192,109707,1,0,0:0:0:0:
182,192,109707,1,0,0:0:0:0:
329,192,109957,1,0,0:0:0:0:
109,192,109957,1,0,0:0:0:0:
182,192,110040,1,0,0:0:0:0:
36,192,110290,1,0,0:0:0:0:
329,192,110373,1,0,0:0:0:0:
182,192,110373,1,0,0:0:0:0:
36,192,110623,1,0,0:0:0:0:
109,192,110707,1,0,0:0:0:0:
329,192,110707,1,0,0:0:0:0:
402,192,110707,1,0,0:0:0:0:
475,192,110707,1,0,0:0:0:0:
109,192,110957,1,0,0:0:0:0:
182,192,111040,1,0,0:0:0:0:
329,192,111040,1,0,0:0:0:0:
36,192,111290,1,0,0:0:0:0:
182,192,111373,1,0,0:0:0:0:
475,192,111373,1,0,0:0:0:0:
36,192,111623,1,0,0:0:0:0:
329,192,111623,1,0,0:0:0:0:
109,192,111707,1,0,0:0:0:0:
329,192,111957,1,0,0:0:0:0:
329,192,112040,1,0,0:0:0:0:
256,192,112373,1,0,0:0:0:0:
256,192,112623,1,0,0:0:0:0:
475,192,112707,1,0,0:0:0:0:
36,192,112707,1,0,0:0:0:0:
402,192,112873,1,0,0:0:0:0:
109,192,112873,1,0,0:0:0:0:
402,192,113040,1,0,0:0:0:0:
109,192,113040,1,0,0:0:0:0:
402,192,113207,1,0,0:0:0:0:
109,192,113207,1,0,0:0:0:0:
256,192,113373,128,0,113540:0:0:0:0:
109,192,113373,1,0,0:0:0:0:
329,192,113373,1,0,0:0:0:0:
475,192,113373,1,0,0:0:0:0:
402,192,113457,1,0,0:0:0:0:
36,192,113540,1,0,0:0:0:0:
109,192,113623,1,0,0:0:0:0:
182,192,113707,1,0,0:0:0:0:
475,192,113707,1,0,0:0:0:0:
329,192,113707,1,0,0:0:0:0:
109,192,113790,1,0,0:0:0:0:
256,192,113873,1,0,0:0:0:0:
36,192,113873,1,0,0:0:0:0:
402,192,113957,1,0,0:0:0:0:
329,192,114040,1,0,0:0:0:0:
182,192,114040,1,0,0:0:0:0:
36,192,114040,128,0,114207:0:0:0:0:
402,192,114123,1,0,0:0:0:0:
109,192,114207,1,0,0:0:0:0:
475,192,114207,1,0,0:0:0:0:
402,192,114290,1,0,0:0:0:0:
329,192,114373,1,0,0:0:0:0:
182,192,114373,1,0,0:0:0:0:
109,192,114373,1,0,0:0:0:0:
256,192,114457,1,0,0:0:0:0:
182,192,114540,1,0,0:0:0:0:
475,192,114540,1,0,0:0:0:0:
329,192,114623,1,0,0:0:0:0:
109,192,114707,1,0,0:0:0:0:
402,192,114707,1,0,0:0:0:0:
256,192,114707,1,0,0:0:0:0:
475,192,114707,128,0,114873:0:0:0:0:
182,192,114790,1,0,0:0:0:0:
256,192,114873,1,0,0:0:0:0:
36,192,114873,1,0,0:0:0:0:
329,192,114957,1,0,0:0:0:0:
402,192,115040,1,0,0:0:0:0:
36,192,115040,1,0,0:0:0:0:
109,192,115040,1,0,0:0:0:0:
182,192,115123,1,0,0:0:0:0:
402,192,115207,1,0,0:0:0:0:
329,192,115207,1,0,0:0:0:0:
475,192,115290,1,0,0:0:0:0:
256,192,115373,1,0,0:0:0:0:
36,192,115373,1,0,0:0:0:0:
109,192,115373,1,0,0:0:0:0:
329,192,115457,1,0,0:0:0:0:
182,192,115540,1,0,0:0:0:0:
402,192,115540,1,0,0:0:0:0:
329,192,115623,1,0,0:0:0:0:
256,192,115707,1,0,0:0:0:0:
36,192,115707,1,0,0:0:0:0:
109,192,115707,1,0,0:0:0:0:
182,192,115790,1,0,0:0:0:0:
475,192,115873,1,0,0:0:0:0:
36,192,115873,1,0,0:0:0:0:
109,192,115957,1,0,0:0:0:0:
329,192,116040,1,0,0:0:0:0:
182,192,116040,1,0,0:0:0:0:
402,192,116040,1,0,0:0:0:0:
109,192,116123,1,0,0:0:0:0:
475,192,116207,1,0,0:0:0:0:
36,192,116207,1,0,0:0:0:0:
109,192,116290,1,0,0:0:0:0:
402,192,116373,1,0,0:0:0:0:
182,192,116373,1,0,0:0:0:0:
329,192,116373,1,0,0:0:0:0:
475,192,116457,1,0,0:0:0:0:
256,192,116540,1,0,0:0:0:0:
36,192,116540,1,0,0:0:0:0:
475,192,116623,1,0,0:0:0:0:
182,192,116707,1,0,0:0:0:0:
329,192,116707,1,0,0:0:0:0:
109,192,116707,1,0,0:0:0:0:
402,192,116790,1,0,0:0:0:0:
36,192,116873,1,0,0:0:0:0:
256,192,116873,1,0,0:0:0:0:
402,192,116957,1,0,0:0:0:0:
329,192,117040,1,0,0:0:0:0:
182,192,117040,1,0,0:0:0:0:
109,192,117040,1,0,0:0:0:0:
36,192,117123,1,0,0:0:0:0:
402,192,117207,1,0,0:0:0:0:
109,192,117207,1,0,0:0:0:0:
182,192,117290,1,0,0:0:0:0:
256,192,117373,1,0,0:0:0:0:
402,192,117373,1,0,0:0:0:0:
475,192,117373,1,0,0:0:0:0:
182,192,117457,1,0,0:0:0:0:
329,192,117540,1,0,0:0:0:0:
109,192,117540,1,0,0:0:0:0:
36,192,117623,1,0,0:0:0:0:
402,192,117707,1,0,0:0:0:0:
256,192,117707,1,0,0:0:0:0:
475,192,117707,1,0,0:0:0:0:
182,192,117790,1,0,0:0:0:0:
36,192,117873,1,0,0:0:0:0:
329,192,117873,1,0,0:0:0:0:
182,192,117957,1,0,0:0:0:0:
402,192,118040,1,0,0:0:0:0:
256,192,118040,1,0,0:0:0:0:
109,192,118040,1,0,0:0:0:0:
475,192,118123,1,0,0:0:0:0:
256,192,118207,1,0,0:0:0:0:
402,192,118207,1,0,0:0:0:0:
109,192,118290,1,0,0:0:0:0:
182,192,118373,1,0,0:0:0:0:
36,192,118373,1,0,0:0:0:0:
329,192,118373,1,0,0:0:0:0:
475,192,118457,1,0,0:0:0:0:
182,192,118540,1,0,0:0:0:0:
402,192,118540,1,0,0:0:0:0:
329,192,118623,1,0,0:0:0:0:
475,192,118707,1,0,0:0:0:0:
109,192,118707,1,0,0:0:0:0:
256,192,118707,1,0,0:0:0:0:
182,192,118790,1,0,0:0:0:0:
36,192,118873,1,0,0:0:0:0:
402,192,118873,1,0,0:0:0:0:
329,192,118957,1,0,0:0:0:0:
475,192,119040,1,0,0:0:0:0:
256,192,119040,1,0,0:0:0:0:
109,192,119040,1,0,0:0:0:0:
182,192,119123,1,0,0:0:0:0:
402,192,119207,1,0,0:0:0:0:
36,192,119207,1,0,0:0:0:0:
329,192,119290,1,0,0:0:0:0:
109,192,119373,1,0,0:0:0:0:
256,192,119373,1,0,0:0:0:0:
475,192,119373,1,0,0:0:0:0:
182,192,119457,1,0,0:0:0:0:
402,192,119540,1,0,0:0:0:0:
36,192,119540,1,0,0:0:0:0:
329,192,119623,1,0,0:0:0:0:
109,192,119707,1,0,0:0:0:0:
475,192,119707,1,0,0:0:0:0:
256,192,119707,1,0,0:0:0:0:
182,192,119790,1,0,0:0:0:0:
402,192,119873,1,0,0:0:0:0:
36,192,119873,1,0,0:0:0:0:
329,192,119957,1,0,0:0:0:0:
475,192,120040,1,0,0:0:0:0:
256,192,120040,1,0,0:0:0:0:
109,192,120040,1,0,0:0:0:0:
182,192,120123,1,0,0:0:0:0:
36,192,120207,1,0,0:0:0:0:
402,192,120207,1,0,0:0:0:0:
109,192,120290,1,0,0:0:0:0:
475,192,120373,1,0,0:0:0:0:
182,192,120373,1,0,0:0:0:0:
256,192,120457,1,0,0:0:0:0:
182,192,120540,1,0,0:0:0:0:
329,192,120540,1,0,0:0:0:0:
402,192,120623,1,0,0:0:0:0:
475,192,120707,1,0,0:0:0:0:
36,192,120707,1,0,0:0:0:0:
109,192,120707,1,0,0:0:0:0:
329,192,120790,1,0,0:0:0:0:
182,192,120873,1,0,0:0:0:0:
402,192,120873,1,0,0:0:0:0:
475,192,120957,1,0,0:0:0:0:
36,192,121040,1,0,0:0:0:0:
256,192,121040,1,0,0:0:0:0:
109,192,121040,1,0,0:0:0:0:
182,192,121123,1,0,0:0:0:0:
475,192,121123,1,0,0:0:0:0:
402,192,121207,1,0,0:0:0:0:
329,192,121207,1,0,0:0:0:0:
256,192,121290,1,0,0:0:0:0:
182,192,121373,5,0,0:0:0:0:
475,192,121373,1,0,0:0:0:0:
36,192,121457,1,0,0:0:0:0:
402,192,121540,5,0,0:0:0:0:
109,192,121540,1,0,0:0:0:0:
475,192,121623,1,0,0:0:0:0:
329,192,121707,1,0,0:0:0:0:
36,192,121707,1,0,0:0:0:0:
256,192,121790,1,0,0:0:0:0:
475,192,121873,1,0,0:0:0:0:
182,192,121873,1,0,0:0:0:0:
36,192,121957,1,0,0:0:0:0:
109,192,122040,1,0,0:0:0:0:
402,192,122040,1,0,0:0:0:0:
475,192,122123,1,0,0:0:0:0:
36,192,122207,1,0,0:0:0:0:
329,192,122207,1,0,0:0:0:0:
256,192,122290,1,0,0:0:0:0:
475,192,122373,1,0,0:0:0:0:
182,192,122373,1,0,0:0:0:0:
36,192,122457,1,0,0:0:0:0:
402,192,122540,1,0,0:0:0:0:
109,192,122540,1,0,0:0:0:0:
475,192,122623,1,0,0:0:0:0:
182,192,122707,5,0,0:0:0:0:
402,192,122707,128,0,123040:0:0:0:0:
36,192,122707,1,0,0:0:0:0:
329,192,122707,1,0,0:0:0:0:
109,192,123040,128,0,123373:0:0:0:0:
36,192,123040,1,0,0:0:0:0:
182,192,123040,1,0,0:0:0:0:
475,192,123040,1,0,0:0:0:0:
329,192,123040,1,0,0:0:0:0:
256,192,123373,1,0,0:0:0:0:
182,192,123373,128,0,123707:0:0:0:0:
329,192,123373,128,0,123707:0:0:0:0:
475,192,123707,1,0,0:0:0:0:
36,192,123707,1,0,0:0:0:0:
329,192,124040,1,0,0:0:0:0:
475,192,124040,128,0,124207:0:0:0:0:
36,192,124040,1,0,0:0:0:0:
109,192,124123,1,0,0:0:0:0:
182,192,124207,1,0,0:0:0:0:
256,192,124290,1,0,0:0:0:0:
36,192,124373,1,0,0:0:0:0:
109,192,124373,1,0,0:0:0:0:
475,192,124373,1,0,0:0:0:0:
402,192,124457,1,0,0:0:0:0:
329,192,124540,1,0,0:0:0:0:
475,192,124540,128,0,124707:0:0:0:0:
256,192,124623,1,0,0:0:0:0:
402,192,124707,1,0,0:0:0:0:
109,192,124707,1,0,0:0:0:0:
329,192,124790,1,0,0:0:0:0:
182,192,124873,1,0,0:0:0:0:
36,192,124873,1,0,0:0:0:0:
475,192,124957,1,0,0:0:0:0:
182,192,125040,1,0,0:0:0:0:
402,192,125040,1,0,0:0:0:0:
329,192,125123,1,0,0:0:0:0:
182,192,125207,1,0,0:0:0:0:
109,192,125290,1,0,0:0:0:0:
329,192,125373,1,0,0:0:0:0:
36,192,125373,1,0,0:0:0:0:
475,192,125373,128,0,125540:0:0:0:0:
109,192,125457,1,0,0:0:0:0:
182,192,125540,1,0,0:0:0:0:
256,192,125623,1,0,0:0:0:0:
36,192,125707,1,0,0:0:0:0:
109,192,125707,1,0,0:0:0:0:
475,192,125707,1,0,0:0:0:0:
402,192,125790,1,0,0:0:0:0:
329,192,125873,1,0,0:0:0:0:
475,192,125873,128,0,126040:0:0:0:0:
256,192,125957,1,0,0:0:0:0:
402,192,126040,1,0,0:0:0:0:
109,192,126040,1,0,0:0:0:0:
329,192,126123,1,0,0:0:0:0:
36,192,126207,1,0,0:0:0:0:
182,192,126207,1,0,0:0:0:0:
329,192,126290,1,0,0:0:0:0:
402,192,126373,1,0,0:0:0:0:
256,192,126373,1,0,0:0:0:0:
109,192,126373,1,0,0:0:0:0:
329,192,126457,1,0,0:0:0:0:
182,192,126540,1,0,0:0:0:0:
256,192,126623,1,0,0:0:0:0:
182,192,126707,1,0,0:0:0:0:
475,192,126707,1,0,0:0:0:0:
36,192,126707,128,0,126873:0:0:0:0:
402,192,126790,1,0,0:0:0:0:
329,192,126874,1,0,0:0:0:0:
256,192,126957,1,0,0:0:0:0:
475,192,127040,1,0,0:0:0:0:
402,192,127040,1,0,0:0:0:0:
36,192,127040,1,0,0:0:0:0:
109,192,127124,1,0,0:0:0:0:
182,192,127207,1,0,0:0:0:0:
36,192,127207,128,0,127373:0:0:0:0:
256,192,127290,1,0,0:0:0:0:
402,192,127374,1,0,0:0:0:0:
109,192,127374,1,0,0:0:0:0:
182,192,127457,1,0,0:0:0:0:
475,192,127540,1,0,0:0:0:0:
329,192,127540,1,0,0:0:0:0:
36,192,127624,1,0,0:0:0:0:
109,192,127707,1,0,0:0:0:0:
329,192,127707,1,0,0:0:0:0:
182,192,127790,1,0,0:0:0:0:
329,192,127874,1,0,0:0:0:0:
402,192,127957,1,0,0:0:0:0:
36,192,127957,1,0,0:0:0:0:
182,192,128040,1,0,0:0:0:0:
475,192,128040,1,0,0:0:0:0:
256,192,128040,1,0,0:0:0:0:
329,192,128123,1,0,0:0:0:0:
182,192,128207,1,0,0:0:0:0:
402,192,128207,1,0,0:0:0:0:
36,192,128290,1,0,0:0:0:0:
402,192,128373,1,0,0:0:0:0:
182,192,128373,1,0,0:0:0:0:
109,192,128373,1,0,0:0:0:0:
256,192,128457,1,0,0:0:0:0:
329,192,128540,1,0,0:0:0:0:
109,192,128540,1,0,0:0:0:0:
402,192,128623,1,0,0:0:0:0:
109,192,128707,1,0,0:0:0:0:
329,192,128707,128,0,129040:0:0:0:0:
36,192,128707,1,0,0:0:0:0:
475,192,128707,1,0,0:0:0:0:
182,192,128790,1,0,0:0:0:0:
256,192,128873,1,0,0:0:0:0:
402,192,128873,1,0,0:0:0:0:
109,192,128957,1,0,0:0:0:0:
182,192,129040,128,0,129373:0:0:0:0:
475,192,129040,1,0,0:0:0:0:
36,192,129040,1,0,0:0:0:0:
402,192,129123,1,0,0:0:0:0:
109,192,129207,1,0,0:0:0:0:
256,192,129207,1,0,0:0:0:0:
329,192,129290,1,0,0:0:0:0:
36,192,129373,128,0,129707:0:0:0:0:
475,192,129373,1,0,0:0:0:0:
402,192,129373,1,0,0:0:0:0:
329,192,129457,1,0,0:0:0:0:
256,192,129540,1,0,0:0:0:0:
182,192,129540,1,0,0:0:0:0:
402,192,129623,1,0,0:0:0:0:
329,192,129707,1,0,0:0:0:0:
475,192,129707,128,0,129873:0:0:0:0:
109,192,129707,1,0,0:0:0:0:
256,192,129790,1,0,0:0:0:0:
36,192,129873,1,0,0:0:0:0:
182,192,129873,1,0,0:0:0:0:
402,192,129873,128,0,130040:0:0:0:0:
329,192,129957,1,0,0:0:0:0:
182,192,130040,128,0,130373:0:0:0:0:
36,192,130040,1,0,0:0:0:0:
256,192,130040,1,0,0:0:0:0:
109,192,130123,1,0,0:0:0:0:
329,192,130207,1,0,0:0:0:0:
402,192,130207,1,0,0:0:0:0:
475,192,130290,1,0,0:0:0:0:
329,192,130373,1,0,0:0:0:0:
256,192,130373,1,0,0:0:0:0:
36,192,130373,128,0,130540:0:0:0:0:
402,192,130457,1,0,0:0:0:0:
475,192,130540,1,0,0:0:0:0:
109,192,130540,128,0,130707:0:0:0:0:
329,192,130540,1,0,0:0:0:0:
256,192,130623,1,0,0:0:0:0:
402,192,130707,1,0,0:0:0:0:
182,192,130707,1,0,0:0:0:0:
329,192,130707,128,0,131040:0:0:0:0:
475,192,130790,1,0,0:0:0:0:
36,192,130873,1,0,0:0:0:0:
109,192,130957,1,0,0:0:0:0:
475,192,131040,128,0,131207:0:0:0:0:
256,192,131040,1,0,0:0:0:0:
182,192,131040,1,0,0:0:0:0:
182,192,131207,1,0,0:0:0:0:
36,192,131207,1,0,0:0:0:0:
402,192,131207,128,0,131373:0:0:0:0:
256,192,131290,1,0,0:0:0:0:
182,192,131373,128,0,131540:0:0:0:0:
109,192,131373,1,0,0:0:0:0:
329,192,131373,1,0,0:0:0:0:
475,192,131457,1,0,0:0:0:0:
402,192,131540,1,0,0:0:0:0:
36,192,131540,1,0,0:0:0:0:
256,192,131540,128,0,131707:0:0:0:0:
329,192,131707,128,0,131873:0:0:0:0:
475,192,131707,1,0,0:0:0:0:
36,192,131707,1,0,0:0:0:0:
402,192,131790,1,0,0:0:0:0:
182,192,131873,1,0,0:0:0:0:
109,192,131873,128,0,132040:0:0:0:0:
402,192,131957,1,0,0:0:0:0:
256,192,132040,1,0,0:0:0:0:
475,192,132040,1,0,0:0:0:0:
329,192,132123,1,0,0:0:0:0:
182,192,132207,1,0,0:0:0:0:
109,192,132207,1,0,0:0:0:0:
329,192,132290,1,0,0:0:0:0:
256,192,132373,1,0,0:0:0:0:
475,192,132373,1,0,0:0:0:0:
109,192,132457,1,0,0:0:0:0:
36,192,132540,1,0,0:0:0:0:
402,192,132540,1,0,0:0:0:0:
109,192,132623,1,0,0:0:0:0:
329,192,132707,1,0,0:0:0:0:
475,192,132707,1,0,0:0:0:0:
182,192,132790,1,0,0:0:0:0:
475,192,132873,1,0,0:0:0:0:
256,192,132873,1,0,0:0:0:0:
109,192,132957,1,0,0:0:0:0:
182,192,133040,1,0,0:0:0:0:
402,192,133040,1,0,0:0:0:0:
36,192,133123,1,0,0:0:0:0:
109,192,133207,1,0,0:0:0:0:
329,192,133207,1,0,0:0:0:0:
256,192,133290,1,0,0:0:0:0:
109,192,133373,128,0,133623:0:0:0:0:
402,192,133373,128,0,133623:0:0:0:0:
256,192,133540,5,0,0:0:0:0:
402,192,133707,128,0,133957:0:0:0:0:
109,192,133707,128,0,133957:0:0:0:0:
256,192,133873,1,0,0:0:0:0:
329,192,133957,1,0,0:0:0:0:
182,192,133957,1,0,0:0:0:0:
475,192,134040,128,0,134290:0:0:0:0:
36,192,134040,128,0,134290:0:0:0:0:
256,192,134207,1,0,0:0:0:0:
182,192,134290,1,0,0:0:0:0:
329,192,134290,1,0,0:0:0:0:
475,192,134373,128,0,134623:0:0:0:0:
36,192,134373,128,0,134623:0:0:0:0:
256,192,134540,1,0,0:0:0:0:
182,192,134623,1,0,0:0:0:0:
329,192,134623,1,0,0:0:0:0:
475,192,134707,1,0,0:0:0:0:
109,192,134707,1,0,0:0:0:0:
36,192,134707,1,0,0:0:0:0:
402,192,134707,1,0,0:0:0:0:
36,192,135040,1,0,0:0:0:0:
109,192,135207,1,0,0:0:0:0:
256,192,135373,1,0,0:0:0:0:
182,192,135373,1,0,0:0:0:0:
329,192,135707,1,0,0:0:0:0:
256,192,136040,1,0,0:0:0:0:
475,192,136040,1,0,0:0:0:0:
256,192,136373,1,0,0:0:0:0:
402,192,136373,1,0,0:0:0:0:
329,192,136540,1,0,0:0:0:0:
256,192,136707,1,0,0:0:0:0:
109,192,136873,1,0,0:0:0:0:
182,192,137040,1,0,0:0:0:0:
109,192,137207,1,0,0:0:0:0:
256,192,137373,1,0,0:0:0:0:
36,192,137373,1,0,0:0:0:0:
109,192,137707,1,0,0:0:0:0:
182,192,137873,1,0,0:0:0:0:
256,192,138040,1,0,0:0:0:0:
329,192,138040,1,0,0:0:0:0:
329,192,138373,1,0,0:0:0:0:
402,192,138540,1,0,0:0:0:0:
256,192,138707,1,0,0:0:0:0:
475,192,138873,1,0,0:0:0:0:
256,192,139040,1,0,0:0:0:0:
475,192,139207,1,0,0:0:0:0:
36,192,139207,1,0,0:0:0:0:
256,192,139373,1,0,0:0:0:0:
475,192,139540,1,0,0:0:0:0:
36,192,139540,1,0,0:0:0:0:
256,192,139707,1,0,0:0:0:0:
109,192,139707,1,0,0:0:0:0:
402,192,139707,1,0,0:0:0:0:
475,192,139873,1,0,0:0:0:0:
36,192,139873,1,0,0:0:0:0:
256,192,140040,1,0,0:0:0:0:
329,192,140040,1,0,0:0:0:0:
182,192,140040,1,0,0:0:0:0:
36,192,140373,1,0,0:0:0:0:
109,192,140540,1,0,0:0:0:0:
256,192,140707,1,0,0:0:0:0:
182,192,140707,1,0,0:0:0:0:
329,192,141040,1,0,0:0:0:0:
256,192,141373,1,0,0:0:0:0:
475,192,141373,1,0,0:0:0:0:
256,192,141707,1,0,0:0:0:0:
402,192,141707,1,0,0:0:0:0:
329,192,141873,1,0,0:0:0:0:
256,192,142040,1,0,0:0:0:0:
109,192,142207,1,0,0:0:0:0:
182,192,142373,1,0,0:0:0:0:
109,192,142540,1,0,0:0:0:0:
256,192,142707,1,0,0:0:0:0:
36,192,142707,1,0,0:0:0:0:
109,192,143040,1,0,0:0:0:0:
182,192,143207,1,0,0:0:0:0:
256,192,143373,1,0,0:0:0:0:
329,192,143373,1,0,0:0:0:0:
402,192,143707,1,0,0:0:0:0:
109,192,143707,1,0,0:0:0:0:
256,192,144040,1,0,0:0:0:0:
402,192,144040,1,0,0:0:0:0:
109,192,144207,1,0,0:0:0:0:
256,192,144373,1,0,0:0:0:0:
402,192,144373,1,0,0:0:0:0:
109,192,144540,1,0,0:0:0:0:
256,192,144707,1,0,0:0:0:0:
402,192,144707,1,0,0:0:0:0:
329,192,145040,1,0,0:0:0:0:
182,192,145040,1,0,0:0:0:0:
329,192,145373,1,0,0:0:0:0:
182,192,145373,1,0,0:0:0:0:
109,192,145457,1,0,0:0:0:0:
36,192,145540,1,0,0:0:0:0:
256,192,145540,1,0,0:0:0:0:
329,192,145623,1,0,0:0:0:0:
475,192,145707,1,0,0:0:0:0:
182,192,145707,1,0,0:0:0:0:
402,192,145790,1,0,0:0:0:0:
109,192,145873,1,0,0:0:0:0:
402,192,145957,1,0,0:0:0:0:
329,192,146040,128,0,146207:0:0:0:0:
36,192,146040,1,0,0:0:0:0:
109,192,146040,1,0,0:0:0:0:
475,192,146040,1,0,0:0:0:0:
182,192,146123,1,0,0:0:0:0:
256,192,146207,1,0,0:0:0:0:
182,192,146290,1,0,0:0:0:0:
329,192,146373,128,0,146540:0:0:0:0:
109,192,146373,1,0,0:0:0:0:
36,192,146373,1,0,0:0:0:0:
475,192,146373,1,0,0:0:0:0:
182,192,146457,1,0,0:0:0:0:
256,192,146540,1,0,0:0:0:0:
402,192,146623,1,0,0:0:0:0:
182,192,146707,1,0,0:0:0:0:
475,192,146707,1,0,0:0:0:0:
109,192,146790,1,0,0:0:0:0:
36,192,146873,1,0,0:0:0:0:
329,192,146873,1,0,0:0:0:0:
182,192,146957,1,0,0:0:0:0:
256,192,147040,1,0,0:0:0:0:
402,192,147040,1,0,0:0:0:0:
475,192,147040,1,0,0:0:0:0:
36,192,147123,1,0,0:0:0:0:
329,192,147207,1,0,0:0:0:0:
109,192,147207,1,0,0:0:0:0:
182,192,147290,1,0,0:0:0:0:
329,192,147373,1,0,0:0:0:0:
475,192,147373,1,0,0:0:0:0:
36,192,147373,1,0,0:0:0:0:
402,192,147457,1,0,0:0:0:0:
182,192,147540,1,0,0:0:0:0:
109,192,147623,1,0,0:0:0:0:
475,192,147707,1,0,0:0:0:0:
256,192,147707,1,0,0:0:0:0:
36,192,147707,1,0,0:0:0:0:
182,192,147790,1,0,0:0:0:0:
329,192,147873,1,0,0:0:0:0:
109,192,147873,1,0,0:0:0:0:
402,192,147957,1,0,0:0:0:0:
329,192,148040,1,0,0:0:0:0:
36,192,148040,1,0,0:0:0:0:
182,192,148040,1,0,0:0:0:0:
402,192,148123,1,0,0:0:0:0:
475,192,148207,1,0,0:0:0:0:
256,192,148207,1,0,0:0:0:0:
182,192,148290,1,0,0:0:0:0:
36,192,148373,1,0,0:0:0:0:
109,192,148373,1,0,0:0:0:0:
329,192,148373,1,0,0:0:0:0:
402,192,148457,1,0,0:0:0:0:
475,192,148540,1,0,0:0:0:0:
329,192,148540,1,0,0:0:0:0:
256,192,148623,1,0,0:0:0:0:
36,192,148707,1,0,0:0:0:0:
182,192,148707,128,0,148873:0:0:0:0:
475,192,148707,1,0,0:0:0:0:
402,192,148707,1,0,0:0:0:0:
329,192,148790,1,0,0:0:0:0:
256,192,148874,1,0,0:0:0:0:
329,192,148957,1,0,0:0:0:0:
402,192,149040,1,0,0:0:0:0:
36,192,149040,1,0,0:0:0:0:
182,192,149040,128,0,149207:0:0:0:0:
475,192,149040,1,0,0:0:0:0:
329,192,149124,1,0,0:0:0:0:
256,192,149207,1,0,0:0:0:0:
109,192,149290,1,0,0:0:0:0:
36,192,149374,1,0,0:0:0:0:
329,192,149374,1,0,0:0:0:0:
402,192,149457,1,0,0:0:0:0:
182,192,149540,1,0,0:0:0:0:
475,192,149540,1,0,0:0:0:0:
329,192,149623,1,0,0:0:0:0:
109,192,149707,1,0,0:0:0:0:
36,192,149707,1,0,0:0:0:0:
256,192,149707,1,0,0:0:0:0:
402,192,149790,1,0,0:0:0:0:
329,192,149873,1,0,0:0:0:0:
182,192,149873,1,0,0:0:0:0:
402,192,149957,1,0,0:0:0:0:
475,192,150040,1,0,0:0:0:0:
256,192,150040,1,0,0:0:0:0:
109,192,150040,1,0,0:0:0:0:
36,192,150040,1,0,0:0:0:0:
329,192,150123,1,0,0:0:0:0:
402,192,150207,1,0,0:0:0:0:
182,192,150207,1,0,0:0:0:0:
475,192,150290,1,0,0:0:0:0:
329,192,150373,1,0,0:0:0:0:
256,192,150373,1,0,0:0:0:0:
109,192,150373,1,0,0:0:0:0:
36,192,150457,1,0,0:0:0:0:
329,192,150540,1,0,0:0:0:0:
256,192,150540,1,0,0:0:0:0:
36,192,150623,1,0,0:0:0:0:
329,192,150707,1,0,0:0:0:0:
256,192,150707,1,0,0:0:0:0:
109,192,150707,1,0,0:0:0:0:
402,192,150790,1,0,0:0:0:0:
182,192,150873,1,0,0:0:0:0:
475,192,150873,1,0,0:0:0:0:
256,192,150957,1,0,0:0:0:0:
329,192,151040,1,0,0:0:0:0:
36,192,151040,1,0,0:0:0:0:
402,192,151040,1,0,0:0:0:0:
109,192,151123,1,0,0:0:0:0:
475,192,151207,1,0,0:0:0:0:
182,192,151207,1,0,0:0:0:0:
402,192,151290,1,0,0:0:0:0:
256,192,151373,128,0,151540:0:0:0:0:
182,192,151373,1,0,0:0:0:0:
329,192,151373,1,0,0:0:0:0:
109,192,151457,1,0,0:0:0:0:
36,192,151540,1,0,0:0:0:0:
475,192,151540,1,0,0:0:0:0:
109,192,151623,1,0,0:0:0:0:
256,192,151707,128,0,151873:0:0:0:0:
329,192,151707,1,0,0:0:0:0:
402,192,151790,1,0,0:0:0:0:
475,192,151873,1,0,0:0:0:0:
36,192,151873,1,0,0:0:0:0:
402,192,151957,1,0,0:0:0:0:
109,192,152040,1,0,0:0:0:0:
182,192,152040,1,0,0:0:0:0:
329,192,152040,1,0,0:0:0:0:
36,192,152123,1,0,0:0:0:0:
402,192,152207,1,0,0:0:0:0:
256,192,152207,1,0,0:0:0:0:
475,192,152290,1,0,0:0:0:0:
182,192,152373,1,0,0:0:0:0:
329,192,152373,1,0,0:0:0:0:
256,192,152457,1,0,0:0:0:0:
402,192,152540,1,0,0:0:0:0:
36,192,152540,1,0,0:0:0:0:
182,192,152623,1,0,0:0:0:0:
109,192,152707,1,0,0:0:0:0:
329,192,152707,1,0,0:0:0:0:
36,192,152790,1,0,0:0:0:0:
402,192,152873,1,0,0:0:0:0:
256,192,152873,1,0,0:0:0:0:
475,192,152957,1,0,0:0:0:0:
329,192,153040,1,0,0:0:0:0:
182,192,153040,1,0,0:0:0:0:
256,192,153123,1,0,0:0:0:0:
402,192,153207,1,0,0:0:0:0:
36,192,153207,1,0,0:0:0:0:
182,192,153290,1,0,0:0:0:0:
109,192,153373,1,0,0:0:0:0:
329,192,153373,1,0,0:0:0:0:
36,192,153457,1,0,0:0:0:0:
402,192,153540,1,0,0:0:0:0:
256,192,153540,1,0,0:0:0:0:
475,192,153623,1,0,0:0:0:0:
182,192,153707,1,0,0:0:0:0:
329,192,153707,1,0,0:0:0:0:
109,192,153790,1,0,0:0:0:0:
402,192,153790,1,0,0:0:0:0:
36,192,153873,1,0,0:0:0:0:
475,192,153873,1,0,0:0:0:0:
109,192,153957,1,0,0:0:0:0:
329,192,154040,128,0,154207:0:0:0:0:
182,192,154040,1,0,0:0:0:0:
402,192,154040,1,0,0:0:0:0:
256,192,154040,1,0,0:0:0:0:
109,192,154123,1,0,0:0:0:0:
475,192,154207,1,0,0:0:0:0:
329,192,154373,128,0,154540:0:0:0:0:
109,192,154373,1,0,0:0:0:0:
402,192,154373,1,0,0:0:0:0:
256,192,154373,1,0,0:0:0:0:
36,192,154457,1,0,0:0:0:0:
475,192,154540,1,0,0:0:0:0:
256,192,154623,1,0,0:0:0:0:
182,192,154707,128,0,154790:0:0:0:0:
402,192,154707,128,0,154957:0:0:0:0:
109,192,154707,128,0,154957:0:0:0:0:
36,192,154707,1,0,0:0:0:0:
475,192,154707,1,0,0:0:0:0:
329,192,154873,128,0,154957:0:0:0:0:
182,192,155040,128,0,155123:0:0:0:0:
402,192,155040,128,0,155290:0:0:0:0:
109,192,155040,128,0,155290:0:0:0:0:
329,192,155207,128,0,155290:0:0:0:0:
182,192,155373,128,0,155457:0:0:0:0:
475,192,155373,128,0,155623:0:0:0:0:
36,192,155373,128,0,155623:0:0:0:0:
256,192,155540,1,0,0:0:0:0:
475,192,155707,128,0,155957:0:0:0:0:
36,192,155707,128,0,155957:0:0:0:0:
329,192,155707,1,0,0:0:0:0:
256,192,155790,1,0,0:0:0:0:
182,192,155873,1,0,0:0:0:0:
329,192,156040,1,0,0:0:0:0:
402,192,156040,1,0,0:0:0:0:
109,192,156040,1,0,0:0:0:0:
475,192,156123,1,0,0:0:0:0:
36,192,156207,1,0,0:0:0:0:
256,192,156207,1,0,0:0:0:0:
329,192,156290,1,0,0:0:0:0:
182,192,156373,1,0,0:0:0:0:
109,192,156373,1,0,0:0:0:0:
475,192,156457,1,0,0:0:0:0:
36,192,156540,1,0,0:0:0:0:
256,192,156540,1,0,0:0:0:0:
329,192,156623,1,0,0:0:0:0:
182,192,156707,1,0,0:0:0:0:
109,192,156707,1,0,0:0:0:0:
402,192,156707,1,0,0:0:0:0:
256,192,156790,1,0,0:0:0:0:
36,192,156873,1,0,0:0:0:0:
475,192,156873,1,0,0:0:0:0:
109,192,156957,1,0,0:0:0:0:
329,192,157040,1,0,0:0:0:0:
182,192,157040,1,0,0:0:0:0:
402,192,157123,1,0,0:0:0:0:
475,192,157207,1,0,0:0:0:0:
109,192,157207,1,0,0:0:0:0:
402,192,157290,1,0,0:0:0:0:
329,192,157373,1,0,0:0:0:0:
182,192,157373,1,0,0:0:0:0:
109,192,157457,1,0,0:0:0:0:
36,192,157540,1,0,0:0:0:0:
402,192,157540,1,0,0:0:0:0:
475,192,157623,1,0,0:0:0:0:
256,192,157707,1,0,0:0:0:0:
329,192,157707,1,0,0:0:0:0:
182,192,157790,1,0,0:0:0:0:
109,192,157873,1,0,0:0:0:0:
402,192,157873,1,0,0:0:0:0:
475,192,157957,1,0,0:0:0:0:
329,192,158040,1,0,0:0:0:0:
36,192,158040,1,0,0:0:0:0:
256,192,158123,1,0,0:0:0:0:
182,192,158207,1,0,0:0:0:0:
402,192,158207,1,0,0:0:0:0:
36,192,158373,1,0,0:0:0:0:
109,192,158373,1,0,0:0:0:0:
475,192,158373,1,0,0:0:0:0:
329,192,158373,1,0,0:0:0:0:
256,192,158457,1,0,0:0:0:0:
182,192,158540,1,0,0:0:0:0:
36,192,158540,1,0,0:0:0:0:
329,192,158623,1,0,0:0:0:0:
256,192,158707,1,0,0:0:0:0:
475,192,158707,1,0,0:0:0:0:
402,192,158707,1,0,0:0:0:0:
182,192,158790,1,0,0:0:0:0:
109,192,158873,1,0,0:0:0:0:
402,192,158873,1,0,0:0:0:0:
36,192,158957,1,0,0:0:0:0:
329,192,159040,1,0,0:0:0:0:
475,192,159040,1,0,0:0:0:0:
256,192,159123,1,0,0:0:0:0:
182,192,159207,1,0,0:0:0:0:
329,192,159207,1,0,0:0:0:0:
36,192,159290,1,0,0:0:0:0:
256,192,159373,1,0,0:0:0:0:
475,192,159373,1,0,0:0:0:0:
402,192,159373,1,0,0:0:0:0:
182,192,159457,1,0,0:0:0:0:
109,192,159540,1,0,0:0:0:0:
402,192,159540,1,0,0:0:0:0:
36,192,159623,1,0,0:0:0:0:
182,192,159707,1,0,0:0:0:0:
475,192,159707,1,0,0:0:0:0:
256,192,159790,1,0,0:0:0:0:
329,192,159873,1,0,0:0:0:0:
109,192,159873,1,0,0:0:0:0:
182,192,159957,1,0,0:0:0:0:
475,192,160040,1,0,0:0:0:0:
402,192,160040,1,0,0:0:0:0:
36,192,160040,1,0,0:0:0:0:
109,192,160123,1,0,0:0:0:0:
182,192,160207,1,0,0:0:0:0:
402,192,160207,1,0,0:0:0:0:
256,192,160290,1,0,0:0:0:0:
182,192,160373,1,0,0:0:0:0:
36,192,160373,1,0,0:0:0:0:
329,192,160457,1,0,0:0:0:0:
256,192,160540,1,0,0:0:0:0:
475,192,160540,1,0,0:0:0:0:
182,192,160623,1,0,0:0:0:0:
256,192,160707,1,0,0:0:0:0:
36,192,160707,1,0,0:0:0:0:
329,192,160790,1,0,0:0:0:0:
402,192,160873,1,0,0:0:0:0:
109,192,160873,1,0,0:0:0:0:
36,192,161040,1,0,0:0:0:0:
475,192,161040,1,0,0:0:0:0:
182,192,161040,1,0,0:0:0:0:
329,192,161040,1,0,0:0:0:0:
256,192,161207,1,0,0:0:0:0:
36,192,161373,1,0,0:0:0:0:
475,192,161373,1,0,0:0:0:0:
402,192,161373,1,0,0:0:0:0:
329,192,161457,1,0,0:0:0:0:
256,192,161540,1,0,0:0:0:0:
109,192,161540,1,0,0:0:0:0:
329,192,161623,1,0,0:0:0:0:
402,192,161707,1,0,0:0:0:0:
36,192,161707,1,0,0:0:0:0:
475,192,161790,1,0,0:0:0:0:
109,192,161790,1,0,0:0:0:0:
256,192,161873,1,0,0:0:0:0:
329,192,161957,1,0,0:0:0:0:
36,192,162040,1,0,0:0:0:0:
402,192,162040,128,0,162207:0:0:0:0:
475,192,162040,1,0,0:0:0:0:
109,192,162123,1,0,0:0:0:0:
182,192,162207,1,0,0:0:0:0:
256,192,162290,1,0,0:0:0:0:
475,192,162373,1,0,0:0:0:0:
109,192,162373,128,0,162540:0:0:0:0:
36,192,162373,1,0,0:0:0:0:
402,192,162457,1,0,0:0:0:0:
329,192,162540,1,0,0:0:0:0:
256,192,162623,1,0,0:0:0:0:
182,192,162707,1,0,0:0:0:0:
475,192,162707,1,0,0:0:0:0:
36,192,162707,1,0,0:0:0:0:
402,192,162790,1,0,0:0:0:0:
329,192,162873,1,0,0:0:0:0:
109,192,162957,1,0,0:0:0:0:
182,192,163040,1,0,0:0:0:0:
475,192,163040,1,0,0:0:0:0:
36,192,163040,1,0,0:0:0:0:
402,192,163123,1,0,0:0:0:0:
256,192,163207,1,0,0:0:0:0:
109,192,163207,1,0,0:0:0:0:
402,192,163290,1,0,0:0:0:0:
329,192,163373,1,0,0:0:0:0:
475,192,163373,1,0,0:0:0:0:
36,192,163373,1,0,0:0:0:0:
109,192,163457,1,0,0:0:0:0:
256,192,163457,1,0,0:0:0:0:
182,192,163540,1,0,0:0:0:0:
402,192,163623,1,0,0:0:0:0:
329,192,163707,1,0,0:0:0:0:
475,192,163707,1,0,0:0:0:0:
36,192,163707,1,0,0:0:0:0:
109,192,163790,1,0,0:0:0:0:
182,192,163873,1,0,0:0:0:0:
402,192,163873,1,0,0:0:0:0:
256,192,164040,1,0,0:0:0:0:
329,192,164040,1,0,0:0:0:0:
109,192,164040,1,0,0:0:0:0:
402,192,164123,1,0,0:0:0:0:
475,192,164207,1,0,0:0:0:0:
182,192,164207,1,0,0:0:0:0:
36,192,164290,1,0,0:0:0:0:
256,192,164373,1,0,0:0:0:0:
109,192,164373,1,0,0:0:0:0:
329,192,164373,1,0,0:0:0:0:
402,192,164457,1,0,0:0:0:0:
475,192,164540,1,0,0:0:0:0:
182,192,164540,1,0,0:0:0:0:
36,192,164623,1,0,0:0:0:0:
402,192,164707,1,0,0:0:0:0:
109,192,164707,1,0,0:0:0:0:
475,192,164790,1,0,0:0:0:0:
182,192,164873,1,0,0:0:0:0:
329,192,164873,1,0,0:0:0:0:
36,192,164957,1,0,0:0:0:0:
402,192,165040,1,0,0:0:0:0:
109,192,165040,1,0,0:0:0:0:
256,192,165123,1,0,0:0:0:0:
475,192,165207,1,0,0:0:0:0:
329,192,165207,1,0,0:0:0:0:
182,192,165290,1,0,0:0:0:0:
402,192,165373,128,0,165623:0:0:0:0:
109,192,165373,128,0,165623:0:0:0:0:
329,192,165373,1,0,0:0:0:0:
36,192,165373,1,0,0:0:0:0:
402,192,165707,128,0,165957:0:0:0:0:
109,192,165707,128,0,165957:0:0:0:0:
182,192,165707,1,0,0:0:0:0:
475,192,165707,1,0,0:0:0:0:
475,192,166040,128,0,166290:0:0:0:0:
36,192,166040,128,0,166290:0:0:0:0:
256,192,166040,1,0,0:0:0:0:
475,192,166373,128,0,166623:0:0:0:0:
36,192,166373,128,0,166623:0:0:0:0:
329,192,166373,1,0,0:0:0:0:
182,192,166373,1,0,0:0:0:0:
402,192,166707,5,0,0:0:0:0:
109,192,167040,1,0,0:0:0:0:
329,192,167373,1,0,0:0:0:0:
36,192,167707,1,0,0:0:0:0:
402,192,168207,1,0,0:0:0:0:
109,192,168207,1,0,0:0:0:0:
402,192,168373,1,0,0:0:0:0:
109,192,168373,1,0,0:0:0:0:
402,192,168540,1,0,0:0:0:0:
109,192,168540,1,0,0:0:0:0:
402,192,168707,1,0,0:0:0:0:
109,192,168707,1,0,0:0:0:0:
402,192,168873,1,0,0:0:0:0:
109,192,168873,1,0,0:0:0:0:
402,192,169040,1,0,0:0:0:0:
109,192,169040,1,0,0:0:0:0:
402,192,169207,1,0,0:0:0:0:
109,192,169207,1,0,0:0:0:0:
256,192,169373,1,0,0:0:0:0:
329,192,169373,1,0,0:0:0:0:
36,192,169373,1,0,0:0:0:0:
402,192,169457,1,0,0:0:0:0:
109,192,169457,1,0,0:0:0:0:
475,192,169540,1,0,0:0:0:0:
182,192,169540,1,0,0:0:0:0:
402,192,169623,1,0,0:0:0:0:
182,192,169707,1,0,0:0:0:0:
109,192,169707,1,0,0:0:0:0:
329,192,169707,1,0,0:0:0:0:
256,192,169790,1,0,0:0:0:0:
36,192,169790,1,0,0:0:0:0:
402,192,169873,1,0,0:0:0:0:
475,192,169873,1,0,0:0:0:0:
109,192,169957,1,0,0:0:0:0:
329,192,170040,1,0,0:0:0:0:
256,192,170040,1,0,0:0:0:0:
36,192,170040,1,0,0:0:0:0:
402,192,170123,1,0,0:0:0:0:
182,192,170123,1,0,0:0:0:0:
475,192,170207,1,0,0:0:0:0:
109,192,170207,1,0,0:0:0:0:
402,192,170290,1,0,0:0:0:0:
256,192,170373,1,0,0:0:0:0:
182,192,170373,1,0,0:0:0:0:
329,192,170373,1,0,0:0:0:0:
402,192,170457,1,0,0:0:0:0:
36,192,170457,1,0,0:0:0:0:
109,192,170540,1,0,0:0:0:0:
475,192,170540,1,0,0:0:0:0:
182,192,170623,1,0,0:0:0:0:
475,192,170707,1,0,0:0:0:0:
402,192,170707,1,0,0:0:0:0:
36,192,170707,1,0,0:0:0:0:
109,192,170790,1,0,0:0:0:0:
182,192,170873,1,0,0:0:0:0:
329,192,170873,1,0,0:0:0:0:
256,192,170957,1,0,0:0:0:0:
475,192,171040,1,0,0:0:0:0:
36,192,171040,1,0,0:0:0:0:
402,192,171040,1,0,0:0:0:0:
109,192,171123,1,0,0:0:0:0:
182,192,171123,1,0,0:0:0:0:
329,192,171207,1,0,0:0:0:0:
256,192,171290,1,0,0:0:0:0:
36,192,171373,1,0,0:0:0:0:
109,192,171373,1,0,0:0:0:0:
402,192,171373,1,0,0:0:0:0:
475,192,171457,1,0,0:0:0:0:
329,192,171540,1,0,0:0:0:0:
182,192,171540,1,0,0:0:0:0:
402,192,171623,1,0,0:0:0:0:
256,192,171707,1,0,0:0:0:0:
109,192,171707,1,0,0:0:0:0:
329,192,171790,1,0,0:0:0:0:
475,192,171790,1,0,0:0:0:0:
182,192,171873,1,0,0:0:0:0:
36,192,171873,1,0,0:0:0:0:
256,192,171957,1,0,0:0:0:0:
475,192,172040,1,0,0:0:0:0:
402,192,172040,1,0,0:0:0:0:
109,192,172040,1,0,0:0:0:0:
36,192,172123,1,0,0:0:0:0:
182,192,172207,1,0,0:0:0:0:
329,192,172207,1,0,0:0:0:0:
109,192,172290,1,0,0:0:0:0:
402,192,172290,1,0,0:0:0:0:
475,192,172373,1,0,0:0:0:0:
256,192,172373,1,0,0:0:0:0:
182,192,172457,1,0,0:0:0:0:
402,192,172457,1,0,0:0:0:0:
329,192,172540,1,0,0:0:0:0:
36,192,172540,1,0,0:0:0:0:
256,192,172623,1,0,0:0:0:0:
109,192,172707,1,0,0:0:0:0:
36,192,172707,1,0,0:0:0:0:
402,192,172707,1,0,0:0:0:0:
329,192,172790,1,0,0:0:0:0:
182,192,172790,1,0,0:0:0:0:
475,192,172873,1,0,0:0:0:0:
109,192,172873,1,0,0:0:0:0:
402,192,172957,1,0,0:0:0:0:
36,192,172957,1,0,0:0:0:0:
256,192,173040,1,0,0:0:0:0:
182,192,173040,1,0,0:0:0:0:
329,192,173123,1,0,0:0:0:0:
109,192,173123,1,0,0:0:0:0:
402,192,173207,1,0,0:0:0:0:
182,192,173207,1,0,0:0:0:0:
475,192,173290,1,0,0:0:0:0:
256,192,173290,1,0,0:0:0:0:
402,192,173373,1,0,0:0:0:0:
36,192,173373,1,0,0:0:0:0:
109,192,173373,1,0,0:0:0:0:
329,192,173457,1,0,0:0:0:0:
182,192,173457,1,0,0:0:0:0:
256,192,173540,1,0,0:0:0:0:
475,192,173540,1,0,0:0:0:0:
402,192,173623,1,0,0:0:0:0:
329,192,173707,1,0,0:0:0:0:
182,192,173707,1,0,0:0:0:0:
109,192,173707,1,0,0:0:0:0:
475,192,173790,1,0,0:0:0:0:
36,192,173790,1,0,0:0:0:0:
402,192,173873,1,0,0:0:0:0:
256,192,173873,1,0,0:0:0:0:
182,192,173957,1,0,0:0:0:0:
329,192,174040,1,0,0:0:0:0:
109,192,174040,1,0,0:0:0:0:
36,192,174040,1,0,0:0:0:0:
402,192,174123,1,0,0:0:0:0:
182,192,174207,1,0,0:0:0:0:
256,192,174207,1,0,0:0:0:0:
329,192,174290,1,0,0:0:0:0:
36,192,174373,1,0,0:0:0:0:
402,192,174373,1,0,0:0:0:0:
475,192,174373,1,0,0:0:0:0:
329,192,174457,1,0,0:0:0:0:
109,192,174457,1,0,0:0:0:0:
256,192,174540,1,0,0:0:0:0:
475,192,174540,1,0,0:0:0:0:
182,192,174623,1,0,0:0:0:0:
36,192,174707,1,0,0:0:0:0:
402,192,174707,1,0,0:0:0:0:
329,192,174707,1,0,0:0:0:0:
109,192,174790,1,0,0:0:0:0:
182,192,174873,1,0,0:0:0:0:
256,192,174873,1,0,0:0:0:0:
475,192,174957,1,0,0:0:0:0:
329,192,175040,1,0,0:0:0:0:
109,192,175040,1,0,0:0:0:0:
36,192,175040,1,0,0:0:0:0:
402,192,175123,1,0,0:0:0:0:
475,192,175207,1,0,0:0:0:0:
256,192,175207,1,0,0:0:0:0:
36,192,175290,1,0,0:0:0:0:
182,192,175373,1,0,0:0:0:0:
402,192,175373,1,0,0:0:0:0:
475,192,175373,1,0,0:0:0:0:
109,192,175457,1,0,0:0:0:0:
36,192,175540,1,0,0:0:0:0:
256,192,175540,1,0,0:0:0:0:
329,192,175623,1,0,0:0:0:0:
475,192,175707,1,0,0:0:0:0:
109,192,175707,1,0,0:0:0:0:
36,192,175707,1,0,0:0:0:0:
402,192,175790,1,0,0:0:0:0:
329,192,175873,1,0,0:0:0:0:
256,192,175873,1,0,0:0:0:0:
36,192,175957,1,0,0:0:0:0:
182,192,175957,1,0,0:0:0:0:
109,192,176040,1,0,0:0:0:0:
402,192,176040,1,0,0:0:0:0:
475,192,176040,1,0,0:0:0:0:
182,192,176123,1,0,0:0:0:0:
256,192,176207,1,0,0:0:0:0:
36,192,176207,1,0,0:0:0:0:
329,192,176290,1,0,0:0:0:0:
402,192,176373,1,0,0:0:0:0:
109,192,176373,1,0,0:0:0:0:
475,192,176373,1,0,0:0:0:0:
329,192,176457,1,0,0:0:0:0:
256,192,176540,1,0,0:0:0:0:
36,192,176540,1,0,0:0:0:0:
182,192,176623,1,0,0:0:0:0:
109,192,176707,1,0,0:0:0:0:
475,192,176707,1,0,0:0:0:0:
329,192,176707,1,0,0:0:0:0:
402,192,176873,1,0,0:0:0:0:
256,192,176873,1,0,0:0:0:0:
109,192,176873,1,0,0:0:0:0:
329,192,176957,1,0,0:0:0:0:
402,192,177040,1,0,0:0:0:0:
182,192,177040,1,0,0:0:0:0:
36,192,177040,1,0,0:0:0:0:
256,192,177123,1,0,0:0:0:0:
402,192,177207,1,0,0:0:0:0:
109,192,177207,1,0,0:0:0:0:
182,192,177290,1,0,0:0:0:0:
329,192,177290,1,0,0:0:0:0:
256,192,177373,1,0,0:0:0:0:
475,192,177373,1,0,0:0:0:0:
36,192,177373,1,0,0:0:0:0:
329,192,177457,1,0,0:0:0:0:
402,192,177540,1,0,0:0:0:0:
109,192,177540,1,0,0:0:0:0:
36,192,177623,1,0,0:0:0:0:
256,192,177623,1,0,0:0:0:0:
182,192,177707,1,0,0:0:0:0:
475,192,177707,1,0,0:0:0:0:
256,192,177790,1,0,0:0:0:0:
329,192,177873,1,0,0:0:0:0:
36,192,177873,1,0,0:0:0:0:
475,192,177957,1,0,0:0:0:0:
182,192,177957,1,0,0:0:0:0:
109,192,178040,1,0,0:0:0:0:
402,192,178040,1,0,0:0:0:0:
182,192,178123,1,0,0:0:0:0:
256,192,178207,1,0,0:0:0:0:
475,192,178207,1,0,0:0:0:0:
402,192,178290,1,0,0:0:0:0:
109,192,178290,1,0,0:0:0:0:
36,192,178373,1,0,0:0:0:0:
329,192,178373,1,0,0:0:0:0:
109,192,178457,1,0,0:0:0:0:
182,192,178540,1,0,0:0:0:0:
402,192,178540,1,0,0:0:0:0:
329,192,178623,1,0,0:0:0:0:
256,192,178707,5,0,0:0:0:0:
475,192,178707,1,0,0:0:0:0:
36,192,178707,1,0,0:0:0:0:
402,192,178707,128,0,179040:0:0:0:0:
109,192,179040,128,0,179373:0:0:0:0:
329,192,179040,1,0,0:0:0:0:
182,192,179040,1,0,0:0:0:0:
36,192,179040,1,0,0:0:0:0:
475,192,179040,1,0,0:0:0:0:
329,192,179373,128,0,179707:0:0:0:0:
182,192,179373,128,0,179707:0:0:0:0:
256,192,179373,1,0,0:0:0:0:
475,192,179707,1,0,0:0:0:0:
36,192,179707,1,0,0:0:0:0:
475,192,180040,128,0,180207:0:0:0:0:
36,192,180040,1,0,0:0:0:0:
256,192,180040,1,0,0:0:0:0:
109,192,180123,1,0,0:0:0:0:
329,192,180123,1,0,0:0:0:0:
182,192,180207,1,0,0:0:0:0:
402,192,180207,1,0,0:0:0:0:
256,192,180290,1,0,0:0:0:0:
109,192,180373,1,0,0:0:0:0:
475,192,180373,1,0,0:0:0:0:
36,192,180373,1,0,0:0:0:0:
402,192,180457,1,0,0:0:0:0:
182,192,180457,1,0,0:0:0:0:
475,192,180540,128,0,180707:0:0:0:0:
329,192,180540,1,0,0:0:0:0:
109,192,180540,1,0,0:0:0:0:
256,192,180623,1,0,0:0:0:0:
36,192,180623,1,0,0:0:0:0:
109,192,180707,1,0,0:0:0:0:
402,192,180707,1,0,0:0:0:0:
329,192,180790,1,0,0:0:0:0:
182,192,180873,1,0,0:0:0:0:
36,192,180873,1,0,0:0:0:0:
475,192,180957,1,0,0:0:0:0:
182,192,181040,1,0,0:0:0:0:
402,192,181040,1,0,0:0:0:0:
109,192,181040,1,0,0:0:0:0:
329,192,181123,1,0,0:0:0:0:
182,192,181207,1,0,0:0:0:0:
109,192,181290,1,0,0:0:0:0:
36,192,181373,1,0,0:0:0:0:
475,192,181373,128,0,181540:0:0:0:0:
256,192,181373,1,0,0:0:0:0:
109,192,181457,1,0,0:0:0:0:
329,192,181457,1,0,0:0:0:0:
182,192,181540,1,0,0:0:0:0:
402,192,181540,1,0,0:0:0:0:
256,192,181623,1,0,0:0:0:0:
109,192,181707,1,0,0:0:0:0:
475,192,181707,1,0,0:0:0:0:
36,192,181707,1,0,0:0:0:0:
402,192,181790,1,0,0:0:0:0:
182,192,181790,1,0,0:0:0:0:
475,192,181873,128,0,182040:0:0:0:0:
329,192,181873,1,0,0:0:0:0:
109,192,181873,1,0,0:0:0:0:
256,192,181957,1,0,0:0:0:0:
36,192,181957,1,0,0:0:0:0:
109,192,182040,1,0,0:0:0:0:
402,192,182040,1,0,0:0:0:0:
329,192,182123,1,0,0:0:0:0:
182,192,182207,1,0,0:0:0:0:
36,192,182207,1,0,0:0:0:0:
475,192,182207,1,0,0:0:0:0:
329,192,182290,1,0,0:0:0:0:
109,192,182373,1,0,0:0:0:0:
256,192,182373,1,0,0:0:0:0:
402,192,182373,1,0,0:0:0:0:
329,192,182457,1,0,0:0:0:0:
182,192,182540,1,0,0:0:0:0:
36,192,182540,1,0,0:0:0:0:
475,192,182540,1,0,0:0:0:0:
329,192,182623,1,0,0:0:0:0:
475,192,182707,1,0,0:0:0:0:
36,192,182707,128,0,182873:0:0:0:0:
256,192,182707,1,0,0:0:0:0:
402,192,182790,1,0,0:0:0:0:
182,192,182790,1,0,0:0:0:0:
109,192,182873,1,0,0:0:0:0:
329,192,182874,1,0,0:0:0:0:
182,192,182957,1,0,0:0:0:0:
402,192,183040,1,0,0:0:0:0:
36,192,183040,1,0,0:0:0:0:
475,192,183040,1,0,0:0:0:0:
256,192,183040,1,0,0:0:0:0:
329,192,183123,1,0,0:0:0:0:
109,192,183124,1,0,0:0:0:0:
182,192,183207,1,0,0:0:0:0:
36,192,183207,128,0,183373:0:0:0:0:
402,192,183207,1,0,0:0:0:0:
256,192,183290,1,0,0:0:0:0:
109,192,183374,1,0,0:0:0:0:
402,192,183374,1,0,0:0:0:0:
182,192,183457,1,0,0:0:0:0:
256,192,183540,1,0,0:0:0:0:
402,192,183540,1,0,0:0:0:0:
329,192,183623,1,0,0:0:0:0:
36,192,183624,1,0,0:0:0:0:
109,192,183707,1,0,0:0:0:0:
256,192,183707,1,0,0:0:0:0:
475,192,183707,1,0,0:0:0:0:
182,192,183790,1,0,0:0:0:0:
402,192,183790,1,0,0:0:0:0:
109,192,183873,1,0,0:0:0:0:
329,192,183874,1,0,0:0:0:0:
36,192,183957,1,0,0:0:0:0:
402,192,183957,1,0,0:0:0:0:
475,192,184040,1,0,0:0:0:0:
256,192,184040,1,0,0:0:0:0:
182,192,184040,1,0,0:0:0:0:
329,192,184123,1,0,0:0:0:0:
109,192,184123,1,0,0:0:0:0:
402,192,184207,1,0,0:0:0:0:
36,192,184207,1,0,0:0:0:0:
109,192,184290,1,0,0:0:0:0:
256,192,184290,1,0,0:0:0:0:
182,192,184373,1,0,0:0:0:0:
402,192,184373,1,0,0:0:0:0:
475,192,184373,1,0,0:0:0:0:
256,192,184457,1,0,0:0:0:0:
329,192,184540,1,0,0:0:0:0:
109,192,184540,1,0,0:0:0:0:
402,192,184623,1,0,0:0:0:0:
182,192,184623,1,0,0:0:0:0:
36,192,184707,1,0,0:0:0:0:
109,192,184707,1,0,0:0:0:0:
329,192,184707,128,0,185040:0:0:0:0:
475,192,184707,1,0,0:0:0:0:
182,192,184790,1,0,0:0:0:0:
402,192,184873,1,0,0:0:0:0:
256,192,184873,1,0,0:0:0:0:
109,192,184957,1,0,0:0:0:0:
182,192,185040,128,0,185373:0:0:0:0:
475,192,185040,1,0,0:0:0:0:
36,192,185040,1,0,0:0:0:0:
402,192,185123,1,0,0:0:0:0:
256,192,185207,1,0,0:0:0:0:
109,192,185207,1,0,0:0:0:0:
329,192,185290,1,0,0:0:0:0:
36,192,185373,128,0,185707:0:0:0:0:
475,192,185373,1,0,0:0:0:0:
402,192,185373,1,0,0:0:0:0:
329,192,185457,1,0,0:0:0:0:
182,192,185540,1,0,0:0:0:0:
256,192,185540,1,0,0:0:0:0:
402,192,185623,1,0,0:0:0:0:
329,192,185707,1,0,0:0:0:0:
109,192,185707,1,0,0:0:0:0:
475,192,185707,128,0,185873:0:0:0:0:
256,192,185790,1,0,0:0:0:0:
36,192,185873,1,0,0:0:0:0:
402,192,185873,128,0,186040:0:0:0:0:
182,192,185873,1,0,0:0:0:0:
329,192,185957,1,0,0:0:0:0:
36,192,186040,1,0,0:0:0:0:
182,192,186040,128,0,186373:0:0:0:0:
256,192,186040,1,0,0:0:0:0:
109,192,186123,1,0,0:0:0:0:
402,192,186207,1,0,0:0:0:0:
329,192,186207,1,0,0:0:0:0:
475,192,186290,1,0,0:0:0:0:
256,192,186373,1,0,0:0:0:0:
329,192,186373,1,0,0:0:0:0:
36,192,186373,128,0,186540:0:0:0:0:
402,192,186457,1,0,0:0:0:0:
109,192,186540,128,0,186707:0:0:0:0:
329,192,186540,1,0,0:0:0:0:
475,192,186540,1,0,0:0:0:0:
256,192,186623,1,0,0:0:0:0:
182,192,186707,1,0,0:0:0:0:
329,192,186707,128,0,187040:0:0:0:0:
475,192,186707,1,0,0:0:0:0:
402,192,186790,1,0,0:0:0:0:
36,192,186873,1,0,0:0:0:0:
256,192,186873,1,0,0:0:0:0:
475,192,186873,1,0,0:0:0:0:
109,192,186957,1,0,0:0:0:0:
256,192,187040,1,0,0:0:0:0:
182,192,187040,1,0,0:0:0:0:
475,192,187040,128,0,187207:0:0:0:0:
36,192,187207,1,0,0:0:0:0:
402,192,187207,128,0,187373:0:0:0:0:
182,192,187207,1,0,0:0:0:0:
256,192,187290,1,0,0:0:0:0:
182,192,187373,128,0,187540:0:0:0:0:
329,192,187373,1,0,0:0:0:0:
109,192,187373,1,0,0:0:0:0:
475,192,187457,1,0,0:0:0:0:
402,192,187540,1,0,0:0:0:0:
36,192,187540,1,0,0:0:0:0:
256,192,187540,128,0,187707:0:0:0:0:
182,192,187623,1,0,0:0:0:0:
475,192,187707,1,0,0:0:0:0:
36,192,187707,1,0,0:0:0:0:
329,192,187707,128,0,187873:0:0:0:0:
402,192,187790,1,0,0:0:0:0:
256,192,187790,1,0,0:0:0:0:
109,192,187873,128,0,188040:0:0:0:0:
182,192,187873,1,0,0:0:0:0:
402,192,187957,1,0,0:0:0:0:
329,192,187957,1,0,0:0:0:0:
256,192,188040,1,0,0:0:0:0:
475,192,188040,1,0,0:0:0:0:
36,192,188040,1,0,0:0:0:0:
329,192,188123,1,0,0:0:0:0:
182,192,188207,1,0,0:0:0:0:
109,192,188207,1,0,0:0:0:0:
329,192,188290,1,0,0:0:0:0:
475,192,188373,1,0,0:0:0:0:
256,192,188373,1,0,0:0:0:0:
182,192,188373,1,0,0:0:0:0:
109,192,188457,1,0,0:0:0:0:
329,192,188457,1,0,0:0:0:0:
402,192,188540,1,0,0:0:0:0:
36,192,188540,1,0,0:0:0:0:
109,192,188623,1,0,0:0:0:0:
256,192,188623,1,0,0:0:0:0:
475,192,188707,1,0,0:0:0:0:
329,192,188707,1,0,0:0:0:0:
36,192,188707,1,0,0:0:0:0:
182,192,188790,1,0,0:0:0:0:
402,192,188790,1,0,0:0:0:0:
256,192,188873,1,0,0:0:0:0:
36,192,188873,1,0,0:0:0:0:
109,192,188957,1,0,0:0:0:0:
329,192,188957,1,0,0:0:0:0:
182,192,189040,1,0,0:0:0:0:
402,192,189040,1,0,0:0:0:0:
475,192,189040,1,0,0:0:0:0:
36,192,189123,1,0,0:0:0:0:
256,192,189123,1,0,0:0:0:0:
329,192,189207,1,0,0:0:0:0:
109,192,189207,1,0,0:0:0:0:
256,192,189290,1,0,0:0:0:0:
182,192,189290,1,0,0:0:0:0:
402,192,189373,128,0,189623:0:0:0:0:
109,192,189373,128,0,189623:0:0:0:0:
256,192,189540,5,0,0:0:0:0:
402,192,189707,128,0,189957:0:0:0:0:
109,192,189707,128,0,189957:0:0:0:0:
256,192,189873,1,0,0:0:0:0:
182,192,189957,1,0,0:0:0:0:
329,192,189957,1,0,0:0:0:0:
36,192,190040,128,0,190290:0:0:0:0:
475,192,190040,128,0,190290:0:0:0:0:
256,192,190207,1,0,0:0:0:0:
329,192,190290,1,0,0:0:0:0:
182,192,190290,1,0,0:0:0:0:
36,192,190373,128,0,190623:0:0:0:0:
475,192,190373,128,0,190623:0:0:0:0:
256,192,190540,1,0,0:0:0:0:
182,192,190623,1,0,0:0:0:0:
329,192,190623,1,0,0:0:0:0:
402,192,190707,1,0,0:0:0:0:
475,192,190707,1,0,0:0:0:0:
109,192,190707,1,0,0:0:0:0:
36,192,190707,1,0,0:0:0:0:
329,192,190873,1,0,0:0:0:0:
182,192,190873,1,0,0:0:0:0:
402,192,191040,1,0,0:0:0:0:
256,192,191040,1,0,0:0:0:0:
402,192,191373,1,0,0:0:0:0:
256,192,191373,1,0,0:0:0:0:
329,192,191540,1,0,0:0:0:0:
182,192,191540,1,0,0:0:0:0:
256,192,191707,1,0,0:0:0:0:
109,192,191707,1,0,0:0:0:0:
475,192,191707,1,0,0:0:0:0:
36,192,191707,1,0,0:0:0:0:
329,192,191873,1,0,0:0:0:0:
256,192,192040,1,0,0:0:0:0:
182,192,192207,1,0,0:0:0:0:
475,192,192290,1,0,0:0:0:0:
402,192,192373,1,0,0:0:0:0:
329,192,192457,1,0,0:0:0:0:
109,192,192540,1,0,0:0:0:0:
109,192,192707,1,0,0:0:0:0:
402,192,192873,1,0,0:0:0:0:
329,192,192873,1,0,0:0:0:0:
402,192,193040,1,0,0:0:0:0:
329,192,193040,1,0,0:0:0:0:
402,192,193207,1,0,0:0:0:0:
329,192,193207,1,0,0:0:0:0:
109,192,193373,1,0,0:0:0:0:
36,192,193373,1,0,0:0:0:0:
256,192,193373,128,0,193539:0:0:0:0:
402,192,193373,1,0,0:0:0:0:
475,192,193373,1,0,0:0:0:0:
329,192,193539,128,0,193623:0:0:0:0:
182,192,193539,1,0,0:0:0:0:
475,192,193706,1,0,0:0:0:0:
36,192,193706,1,0,0:0:0:0:
109,192,193706,1,0,0:0:0:0:
329,192,193789,1,0,0:0:0:0:
182,192,193873,1,0,0:0:0:0:
475,192,193873,1,0,0:0:0:0:
329,192,193956,1,0,0:0:0:0:
402,192,194039,128,0,194206:0:0:0:0:
36,192,194039,1,0,0:0:0:0:
182,192,194039,1,0,0:0:0:0:
256,192,194123,1,0,0:0:0:0:
475,192,194206,128,0,194373:0:0:0:0:
109,192,194206,1,0,0:0:0:0:
329,192,194207,1,0,0:0:0:0:
256,192,194290,1,0,0:0:0:0:
36,192,194373,1,0,0:0:0:0:
182,192,194373,1,0,0:0:0:0:
256,192,194457,1,0,0:0:0:0:
109,192,194539,1,0,0:0:0:0:
329,192,194539,128,0,194706:0:0:0:0:
475,192,194540,1,0,0:0:0:0:
402,192,194623,1,0,0:0:0:0:
256,192,194706,128,0,194873:0:0:0:0:
36,192,194706,1,0,0:0:0:0:
182,192,194707,1,0,0:0:0:0:
109,192,194790,1,0,0:0:0:0:
182,192,194873,128,0,194956:0:0:0:0:
329,192,194873,1,0,0:0:0:0:
36,192,194873,1,0,0:0:0:0:
256,192,194956,128,0,195039:0:0:0:0:
402,192,194957,1,0,0:0:0:0:
109,192,195039,1,0,0:0:0:0:
329,192,195039,128,0,195123:0:0:0:0:
475,192,195039,1,0,0:0:0:0:
182,192,195123,1,0,0:0:0:0:
36,192,195206,1,0,0:0:0:0:
329,192,195206,128,0,195373:0:0:0:0:
256,192,195207,1,0,0:0:0:0:
402,192,195290,1,0,0:0:0:0:
182,192,195373,128,0,195539:0:0:0:0:
475,192,195373,1,0,0:0:0:0:
36,192,195373,1,0,0:0:0:0:
109,192,195457,1,0,0:0:0:0:
329,192,195457,1,0,0:0:0:0:
256,192,195539,1,0,0:0:0:0:
402,192,195539,128,0,195873:0:0:0:0:
329,192,195623,1,0,0:0:0:0:
475,192,195706,1,0,0:0:0:0:
36,192,195706,128,0,195873:0:0:0:0:
109,192,195707,1,0,0:0:0:0:
256,192,195707,1,0,0:0:0:0:
182,192,195790,1,0,0:0:0:0:
256,192,195873,1,0,0:0:0:0:
109,192,195873,128,0,196039:0:0:0:0:
329,192,195873,128,0,196039:0:0:0:0:
475,192,195957,1,0,0:0:0:0:
36,192,196039,1,0,0:0:0:0:
402,192,196039,128,0,196373:0:0:0:0:
182,192,196039,128,0,196206:0:0:0:0:
475,192,196123,1,0,0:0:0:0:
256,192,196206,128,0,196373:0:0:0:0:
109,192,196206,1,0,0:0:0:0:
329,192,196290,1,0,0:0:0:0:
182,192,196373,1,0,0:0:0:0:
475,192,196373,128,0,196539:0:0:0:0:
36,192,196373,128,0,196539:0:0:0:0:
256,192,196457,1,0,0:0:0:0:
329,192,196539,1,0,0:0:0:0:
182,192,196539,1,0,0:0:0:0:
475,192,196623,1,0,0:0:0:0:
36,192,196623,1,0,0:0:0:0:
256,192,196623,1,0,0:0:0:0:
329,192,196706,1,0,0:0:0:0:
182,192,196706,128,0,196789:0:0:0:0:
402,192,196790,1,0,0:0:0:0:
36,192,196873,1,0,0:0:0:0:
256,192,196873,128,0,197039:0:0:0:0:
475,192,196873,1,0,0:0:0:0:
402,192,196957,1,0,0:0:0:0:
329,192,197039,1,0,0:0:0:0:
182,192,197040,1,0,0:0:0:0:
36,192,197040,1,0,0:0:0:0:
109,192,197123,1,0,0:0:0:0:
256,192,197206,1,0,0:0:0:0:
402,192,197206,1,0,0:0:0:0:
36,192,197206,1,0,0:0:0:0:
109,192,197289,1,0,0:0:0:0:
256,192,197373,1,0,0:0:0:0:
475,192,197373,1,0,0:0:0:0:
182,192,197373,128,0,197539:0:0:0:0:
329,192,197373,1,0,0:0:0:0:
402,192,197457,1,0,0:0:0:0:
329,192,197539,128,0,197706:0:0:0:0:
109,192,197540,1,0,0:0:0:0:
475,192,197540,1,0,0:0:0:0:
402,192,197623,1,0,0:0:0:0:
182,192,197706,1,0,0:0:0:0:
36,192,197706,1,0,0:0:0:0:
256,192,197707,1,0,0:0:0:0:
402,192,197790,1,0,0:0:0:0:
109,192,197873,128,0,198039:0:0:0:0:
256,192,197873,1,0,0:0:0:0:
475,192,197873,1,0,0:0:0:0:
402,192,197957,1,0,0:0:0:0:
329,192,198039,128,0,198206:0:0:0:0:
36,192,198039,1,0,0:0:0:0:
256,192,198040,1,0,0:0:0:0:
475,192,198123,128,0,198289:0:0:0:0:
182,192,198123,1,0,0:0:0:0:
256,192,198206,128,0,198373:0:0:0:0:
109,192,198206,1,0,0:0:0:0:
402,192,198289,128,0,198456:0:0:0:0:
36,192,198290,1,0,0:0:0:0:
182,192,198373,128,0,198456:0:0:0:0:
109,192,198373,1,0,0:0:0:0:
329,192,198456,1,0,0:0:0:0:
109,192,198539,1,0,0:0:0:0:
475,192,198623,1,0,0:0:0:0:
182,192,198623,1,0,0:0:0:0:
402,192,198664,1,0,0:0:0:0:
256,192,198706,128,0,198872:0:0:0:0:
109,192,198706,1,0,0:0:0:0:
36,192,198706,1,0,0:0:0:0:
329,192,198706,1,0,0:0:0:0:
402,192,198790,1,0,0:0:0:0:
329,192,198872,128,0,198956:0:0:0:0:
182,192,198872,1,0,0:0:0:0:
475,192,198873,1,0,0:0:0:0:
402,192,198957,1,0,0:0:0:0:
475,192,199039,1,0,0:0:0:0:
36,192,199039,1,0,0:0:0:0:
109,192,199040,1,0,0:0:0:0:
329,192,199122,1,0,0:0:0:0:
182,192,199206,1,0,0:0:0:0:
475,192,199206,1,0,0:0:0:0:
329,192,199289,1,0,0:0:0:0:
402,192,199372,128,0,199539:0:0:0:0:
36,192,199372,1,0,0:0:0:0:
182,192,199372,1,0,0:0:0:0:
256,192,199457,1,0,0:0:0:0:
475,192,199539,128,0,199706:0:0:0:0:
109,192,199539,1,0,0:0:0:0:
329,192,199540,1,0,0:0:0:0:
256,192,199623,1,0,0:0:0:0:
36,192,199706,1,0,0:0:0:0:
182,192,199706,1,0,0:0:0:0:
329,192,199707,1,0,0:0:0:0:
402,192,199790,1,0,0:0:0:0:
329,192,199872,128,0,200039:0:0:0:0:
109,192,199872,1,0,0:0:0:0:
475,192,199873,1,0,0:0:0:0:
402,192,199957,1,0,0:0:0:0:
182,192,199957,1,0,0:0:0:0:
36,192,200039,1,0,0:0:0:0:
256,192,200039,128,0,200206:0:0:0:0:
475,192,200039,1,0,0:0:0:0:
109,192,200123,1,0,0:0:0:0:
182,192,200206,128,0,200289:0:0:0:0:
475,192,200207,1,0,0:0:0:0:
329,192,200207,1,0,0:0:0:0:
256,192,200289,128,0,200372:0:0:0:0:
402,192,200290,1,0,0:0:0:0:
109,192,200372,1,0,0:0:0:0:
475,192,200372,1,0,0:0:0:0:
329,192,200372,128,0,200456:0:0:0:0:
402,192,200457,1,0,0:0:0:0:
36,192,200539,1,0,0:0:0:0:
329,192,200539,128,0,200706:0:0:0:0:
182,192,200540,1,0,0:0:0:0:
256,192,200623,1,0,0:0:0:0:
475,192,200706,1,0,0:0:0:0:
109,192,200706,1,0,0:0:0:0:
182,192,200706,128,0,200872:0:0:0:0:
36,192,200790,1,0,0:0:0:0:
256,192,200872,5,0,0:0:0:0:
402,192,200872,128,0,201206:0:0:0:0:
182,192,200957,1,0,0:0:0:0:
329,192,201039,1,0,0:0:0:0:
36,192,201039,128,0,201206:0:0:0:0:
475,192,201039,1,0,0:0:0:0:
109,192,201040,1,0,0:0:0:0:
182,192,201123,1,0,0:0:0:0:
256,192,201206,1,0,0:0:0:0:
329,192,201206,128,0,201372:0:0:0:0:
109,192,201206,128,0,201372:0:0:0:0:
475,192,201290,1,0,0:0:0:0:
402,192,201372,128,0,201706:0:0:0:0:
182,192,201372,128,0,201539:0:0:0:0:
36,192,201373,1,0,0:0:0:0:
475,192,201457,1,0,0:0:0:0:
109,192,201539,1,0,0:0:0:0:
256,192,201539,128,0,201706:0:0:0:0:
329,192,201623,1,0,0:0:0:0:
36,192,201706,128,0,201872:0:0:0:0:
475,192,201706,128,0,201872:0:0:0:0:
182,192,201706,1,0,0:0:0:0:
329,192,201872,1,0,0:0:0:0:
182,192,201872,1,0,0:0:0:0:
36,192,201956,1,0,0:0:0:0:
475,192,201956,1,0,0:0:0:0:
402,192,202039,1,0,0:0:0:0:
109,192,202039,1,0,0:0:0:0:
182,192,202040,1,0,0:0:0:0:
329,192,202123,1,0,0:0:0:0:
402,192,202207,128,0,202373:0:0:0:0:
256,192,202207,1,0,0:0:0:0:
36,192,202207,1,0,0:0:0:0:
109,192,202290,1,0,0:0:0:0:
182,192,202373,128,0,202540:0:0:0:0:
256,192,202373,1,0,0:0:0:0:
329,192,202373,1,0,0:0:0:0:
475,192,202373,1,0,0:0:0:0:
329,192,202540,128,0,202707:0:0:0:0:
109,192,202540,1,0,0:0:0:0:
36,192,202623,1,0,0:0:0:0:
475,192,202707,1,0,0:0:0:0:
182,192,202707,1,0,0:0:0:0:
109,192,202707,1,0,0:0:0:0:
402,192,202790,1,0,0:0:0:0:
475,192,202873,1,0,0:0:0:0:
182,192,202873,1,0,0:0:0:0:
329,192,202957,1,0,0:0:0:0:
475,192,203040,1,0,0:0:0:0:
109,192,203040,1,0,0:0:0:0:
256,192,203123,1,0,0:0:0:0:
36,192,203207,1,0,0:0:0:0:
475,192,203207,128,0,203373:0:0:0:0:
109,192,203290,1,0,0:0:0:0:
329,192,203373,128,0,203540:0:0:0:0:
256,192,203373,1,0,0:0:0:0:
36,192,203373,1,0,0:0:0:0:
182,192,203457,128,0,203623:0:0:0:0:
256,192,203540,128,0,203707:0:0:0:0:
402,192,203540,1,0,0:0:0:0:
329,192,203623,128,0,203790:0:0:0:0:
36,192,203623,128,0,204040:0:0:0:0:
182,192,203707,128,0,203790:0:0:0:0:
475,192,203707,128,0,204123:0:0:0:0:
109,192,203707,1,0,0:0:0:0:
256,192,203790,128,0,203957:0:0:0:0:
182,192,203873,128,0,204040:0:0:0:0:
402,192,203873,1,0,0:0:0:0:
329,192,203957,1,0,0:0:0:0:
109,192,204040,128,0,204207:0:0:0:0:
256,192,204040,1,0,0:0:0:0:
402,192,204040,1,0,0:0:0:0:
329,192,204123,1,0,0:0:0:0:
402,192,204207,128,0,204457:0:0:0:0:
256,192,204207,1,0,0:0:0:0:
109,192,204290,128,0,204457:0:0:0:0:
329,192,204290,128,0,204457:0:0:0:0:
36,192,204290,1,0,0:0:0:0:
182,192,204373,1,0,0:0:0:0:
475,192,204373,1,0,0:0:0:0:
256,192,204457,1,0,0:0:0:0:
36,192,204540,128,0,204623:0:0:0:0:
475,192,204540,128,0,205040:0:0:0:0:
329,192,204540,1,0,0:0:0:0:
402,192,204540,1,0,0:0:0:0:
109,192,204623,128,0,204707:0:0:0:0:
256,192,204623,1,0,0:0:0:0:
182,192,204707,128,0,204790:0:0:0:0:
36,192,204707,1,0,0:0:0:0:
402,192,204707,1,0,0:0:0:0:
109,192,204790,1,0,0:0:0:0:
329,192,204873,128,0,205040:0:0:0:0:
182,192,204873,1,0,0:0:0:0:
256,192,204873,1,0,0:0:0:0:
109,192,204957,1,0,0:0:0:0:
36,192,205040,1,0,0:0:0:0:
182,192,205040,1,0,0:0:0:0:
402,192,205040,1,0,0:0:0:0:
329,192,205123,1,0,0:0:0:0:
402,192,205207,128,0,205373:0:0:0:0:
256,192,205207,128,0,205373:0:0:0:0:
182,192,205207,1,0,0:0:0:0:
109,192,205290,1,0,0:0:0:0:
329,192,205373,128,0,205457:0:0:0:0:
182,192,205373,128,0,205457:0:0:0:0:
36,192,205373,1,0,0:0:0:0:
475,192,205373,128,0,205873:0:0:0:0:
402,192,205540,128,0,205623:0:0:0:0:
256,192,205540,128,0,205623:0:0:0:0:
109,192,205540,1,0,0:0:0:0:
329,192,205623,128,0,205707:0:0:0:0:
182,192,205623,128,0,205707:0:0:0:0:
36,192,205623,1,0,0:0:0:0:
256,192,205707,128,0,205873:0:0:0:0:
402,192,205707,128,0,205873:0:0:0:0:
182,192,205873,128,0,205957:0:0:0:0:
329,192,205873,128,0,205957:0:0:0:0:
109,192,205873,1,0,0:0:0:0:
475,192,206040,128,0,206123:0:0:0:0:
256,192,206040,128,0,206207:0:0:0:0:
36,192,206040,1,0,0:0:0:0:
109,192,206040,1,0,0:0:0:0:
402,192,206123,128,0,206207:0:0:0:0:
182,192,206207,128,0,206373:0:0:0:0:
329,192,206207,128,0,206290:0:0:0:0:
475,192,206207,1,0,0:0:0:0:
36,192,206207,1,0,0:0:0:0:
402,192,206290,1,0,0:0:0:0:
109,192,206373,128,0,206540:0:0:0:0:
329,192,206373,1,0,0:0:0:0:
256,192,206373,1,0,0:0:0:0:
475,192,206457,1,0,0:0:0:0:
36,192,206540,128,0,206873:0:0:0:0:
402,192,206540,1,0,0:0:0:0:
182,192,206540,1,0,0:0:0:0:
256,192,206623,1,0,0:0:0:0:
182,192,206707,128,0,206873:0:0:0:0:
329,192,206707,128,0,206873:0:0:0:0:
475,192,206707,1,0,0:0:0:0:
256,192,206873,1,0,0:0:0:0:
109,192,206957,1,0,0:0:0:0:
256,192,207040,128,0,207207:0:0:0:0:
402,192,207040,128,0,207207:0:0:0:0:
475,192,207040,128,0,207207:0:0:0:0:
36,192,207040,1,0,0:0:0:0:
182,192,207040,1,0,0:0:0:0:
182,192,207207,128,0,207290:0:0:0:0:
109,192,207207,128,0,207457:0:0:0:0:
329,192,207207,1,0,0:0:0:0:
36,192,207290,128,0,207373:0:0:0:0:
475,192,207290,1,0,0:0:0:0:
182,192,207373,128,0,207457:0:0:0:0:
402,192,207373,1,0,0:0:0:0:
256,192,207373,1,0,0:0:0:0:
36,192,207457,1,0,0:0:0:0:
329,192,207540,128,0,207707:0:0:0:0:
256,192,207540,128,0,207707:0:0:0:0:
109,192,207540,1,0,0:0:0:0:
182,192,207540,1,0,0:0:0:0:
475,192,207623,1,0,0:0:0:0:
402,192,207707,1,0,0:0:0:0:
36,192,207707,1,0,0:0:0:0:
182,192,207707,1,0,0:0:0:0:
182,192,207873,128,0,207957:0:0:0:0:
109,192,207873,128,0,207957:0:0:0:0:
36,192,207873,1,0,0:0:0:0:
475,192,207873,1,0,0:0:0:0:
329,192,207957,128,0,208040:0:0:0:0:
402,192,207957,128,0,208040:0:0:0:0:
256,192,207957,1,0,0:0:0:0:
182,192,208040,128,0,208207:0:0:0:0:
109,192,208040,128,0,208207:0:0:0:0:
36,192,208040,1,0,0:0:0:0:
475,192,208040,1,0,0:0:0:0:
402,192,208123,1,0,0:0:0:0:
256,192,208207,128,0,208373:0:0:0:0:
475,192,208207,128,0,208707:0:0:0:0:
329,192,208207,1,0,0:0:0:0:
36,192,208207,1,0,0:0:0:0:
109,192,208290,1,0,0:0:0:0:
182,192,208373,1,0,0:0:0:0:
329,192,208373,1,0,0:0:0:0:
402,192,208373,1,0,0:0:0:0:
109,192,208457,1,0,0:0:0:0:
256,192,208540,128,0,208707:0:0:0:0:
36,192,208540,1,0,0:0:0:0:
402,192,208540,1,0,0:0:0:0:
329,192,208623,1,0,0:0:0:0:
36,192,208707,128,0,208873:0:0:0:0:
109,192,208707,1,0,0:0:0:0:
329,192,208790,128,0,208957:0:0:0:0:
256,192,208790,1,0,0:0:0:0:
182,192,208873,128,0,209040:0:0:0:0:
402,192,208873,1,0,0:0:0:0:
475,192,208957,128,0,209123:0:0:0:0:
36,192,208957,1,0,0:0:0:0:
256,192,209040,128,0,209207:0:0:0:0:
402,192,209040,1,0,0:0:0:0:
182,192,209123,1,0,0:0:0:0:
475,192,209207,1,0,0:0:0:0:
36,192,209290,1,0,0:0:0:0:
109,192,209332,1,0,0:0:0:0:
402,192,209373,1,0,0:0:0:0:
256,192,209373,1,0,0:0:0:0:
182,192,209373,128,0,209540:0:0:0:0:
329,192,209456,1,0,0:0:0:0:
256,192,209540,1,0,0:0:0:0:
402,192,209540,128,0,209790:0:0:0:0:
109,192,209623,128,0,209790:0:0:0:0:
329,192,209623,128,0,209790:0:0:0:0:
36,192,209623,1,0,0:0:0:0:
475,192,209706,1,0,0:0:0:0:
182,192,209706,1,0,0:0:0:0:
256,192,209790,1,0,0:0:0:0:
36,192,209873,128,0,209956:0:0:0:0:
329,192,209873,1,0,0:0:0:0:
475,192,209873,128,0,210373:0:0:0:0:
402,192,209873,1,0,0:0:0:0:
109,192,209956,128,0,210040:0:0:0:0:
256,192,209956,1,0,0:0:0:0:
402,192,210040,1,0,0:0:0:0:
182,192,210040,128,0,210123:0:0:0:0:
36,192,210040,1,0,0:0:0:0:
109,192,210123,1,0,0:0:0:0:
182,192,210206,1,0,0:0:0:0:
256,192,210206,1,0,0:0:0:0:
329,192,210206,128,0,210373:0:0:0:0:
109,192,210290,1,0,0:0:0:0:
256,192,210373,1,0,0:0:0:0:
182,192,210373,1,0,0:0:0:0:
36,192,210373,1,0,0:0:0:0:
402,192,210457,1,0,0:0:0:0:
256,192,210540,128,0,210706:0:0:0:0:
109,192,210540,128,0,210706:0:0:0:0:
329,192,210540,1,0,0:0:0:0:
402,192,210623,1,0,0:0:0:0:
475,192,210706,1,0,0:0:0:0:
329,192,210706,128,0,210790:0:0:0:0:
36,192,210706,128,0,211206:0:0:0:0:
182,192,210706,128,0,210790:0:0:0:0:
256,192,210873,128,0,210956:0:0:0:0:
109,192,210873,128,0,210956:0:0:0:0:
402,192,210873,1,0,0:0:0:0:
329,192,210956,128,0,211040:0:0:0:0:
182,192,210956,128,0,211040:0:0:0:0:
475,192,210956,1,0,0:0:0:0:
109,192,211040,128,0,211206:0:0:0:0:
256,192,211040,128,0,211206:0:0:0:0:
182,192,211206,128,0,211290:0:0:0:0:
402,192,211206,1,0,0:0:0:0:
329,192,211206,128,0,211290:0:0:0:0:
475,192,211373,128,0,211456:0:0:0:0:
256,192,211373,128,0,211540:0:0:0:0:
36,192,211373,1,0,0:0:0:0:
109,192,211373,1,0,0:0:0:0:
402,192,211456,128,0,211540:0:0:0:0:
182,192,211540,128,0,211706:0:0:0:0:
36,192,211540,1,0,0:0:0:0:
329,192,211540,128,0,211623:0:0:0:0:
475,192,211540,1,0,0:0:0:0:
402,192,211623,1,0,0:0:0:0:
329,192,211706,1,0,0:0:0:0:
256,192,211706,1,0,0:0:0:0:
109,192,211706,128,0,211873:0:0:0:0:
475,192,211790,1,0,0:0:0:0:
36,192,211873,128,0,212206:0:0:0:0:
182,192,211873,1,0,0:0:0:0:
402,192,211873,1,0,0:0:0:0:
256,192,211956,1,0,0:0:0:0:
475,192,212040,1,0,0:0:0:0:
182,192,212040,128,0,212206:0:0:0:0:
402,192,212040,128,0,212373:0:0:0:0:
109,192,212040,1,0,0:0:0:0:
329,192,212123,1,0,0:0:0:0:
475,192,212207,128,0,212790:0:0:0:0:
109,192,212207,128,0,212373:0:0:0:0:
256,192,212207,1,0,0:0:0:0:
182,192,212290,1,0,0:0:0:0:
329,192,212373,128,0,212457:0:0:0:0:
36,192,212373,1,0,0:0:0:0:
256,192,212373,1,0,0:0:0:0:
402,192,212457,128,0,212540:0:0:0:0:
182,192,212457,1,0,0:0:0:0:
329,192,212540,128,0,212623:0:0:0:0:
109,192,212540,128,0,212707:0:0:0:0:
36,192,212540,1,0,0:0:0:0:
402,192,212623,128,0,212707:0:0:0:0:
256,192,212623,1,0,0:0:0:0:
329,192,212707,128,0,212790:0:0:0:0:
36,192,212707,1,0,0:0:0:0:
182,192,212707,1,0,0:0:0:0:
402,192,212790,128,0,212873:0:0:0:0:
256,192,212790,1,0,0:0:0:0:
475,192,212873,128,0,212957:0:0:0:0:
36,192,212873,128,0,213040:0:0:0:0:
329,192,212873,1,0,0:0:0:0:
182,192,212873,1,0,0:0:0:0:
402,192,212957,1,0,0:0:0:0:
475,192,213040,128,0,213373:0:0:0:0:
329,192,213040,1,0,0:0:0:0:
256,192,213040,1,0,0:0:0:0:
109,192,213040,1,0,0:0:0:0:
182,192,213123,1,0,0:0:0:0:
402,192,213207,128,0,213290:0:0:0:0:
36,192,213207,128,0,213373:0:0:0:0:
256,192,213207,1,0,0:0:0:0:
329,192,213290,128,0,213373:0:0:0:0:
109,192,213290,1,0,0:0:0:0:
402,192,213373,1,0,0:0:0:0:
182,192,213373,1,0,0:0:0:0:
256,192,213373,1,0,0:0:0:0:
256,192,213540,1,0,0:0:0:0:
182,192,213707,1,0,0:0:0:0:
182,192,213873,1,0,0:0:0:0:
329,192,214040,1,0,0:0:0:0:
256,192,214373,1,0,0:0:0:0:
