osu file format v14

[General]
AudioFilename: ooedoranvu.mp3
AudioLeadIn: 1200
PreviewTime: 46490
Countdown: 0
SampleSet: Soft
StackLeniency: 0.7
Mode: 0
LetterboxInBreaks: 0
WidescreenStoryboard: 0

[Editor]
DistanceSpacing: 1.4
BeatDivisor: 8
GridSize: 4
TimelineZoom: 2.7

[Metadata]
Title:Ooedo Ranvu
TitleUnicode:オオエドランヴ
Artist:Reol & nqrse
ArtistUnicode:れをる & nqrse
Creator:Pho
Version:Wild Dance
Source:
Tags:no title- ギガP gigap giga-p collab collaboration euny natsu pishifat Milan- cats
BeatmapID:833389
BeatmapSetID:357544

[Difficulty]
HPDrainRate:6
CircleSize:4.2
OverallDifficulty:8
ApproachRate:9.6
SliderMultiplier:2
SliderTickRate:1

[Events]
//Background and Video events
0,0,"thx_ringating.jpg",0,0
//Break Periods
//Storyboard Layer 0 (Background)
//Storyboard Layer 1 (Fail)
//Storyboard Layer 2 (Pass)
//Storyboard Layer 3 (Foreground)
//Storyboard Sound Samples

[TimingPoints]
35,447.761194029851,4,2,2,90,1,0
1826,-133.333333333333,4,2,2,90,0,0
2945,-100,4,2,2,90,0,0
3113,-100,4,2,2,20,0,0
3169,-100,4,2,2,90,0,0
3561,-100,4,2,2,20,0,0
3617,-66.6666666666667,4,2,1,80,0,0
3729,-66.6666666666667,4,2,1,100,0,0
4064,-71.4285714285714,4,2,1,80,0,0
9885,-71.4285714285714,4,2,1,90,0,0
9997,-71.4285714285714,4,2,3,100,0,0
10109,-71.4285714285714,4,2,1,90,0,0
10725,-71.4285714285714,4,2,1,20,0,0
10781,-71.4285714285714,4,2,1,100,0,0
10893,-71.4285714285714,4,2,1,90,0,0
17665,-71.4285714285714,4,2,1,20,0,0
17721,-71.4285714285714,4,2,1,90,0,0
17889,-71.4285714285714,4,2,1,20,0,0
17945,-71.4285714285714,4,2,1,90,0,0
23934,-71.4285714285714,4,2,1,20,0,0
23990,-71.4285714285714,4,2,1,90,0,0
24158,-71.4285714285714,4,2,1,20,0,0
24214,-71.4285714285714,4,2,3,90,0,0
24605,-71.4285714285714,4,2,1,20,0,0
24661,-71.4285714285714,4,2,1,90,0,0
24829,-71.4285714285714,4,2,1,20,0,0
24885,-71.4285714285714,4,2,1,90,0,0
25109,-71.4285714285714,4,2,1,100,0,0
25221,-71.4285714285714,4,2,1,90,0,0
29979,-71.4285714285714,4,2,1,20,0,0
30035,-71.4285714285714,4,2,1,90,0,0
31826,-58.8235294117647,4,2,1,90,0,0
32273,-71.4285714285714,4,2,1,90,0,0
35464,-71.4285714285714,4,2,1,20,0,0
35520,-71.4285714285714,4,2,1,90,0,0
39437,-71.4285714285714,4,2,1,100,0,0
39661,-83.3333333333333,4,2,2,80,0,0
41005,-83.3333333333333,4,2,1,80,0,0
41117,-83.3333333333333,4,2,1,20,0,0
41229,-83.3333333333333,4,2,2,80,0,0
42684,-83.3333333333333,4,2,2,20,0,0
42796,-83.3333333333333,4,2,2,80,0,0
42908,-83.3333333333333,4,2,2,20,0,0
43020,-83.3333333333333,4,2,1,80,0,0
43243,-83.3333333333333,4,2,2,80,0,0
44699,-83.3333333333333,4,2,2,20,0,0
44811,-71.4285714285714,4,2,1,70,0,0
45146,-71.4285714285714,4,2,1,20,0,0
45258,-71.4285714285714,4,2,1,70,0,0
45594,-71.4285714285714,4,2,1,20,0,0
45706,-71.4285714285714,4,2,3,100,0,0
45818,-71.4285714285714,4,2,1,70,0,0
46042,-71.4285714285714,4,2,1,20,0,0
46154,-71.4285714285714,4,2,1,70,0,0
46490,-71.4285714285714,4,2,1,20,0,0
46602,-62.5,4,1,4,100,0,1
60930,-71.4285714285714,4,2,1,90,0,0
67199,-71.4285714285714,4,2,3,90,0,0
67311,-71.4285714285714,4,2,3,100,0,0
67423,-71.4285714285714,4,2,3,90,0,0
67535,-71.4285714285714,4,2,1,90,0,0
68094,-71.4285714285714,4,2,1,100,0,0
68206,-71.4285714285714,4,2,1,90,0,0
71396,-71.4285714285714,4,2,1,20,0,0
71452,-71.4285714285714,4,2,1,90,0,0
75202,-71.4285714285714,4,2,1,20,0,0
75258,-71.4285714285714,4,2,1,90,0,0
81527,-71.4285714285714,4,2,3,90,0,0
81639,-71.4285714285714,4,2,1,90,0,0
81751,-71.4285714285714,4,2,3,90,0,0
81863,-71.4285714285714,4,2,1,90,0,0
82423,-83.3333333333333,4,2,1,100,0,0
82535,-83.3333333333333,4,2,1,90,0,0
89587,-71.4285714285714,4,2,2,90,0,0
90818,-66.6666666666667,4,2,2,90,0,0
91154,-62.5,4,2,2,90,0,0
91378,-71.4285714285714,4,2,2,90,0,0
92609,-66.6666666666667,4,2,2,90,0,0
92945,-62.5,4,2,2,90,0,0
93169,-71.4285714285714,4,2,2,90,0,0
95855,-62.5,4,2,2,90,0,0
95967,-62.5,4,2,3,100,0,0
96079,-62.5,4,2,2,100,0,0
96303,-50,4,2,3,100,0,0
96415,-50,4,2,2,100,0,0
96751,-62.5,4,1,4,100,0,1
110296,-62.5,4,2,3,100,0,1
110408,-62.5,4,1,4,100,0,1
110632,-62.5,4,1,4,80,0,1
111079,-71.4285714285714,4,2,1,100,0,0
111191,-71.4285714285714,4,2,1,70,0,0
112870,-71.4285714285714,4,2,1,75,0,0
114661,-71.4285714285714,4,2,1,80,0,0
116452,-71.4285714285714,4,2,1,90,0,0
118243,-71.4285714285714,4,2,1,75,0,0
120035,-71.4285714285714,4,2,1,80,0,0
121826,-71.4285714285714,4,2,1,85,0,0
123617,-71.4285714285714,4,2,1,90,0,0
124512,-62.5,4,2,3,95,0,0
124624,-62.5,4,2,3,90,0,0
124736,-62.5,4,2,3,95,0,0
124848,-62.5,4,2,1,95,0,0
125408,-62.5,4,2,1,90,0,0
125632,-83.3333333333333,4,2,2,80,0,0
126975,-83.3333333333333,4,2,1,80,0,0
127087,-83.3333333333333,4,2,1,20,0,0
127199,-83.3333333333333,4,2,2,80,0,0
127758,-83.3333333333333,4,2,2,20,0,0
127870,-83.3333333333333,4,2,2,80,0,0
127982,-83.3333333333333,4,2,2,20,0,0
128094,-83.3333333333333,4,2,2,80,0,0
128206,-83.3333333333333,4,2,2,20,0,0
128318,-83.3333333333333,4,2,2,80,0,0
128878,-83.3333333333333,4,2,2,20,0,0
128990,-83.3333333333333,4,2,1,80,0,0
129214,-83.3333333333333,4,2,2,80,0,0
130669,-83.3333333333333,4,2,2,20,0,0
130781,-71.4285714285714,4,2,1,70,0,0
131117,-71.4285714285714,4,2,1,20,0,0
131229,-71.4285714285714,4,2,1,70,0,0
131564,-71.4285714285714,4,2,1,20,0,0
131676,-71.4285714285714,4,2,3,100,0,0
131788,-71.4285714285714,4,2,1,70,0,0
132012,-71.4285714285714,4,2,1,20,0,0
132124,-71.4285714285714,4,2,1,70,0,0
132460,-71.4285714285714,4,2,1,20,0,0
132572,-62.5,4,1,4,100,0,1
134083,-62.5,4,1,4,20,0,1
134139,-62.5,4,1,4,100,0,1
141247,-62.5,4,1,4,20,0,1
141303,-62.5,4,1,4,100,0,1
146005,-62.5,4,2,3,100,0,1
146061,-62.5,4,2,3,90,0,1
146788,-71.4285714285714,4,1,4,90,0,0
146900,-55.5555555555556,4,1,4,100,0,1
147740,-55.5555555555556,4,1,4,20,0,1
147796,-55.5555555555556,4,1,4,100,0,1
161229,-71.4285714285714,4,2,3,90,0,0
162516,-71.4285714285714,4,2,3,20,0,0
162572,-71.4285714285714,4,2,3,90,0,0
162964,-71.4285714285714,4,2,1,20,0,0
163020,-71.4285714285714,4,2,1,100,0,0
163132,-71.4285714285714,4,2,1,90,0,0
164531,-71.4285714285714,4,2,1,20,0,0
164587,-71.4285714285714,4,2,1,90,0,0
174382,-71.4285714285714,4,2,1,20,0,0
174437,-71.4285714285714,4,2,1,90,0,0
175277,-71.4285714285714,4,2,1,20,0,0
175333,-71.4285714285714,4,2,1,90,0,0
176229,-71.4285714285714,4,2,2,90,0,0
176452,-71.4285714285714,4,2,3,100,0,0
176564,-71.4285714285714,4,2,2,90,0,0

[Colours]
Combo1 : 255,255,136
Combo2 : 5,171,71
Combo3 : 251,92,47
Combo4 : 0,69,138

[HitObjects]
164,215,1826,5,8,0:0:0:0:
348,167,2049,1,8,0:0:0:0:
151,142,2273,1,8,0:0:0:0:
361,242,2497,1,8,0:0:0:0:
331,43,2721,6,0,L|326:-22,1,37.5000014305115,8|0,0:0|0:0,0:0:0:0:
183,39,2945,2,2,P|176:88|192:120,1,75,0|0,0:0|0:0,0:1:0:0:
151,142,3169,2,2,L|80:138,1,50,2|0,0:1|0:1,0:1:0:0:
38,249,3393,2,2,P|48:292|44:328,1,75,0|0,0:0|0:0,0:1:0:0:
79,339,3617,6,0,P|150:310|243:335,1,150.000005722046,4|0,1:1|0:0,0:0:0:0:
425,363,4064,2,0,L|344:360,1,69.9999978637696,8|0,0:3|0:0,0:0:0:0:
291,281,4288,2,0,P|283:245|288:199,1,69.9999978637696,2|0,1:2|0:0,0:0:0:0:
367,109,4512,1,8,0:3:0:0:
367,109,4624,2,0,P|372:161|359:192,1,69.9999978637696,2|0,1:2|0:0,0:0:0:0:
280,76,4848,1,2,0:0:0:0:
280,76,4960,2,0,B|204:71,1,69.9999978637696,8|0,1:3|0:0,0:0:0:0:
405,33,5184,2,2,B|479:39,1,69.9999978637696,2|0,1:0|0:0,0:1:0:0:
362,248,5408,6,2,P|361:183|367:103,1,139.999995727539,8|0,1:3|0:0,0:1:0:0:
440,355,5855,2,0,L|354:348,1,69.9999978637696,8|0,0:3|0:0,0:0:0:0:
255,295,6079,1,2,1:2:0:0:
178,347,6191,1,0,0:0:0:0:
129,268,6303,2,0,L|126:148,2,69.9999978637696,8|2|0,0:3|1:2|0:0,0:0:0:0:
33,273,6639,1,2,1:2:0:0:
33,273,6751,2,0,P|30:320|80:380,1,104.999996795654,8|0,0:3|0:0,0:0:0:0:
33,273,6975,2,2,P|38:241|15:179,1,69.9999978637696,2|0,1:0|0:0,0:1:0:0:
0,114,7199,6,2,P|68:136|142:108,1,139.999995727539,8|0,1:3|0:0,0:1:0:0:
239,23,7534,1,2,0:0:0:0:
239,23,7646,2,0,P|226:73|228:101,1,69.9999978637696,8|0,0:3|0:0,0:0:0:0:
303,207,7870,2,0,P|318:156|323:107,1,69.9999978637696,2|0,1:2|0:0,0:0:0:0:
414,272,8094,2,0,P|424:322|443:361,1,69.9999978637696,8|2,0:3|1:2,0:0:0:0:
470,165,8318,1,0,0:0:0:0:
470,165,8430,1,2,0:0:0:0:
303,207,8542,2,2,P|260:199|217:166,1,69.9999978637696,8|0,0:3|0:0,0:1:0:0:
120,56,8766,2,2,P|151:40|185:34,1,69.9999978637696,2|0,1:0|0:0,0:1:0:0:
305,68,8990,6,2,B|303:266,1,139.999995727539,8|0,1:3|0:0,0:1:0:0:
174,264,9326,1,2,1:2:0:0:
174,264,9437,2,0,P|107:263|71:255,1,69.9999978637696,8|0,0:3|0:0,0:0:0:0:
262,364,9661,2,0,P|287:332|341:314,1,69.9999978637696,2|0,1:2|0:0,0:0:0:0:
458,232,9885,5,10,0:1:0:0:
458,232,9997,1,2,0:0:0:0:
303,161,10109,1,10,0:1:0:0:
303,161,10221,1,0,2:1:0:0:
429,46,10333,2,8,L|443:132,1,69.9999978637696,10|0,0:1|0:0,0:0:0:0:
312,261,10557,2,0,P|298:175|320:140,1,104.999996795654,8|0,1:3|0:0,0:0:0:0:
375,204,10781,6,0,P|300:196|240:145,1,139.999995727539,4|0,1:2|0:0,0:0:0:0:
162,73,11117,1,2,0:0:0:0:
68,174,11229,2,0,P|52:214|12:237,1,69.9999978637696,8|0,0:3|0:0,0:0:0:0:
78,86,11452,2,0,L|11:63,1,69.9999978637696,2|0,1:2|0:0,0:0:0:0:
150,194,11676,2,0,P|147:243|163:291,1,69.9999978637696,8|2,0:3|1:2,0:0:0:0:
151,263,11900,1,0,0:0:0:0:
237,111,12012,2,0,P|253:190|256:274,1,139.999995727539,2|0,1:2|0:0,0:0:0:0:
389,259,12348,2,0,P|385:303|394:338,1,69.9999978637696,2|0,1:2|0:0,0:0:0:0:
451,161,12572,6,0,P|465:83|439:14,1,139.999995727539,8|2,1:3|0:0,0:0:0:0:
274,205,12908,1,0,0:0:0:0:
274,205,13020,2,0,L|289:316,1,69.9999978637696,8|0,0:3|0:0,0:0:0:0:
367,64,13243,2,0,P|361:98|369:134,1,69.9999978637696,2|0,1:2|0:0,0:0:0:0:
145,90,13467,2,0,P|160:135|159:180,1,69.9999978637696,8|0,0:3|1:0,0:0:0:0:
199,268,13691,1,0,0:0:0:0:
237,128,13803,2,0,P|290:32|358:50,1,139.999995727539,2|0,1:2|0:0,0:0:0:0:
512,113,14139,2,0,L|413:105,1,69.9999978637696,2|0,1:2|0:0,0:0:0:0:
274,205,14363,6,0,P|367:218|446:210,1,139.999995727539,8|2,1:3|0:0,0:0:0:0:
336,320,14699,1,0,0:0:0:0:
336,320,14811,2,0,P|292:325|242:358,1,69.9999978637696,8|0,0:3|0:0,0:0:0:0:
108,256,15035,2,0,P|150:231|206:229,1,69.9999978637696,2|0,1:2|0:0,0:0:0:0:
147,383,15258,2,0,L|65:363,1,69.9999978637696,8|0,1:3|0:0,0:0:0:0:
28,242,15482,1,2,0:0:0:0:
28,242,15594,2,0,P|16:158|34:89,1,139.999995727539,0|2,1:0|0:0,0:0:0:0:
175,80,15930,1,2,1:2:0:0:
110,158,16042,1,0,0:0:0:0:
90,12,16154,5,8,1:3:0:0:
90,12,16378,2,0,P|132:14|170:4,1,69.9999978637696,2|0,1:2|1:0,0:0:0:0:
358,92,16602,2,0,P|314:92|264:107,1,69.9999978637696,8|0,0:3|0:0,0:0:0:0:
110,158,16826,2,0,P|111:202|127:258,1,69.9999978637696,2|0,1:2|0:0,0:0:0:0:
271,356,17049,6,0,P|279:323|284:266,1,69.9999978637696,10|0,1:3|0:0,0:0:0:0:
282,108,17273,1,0,0:0:0:0:
238,213,17385,1,10,1:3:0:0:
349,255,17497,2,0,P|400:272|471:246,1,104.999996795654,0|0,1:0|0:0,0:0:0:0:
453,256,17721,2,0,P|464:205|447:156,1,104.999996795654,10|0,1:3|0:0,0:0:0:0:
443,150,17945,6,0,P|408:149|373:146,1,69.9999978637696,8|0,1:3|0:0,0:0:0:0:
224,32,18169,2,0,P|259:33|297:39,1,69.9999978637696,0|2,0:0|0:0,0:0:0:0:
238,213,18393,2,0,P|204:200|178:153,1,69.9999978637696,8|0,0:3|0:0,0:0:0:0:
302,132,18617,1,2,1:2:0:0:
302,132,18729,1,0,0:0:0:0:
382,246,18840,2,0,L|401:178,1,69.9999978637696,8|2,0:3|1:2,0:0:0:0:
397,69,19064,1,0,0:0:0:0:
397,69,19176,2,0,P|314:41|213:69,1,139.999995727539,2|0,1:2|0:0,0:0:0:0:
116,111,19512,2,0,L|221:127,1,69.9999978637696,2|0,1:2|0:0,0:0:0:0:
306,232,19736,6,0,P|226:265|128:227,1,139.999995727539,8|0,1:3|0:0,0:0:0:0:
13,121,20072,2,0,P|14:164|28:197,1,69.9999978637696,2|8,0:0|0:3,0:0:0:0:
97,257,20296,1,0,0:0:0:0:
161,180,20408,2,0,P|201:163|250:168,1,69.9999978637696,2|0,1:2|0:0,0:0:0:0:
306,87,20632,2,0,P|301:53|311:18,2,69.9999978637696,8|0|0,0:3|1:1|0:0,0:0:0:0:
460,104,20967,2,0,P|470:181|440:242,1,139.999995727539,2|0,1:2|0:0,0:0:0:0:
342,361,21303,2,0,L|264:346,1,69.9999978637696,2|0,1:2|0:0,0:0:0:0:
77,267,21527,6,0,P|145:240|244:277,1,139.999995727539,8|0,1:3|0:0,0:0:0:0:
247,350,21863,1,2,0:0:0:0:
149,330,21975,2,0,L|62:364,2,69.9999978637696,8|0|2,0:3|0:0|1:2,0:0:0:0:
237,260,22311,1,0,0:0:0:0:
237,260,22423,2,0,L|227:157,1,69.9999978637696,8|2,0:3|1:2,0:0:0:0:
371,117,22646,2,0,P|378:76|405:20,1,69.9999978637696,0|2,0:0|1:2,0:0:0:0:
133,78,22870,2,0,P|122:38|99:3,1,69.9999978637696,8|0,0:3|0:0,0:0:0:0:
255,114,23094,2,0,L|263:217,1,69.9999978637696,2|0,1:2|0:0,0:0:0:0:
262,341,23318,6,0,P|179:354|117:318,1,139.999995727539,8|0,1:3|0:0,0:0:0:0:
47,278,23654,1,2,0:0:0:0:
90,193,23766,6,0,P|139:205|185:182,1,104.999996795654,2|0,1:2|0:0,0:0:0:0:
174,69,23990,2,0,P|124:56|78:79,1,104.999996795654,2|0,1:2|0:0,0:0:0:0:
132,133,24214,1,8,0:3:0:0:
331,265,24437,6,0,P|366:254|398:192,1,104.999996795654,8|0,0:3|0:0,0:0:0:0:
252,124,24661,2,0,P|277:169|323:191,1,104.999996795654,4|0,0:3|0:0,0:0:0:0:
329,112,24885,2,0,P|335:72|322:19,1,69.9999978637696,4|0,1:3|0:0,0:0:0:0:
174,149,25109,6,0,P|169:190|183:243,2,69.9999978637696,4|0|0,1:0|0:0|0:0,0:0:0:0:
62,212,25445,2,0,P|26:185|-24:178,1,69.9999978637696,0|10,1:0|0:3,0:0:0:0:
96,311,25669,1,0,0:0:0:0:
96,311,25725,1,0,0:0:0:0:
96,311,25781,2,0,L|197:303,1,69.9999978637696,0|0,1:0|0:0,0:0:0:0:
348,352,26005,6,0,P|311:375|258:386,1,69.9999978637696,10|0,0:3|0:0,0:0:0:0:
263,275,26229,2,0,P|286:244|293:213,1,69.9999978637696,0|0,0:0|1:0,0:0:0:0:
159,273,26452,2,0,P|146:214|167:123,1,139.999995727539,8|0,0:3|1:0,0:0:0:0:
160,136,26788,1,0,0:0:0:0:
35,106,26900,5,8,1:3:0:0:
35,106,27012,2,0,P|45:76|44:36,2,69.9999978637696,0|2|0,0:0|0:3|1:0,0:0:0:0:
154,66,27348,2,0,P|217:104|300:104,1,139.999995727539,10|0,0:3|1:0,0:0:0:0:
281,108,27684,5,0,0:0:0:0:
363,198,27796,2,0,P|332:266|335:296,1,69.9999978637696,10|0,0:3|0:0,0:0:0:0:
455,372,28020,2,0,P|465:342|465:281,1,69.9999978637696,0|0,0:0|1:0,0:0:0:0:
323,347,28243,2,0,P|249:328|129:332,1,139.999995727539,8|0,0:3|1:0,0:0:0:0:
185,324,28579,1,0,0:0:0:0:
42,358,28691,6,0,L|33:236,1,69.9999978637696,8|0,1:3|0:0,0:0:0:0:
124,163,28915,2,0,L|118:258,1,69.9999978637696,0|0,0:0|1:0,0:0:0:0:
205,315,29139,1,10,0:3:0:0:
288,362,29251,1,0,0:0:0:0:
348,270,29363,2,0,L|279:256,1,69.9999978637696,0|0,1:0|0:0,0:0:0:0:
195,145,29587,5,10,1:3:0:0:
275,168,29699,1,0,0:0:0:0:
340,116,29811,2,0,P|389:179|395:225,1,104.999996795654
330,228,30035,2,0,L|409:197,1,69.9999978637696,8|0,0:3|0:0,0:0:0:0:
511,314,30258,2,0,L|439:295,1,69.9999978637696,0|0,1:0|0:0,0:0:0:0:
400,364,30482,6,0,L|437:165,1,139.999995727539,8|2,1:3|0:3,0:0:0:0:
317,237,30818,1,0,1:3:0:0:
317,237,30930,2,0,L|228:225,1,69.9999978637696,10|0,0:3|0:0,0:0:0:0:
172,119,31154,2,0,L|273:133,1,69.9999978637696,0|0,1:0|0:0,0:0:0:0:
344,151,31378,5,10,1:3:0:0:
397,77,31490,1,0,0:0:0:0:
306,71,31602,1,0,0:0:0:0:
345,166,31714,1,2,1:3:0:0:
418,65,31826,2,0,B|447:27|447:27|386:12|296:34,1,170.000003242493,8|2,0:3|1:3,0:0:0:0:
77,167,32273,6,0,P|59:101|99:47,1,139.999995727539,4|0,1:1|0:0,0:0:0:0:
216,200,32609,1,0,1:0:0:0:
216,200,32721,2,0,L|148:215,1,69.9999978637696,10|0,0:3|0:0,0:0:0:0:
155,114,32945,2,0,L|224:100,1,69.9999978637696,0|0,1:0|0:0,0:0:0:0:
321,164,33169,5,10,0:3:0:0:
394,188,33281,1,0,0:0:0:0:
462,152,33393,1,0,0:0:0:0:
393,116,33505,1,0,1:0:0:0:
314,182,33617,5,8,0:3:0:0:
385,211,33729,1,0,0:0:0:0:
449,168,33841,1,0,1:0:0:0:
378,137,33953,1,0,0:0:0:0:
306,204,34064,6,0,L|315:301,1,69.9999978637696,8|0,1:3|0:0,0:0:0:0:
219,272,34288,2,0,L|230:379,1,69.9999978637696,2|0,0:3|1:0,0:0:0:0:
110,284,34512,2,0,L|103:214,1,69.9999978637696,8|0,0:3|0:0,0:0:0:0:
11,245,34736,2,0,L|4:175,1,69.9999978637696,2|0,1:3|0:0,0:0:0:0:
132,69,34960,6,0,L|114:175,1,69.9999978637696,10|0,0:3|1:0,0:0:0:0:
38,87,35184,1,0,0:0:0:0:
192,209,35296,2,0,B|232:214|232:214|320:198,1,104.999996795654,2|0,1:3|0:0,0:0:0:0:
298,132,35520,2,0,L|294:201,1,69.9999978637696,0|2,0:0|1:3,0:0:0:0:
411,138,35743,5,0,0:0:0:0:
411,138,35855,2,0,P|451:166|475:206,1,69.9999978637696,8|0,1:3|0:0,0:0:0:0:
332,272,36079,2,0,P|352:304|356:356,1,69.9999978637696,0|0,0:0|1:0,0:0:0:0:
101,138,36303,2,0,P|61:166|37:206,1,69.9999978637696,10|0,0:3|0:0,0:0:0:0:
180,272,36527,2,0,P|160:304|156:356,1,69.9999978637696,0|0,1:0|0:0,0:0:0:0:
256,328,36751,5,10,0:3:0:0:
295,253,36863,1,0,0:0:0:0:
230,192,36975,1,0,0:0:0:0:
298,126,37087,1,0,1:0:0:0:
216,76,37199,2,0,P|160:48|128:48,1,69.9999978637696,8|0,0:3|0:0,0:0:0:0:
40,144,37423,2,0,B|28:212|44:256|44:256|68:224,1,139.999995727539,0|8,1:0|1:3,0:0:0:0:
185,141,37758,5,0,0:3:0:0:
185,141,37870,2,0,P|143:131|74:178,1,69.9999978637696,2|0,0:3|1:0,0:0:0:0:
295,253,38094,2,0,P|324:221|318:138,1,69.9999978637696,8|2,0:3|0:3,0:0:0:0:
144,293,38318,2,0,P|156:334|231:370,1,69.9999978637696,0|0,1:0|0:0,0:0:0:0:
370,345,38542,5,10,0:3:0:0:
426,264,38654,1,0,1:0:0:0:
380,177,38766,1,0,0:0:0:0:
281,172,38878,1,2,1:3:0:0:
187,221,38990,5,8,0:3:0:0:
98,178,39102,1,0,0:0:0:0:
91,80,39214,1,0,1:0:0:0:
174,29,39326,1,0,0:0:0:0:
259,74,39437,5,4,0:2:0:0:
191,344,39661,5,0,0:0:0:0:
184,316,39885,5,8,0:3:0:0:
177,288,40109,5,0,0:0:0:0:
171,260,40333,6,0,L|177:189,1,59.9999981689454,8|0,0:3|0:0,0:0:0:0:
199,129,40557,2,0,B|262:142|337:112,1,119.999996337891,0|8,0:0|0:3,0:0:0:0:
318,119,41005,2,2,P|309:159|312:192,1,59.9999981689454,2|0,0:0|0:0,0:1:0:0:
379,327,41229,6,2,P|400:270|386:190,1,119.999996337891,2|0,0:2|0:0,0:1:0:0:
297,244,41564,1,0,0:0:0:0:
297,244,41676,2,0,P|233:231|208:212,1,59.9999981689454,8|0,0:3|0:0,0:0:0:0:
114,153,41900,2,0,P|162:145|190:125,1,59.9999981689454
231,42,42124,2,0,P|259:61|303:55,2,59.9999981689454,8|0|0,0:3|0:0|0:0,0:0:0:0:
287,158,42460,1,2,0:1:0:0:
287,158,42572,2,0,P|355:161|375:147,1,59.9999981689454,8|0,0:3|0:0,0:0:0:0:
395,254,42796,2,0,P|435:245|463:212,1,59.9999981689454,2|0,0:1|0:3,0:0:0:0:
442,83,43020,5,2,0:0:0:0:
212,155,43243,5,0,0:0:0:0:
208,175,43467,5,8,0:3:0:0:
204,195,43691,5,0,0:0:0:0:
199,222,43915,6,0,P|165:213|123:220,1,59.9999981689454,8|0,0:3|0:0,0:0:0:0:
207,372,44139,2,0,P|268:374|346:329,1,119.999996337891,0|8,0:0|0:3,0:0:0:0:
321,351,44587,2,2,L|309:292,1,59.9999981689454,0|0,0:0|0:0,0:1:0:0:
215,150,44811,6,2,B|173:132|173:132|138:150|138:150|99:116|99:116|58:144|58:200,1,209.999993591309,0|0,0:0|0:0,0:1:0:0:
297,234,45258,2,2,B|339:252|339:252|374:234|374:234|413:268|413:268|454:240|454:184,1,209.999993591309,0|0,0:0|0:0,0:1:0:0:
295,155,45706,2,2,B|313:113|313:113|295:78|295:78|329:39|329:39|301:-2|245:-2,1,209.999993591309,2|0,0:0|0:0,0:1:0:0:
217,229,46154,2,2,B|199:271|199:271|217:306|217:306|183:345|183:345|211:386|267:386,1,209.999993591309,0|0,0:1|0:0,0:1:0:0:
428,322,46602,6,0,P|444:260|436:141,1,160,6|0,0:0|2:0,0:0:0:0:
366,65,46937,1,2,0:0:0:0:
302,174,47049,2,0,P|314:220|308:280,1,80,8|0,0:0|2:0,0:0:0:0:
177,153,47273,2,0,P|181:114|205:80,1,80,2|0,0:0|2:0,0:0:0:0:
62,76,47497,6,0,P|59:39|35:0,1,80,2|0,0:0|2:0,0:0:0:0:
12,202,47721,1,0,0:0:0:0:
107,144,47833,1,0,0:0:0:0:
198,222,47945,2,0,P|234:234|326:210,1,80,8|0,0:0|2:0,0:0:0:0:
102,307,48169,2,0,P|59:300|-26:319,1,80,2|0,0:0|2:0,0:0:0:0:
242,370,48393,6,0,P|355:363|426:310,1,160,2|0,0:0|2:0,0:0:0:0:
392,207,48729,2,0,P|380:170|384:127,1,80,2|8,0:0|2:1,0:0:0:0:
484,248,48952,1,0,0:0:0:0:
332,288,49064,2,0,P|281:287|206:263,1,80,2|0,0:0|2:0,0:0:0:0:
54,208,49288,6,0,P|213:195|231:170,1,160,2|0,0:0|2:0,0:0:0:0:
224,87,49624,1,0,0:0:0:0:
113,19,49736,2,0,P|117:65|131:117,1,80,10|0,0:0|2:0,0:0:0:0:
284,142,49960,2,0,P|301:106|332:78,1,80,10|0,0:0|2:0,0:0:0:0:
486,149,50184,6,0,L|470:374,1,160,2|0,0:0|2:0,0:0:0:0:
364,371,50520,1,2,0:0:0:0:
297,259,50632,2,0,P|258:253|192:277,1,80,8|0,0:0|2:0,0:0:0:0:
16,190,50855,2,0,P|77:171|105:146,1,80,2|0,0:0|2:0,0:0:0:0:
205,24,51079,6,0,L|198:138,1,80,2|0,0:0|2:0,0:0:0:0:
62,275,51303,1,0,2:0:0:0:
62,275,51415,2,0,P|153:248|240:306,1,160,0|0,0:0|2:0,0:0:0:0:
344,368,51751,2,0,L|244:373,1,80,2|0,0:0|2:0,0:0:0:0:
97,201,51975,6,0,L|90:101,1,80,2|0,0:0|2:0,0:0:0:0:
311,40,52199,2,0,L|316:119,1,80,0|2,0:0|2:1,0:0:0:0:
195,329,52423,2,0,L|192:223,1,80,8|0,0:0|2:0,0:0:0:0:
436,147,52646,2,0,L|444:259,1,80,2|0,0:0|2:0,0:0:0:0:
344,368,52870,6,0,P|289:357|248:339,1,80,2|0,0:0|2:2,0:0:0:0:
66,279,53094,2,0,P|105:263|142:239,1,80,2|0,0:0|2:1,0:0:0:0:
254,123,53318,1,10,0:0:0:0:
367,202,53430,1,0,0:0:0:0:
257,281,53542,1,8,0:0:0:0:
145,202,53654,1,0,0:0:0:0:
254,123,53766,6,0,P|264:219|248:321,1,160,2|0,0:0|2:0,0:0:0:0:
150,346,54102,1,2,0:0:0:0:
145,202,54214,2,0,P|102:181|34:171,1,80,8|0,0:0|2:0,0:0:0:0:
72,356,54437,2,0,P|112:357|168:337,1,80,2|0,0:0|2:0,0:0:0:0:
337,288,54661,2,0,L|250:281,1,80,2|0,0:0|2:0,0:0:0:0:
176,115,54885,1,0,0:0:0:0:
176,115,54997,2,0,P|226:49|311:68,1,160,0|0,0:0|2:0,0:0:0:0:
353,122,55333,2,0,L|340:240,1,80,2|0,0:0|2:0,0:0:0:0:
262,299,55557,6,0,P|158:273|90:322,1,160,2|0,0:0|2:0,0:0:0:0:
17,325,55893,1,2,0:0:0:0:
50,205,56005,2,0,P|79:153|82:96,1,80,8|0,0:0|2:0,0:0:0:0:
128,5,56229,2,0,P|146:39|204:84,1,80,2|0,0:0|2:0,0:0:0:0:
352,122,56452,2,0,P|273:116|177:164,1,160,2|0,0:0|2:0,0:0:0:0:
240,243,56788,1,0,0:0:0:0:
437,241,56900,2,0,P|442:202|438:156,1,80,10|0,0:0|2:0,0:0:0:0:
273,27,57124,2,0,P|264:66|272:112,1,80,10|0,0:0|2:0,0:0:0:0:
348,281,57348,6,0,P|357:194|347:101,1,160,2|0,0:0|2:0,0:0:0:0:
230,160,57684,1,2,0:0:0:0:
190,325,57796,2,0,P|138:333|85:318,1,80,8|0,0:0|2:0,0:0:0:0:
11,214,58020,2,0,L|116:207,1,80,2|0,0:0|2:0,0:0:0:0:
230,160,58243,2,0,P|239:224|217:281,1,80,2|0,0:0|2:0,0:0:0:0:
90,133,58467,1,0,2:0:0:0:
90,133,58579,2,0,P|73:48|150:23,1,160,0|0,0:0|2:0,0:0:0:0:
273,80,58915,2,0,P|226:88|193:82,1,80,2|0,0:0|2:0,0:0:0:0:
368,28,59139,6,0,P|421:32|466:13,1,80,2|0,0:0|2:0,0:0:0:0:
347,170,59363,2,0,P|387:154|426:111,1,80,0|2,0:0|2:1,0:0:0:0:
227,10,59587,2,0,P|184:11|131:34,1,80,8|0,0:0|2:0,0:0:0:0:
112,269,59811,2,0,L|240:241,1,80,2|0,0:0|2:0,0:0:0:0:
302,97,60035,6,0,P|211:103|146:162,1,160,2|0,0:0|2:0,0:0:0:0:
158,144,60370,1,0,1:0:0:0:
285,215,60482,2,0,P|298:262|281:308,1,80,10|0,0:0|2:0,0:0:0:0:
99,196,60706,2,0,P|80:142|90:100,1,80,8|0,1:0|2:0,0:0:0:0:
287,70,60930,6,2,B|315:111|290:157|290:157|295:189|295:189|265:243|304:287,1,209.999993591309,4|0,0:0|1:0,0:1:0:0:
219,114,61378,2,2,P|181:125|142:168,1,69.9999978637696,8|0,0:3|0:0,0:1:0:0:
369,237,61602,2,2,P|405:227|430:192,1,69.9999978637696,0|0,1:0|0:0,0:1:0:0:
223,199,61826,2,2,B|228:235|209:264|209:264|241:294|225:349,1,139.999995727539,8|0,0:3|0:0,0:1:0:0:
361,160,62161,2,2,B|356:124|375:95|375:95|343:65|359:10,1,139.999995727539,0|0,1:0|0:0,0:1:0:0:
166,24,62497,2,2,B|163:52|177:61|177:61|157:73|149:102,1,69.9999978637696,0|0,1:0|0:0,0:1:0:0:
57,205,62721,6,0,B|55:182|23:162|23:162|60:176|105:164,1,139.999995727539,8|0,0:3|0:0,0:0:0:0:
223,199,63057,2,0,B|268:187|305:201|305:201|273:181|271:158,1,139.999995727539,0|0,1:0|0:0,0:0:0:0:
324,61,63393,2,0,L|414:39,1,69.9999978637696,0|0,1:0|0:0,0:0:0:0:
394,261,63617,6,0,B|371:286|371:286|346:248,1,69.9999978637696,8|0,0:3|0:0,0:0:0:0:
462,115,63840,2,0,B|485:90|485:90|510:128,1,69.9999978637696,0|0,1:0|1:0,0:0:0:0:
351,255,64064,6,0,B|328:280|328:280|303:242,1,69.9999978637696,8|0,0:3|0:0,0:0:0:0:
420,110,64288,2,0,B|443:85|443:85|468:123,1,69.9999978637696,0|0,1:0|0:0,0:0:0:0:
311,165,64512,6,2,B|271:153|271:153|243:155|243:155|214:144|214:144|171:160|128:146|128:146|141:174,1,209.999993591309,8|0,0:3|1:0,0:1:0:0:
163,71,64960,2,2,P|175:38|155:-12,1,69.9999978637696,8|0,0:3|0:0,0:1:0:0:
54,157,65184,2,2,P|39:127|53:74,1,69.9999978637696,0|0,1:0|0:0,0:1:0:0:
195,227,65408,2,2,B|161:227|149:242|149:242|121:235|121:235|94:252|36:246,1,139.999995727539,8|0,0:3|0:1,0:1:0:0:
199,328,65743,2,2,B|228:328|245:343|245:343|273:336|273:336|299:353|358:347,1,139.999995727539,0|0,1:0|0:0,0:1:0:0:
320,258,66079,2,2,L|330:172,1,69.9999978637696,0|0,1:0|0:0,0:1:0:0:
420,58,66303,6,0,B|439:54|440:18|440:18|449:58|429:85|450:107,1,139.999995727539,8|0,0:3|0:0,0:0:0:0:
252,158,66639,2,0,B|231:162|230:198|230:198|221:158|241:131|203:81,1,139.999995727539,0|0,1:0|0:0,0:0:0:0:
410,207,66975,2,0,L|396:282,1,69.9999978637696,0|0,1:0|1:0,0:0:0:0:
249,331,67199,6,0,B|212:332|212:332|188:300,1,69.9999978637696,8|2,0:3|0:0,0:0:0:0:
53,93,67423,2,0,B|90:92|90:92|114:124,1,69.9999978637696,8|0,1:3|0:0,0:0:0:0:
46,317,67646,2,0,B|45:280|45:280|77:256,1,69.9999978637696,4|0,0:3|0:0,0:0:0:0:
254,119,67870,2,0,B|255:156|255:156|223:180,1,69.9999978637696,4|0,1:3|0:0,0:0:0:0:
97,221,68094,6,0,L|9:225,2,69.9999978637696,4|0|0,1:2|0:0|0:0,0:0:0:0:
124,240,68374,1,0,0:0:0:0:
124,240,68430,2,0,P|132:281|127:325,1,69.9999978637696,2|8,1:2|0:3,0:0:0:0:
259,346,68654,2,0,P|295:343|331:329,2,69.9999978637696,0|2|2,0:0|1:2|0:0,0:0:0:0:
200,235,68990,6,0,L|290:262,1,69.9999978637696,8|0,0:3|0:0,0:0:0:0:
426,183,69214,2,0,L|326:219,1,69.9999978637696,0|2,0:0|1:2,0:0:0:0:
288,128,69437,2,0,P|284:99|300:45,1,69.9999978637696,8|0,0:3|0:0,0:0:0:0:
427,21,69661,2,0,L|436:113,1,69.9999978637696,2|0,1:2|0:0,0:0:0:0:
434,90,69829,1,0,0:0:0:0:
434,90,69885,6,0,L|363:102,1,69.9999978637696,8|0,1:3|0:0,0:0:0:0:
236,171,70109,1,0,0:0:0:0:
236,171,70221,2,0,P|279:185|321:187,1,69.9999978637696,2|8,1:2|0:3,0:0:0:0:
456,244,70445,1,0,0:0:0:0:
456,244,70557,2,0,P|410:242|376:253,1,69.9999978637696,2|2,1:2|0:2,0:0:0:0:
313,331,70781,5,8,0:3:0:0:
237,358,70893,1,2,1:2:0:0:
189,294,71005,2,0,P|152:284|116:289,1,69.9999978637696,0|2,0:0|1:2,0:0:0:0:
61,207,71229,2,0,P|41:127|53:91,1,104.999996795654,8|0,0:3|0:0,0:0:0:0:
45,107,71452,2,0,P|97:87|137:103,1,69.9999978637696,2|0,1:2|0:0,0:0:0:0:
279,174,71676,6,0,P|215:196|151:149,1,139.999995727539,8|0,1:3|0:0,0:0:0:0:
228,51,72012,1,2,1:2:0:0:
228,51,72124,2,0,P|230:99|213:142,1,69.9999978637696,8|0,0:3|0:0,0:0:0:0:
329,236,72348,1,2,1:2:0:0:
329,236,72460,2,0,P|313:205|326:149,1,69.9999978637696,0|8,0:0|0:3,0:0:0:0:
442,260,72684,2,0,P|444:298|414:348,2,69.9999978637696,0|0|2,0:0|0:0|1:2,0:0:0:0:
343,372,73020,6,0,P|301:375|262:349,1,69.9999978637696,8|0,0:3|0:0,0:0:0:0:
132,244,73243,2,0,P|171:236|234:268,1,69.9999978637696,2|0,1:2|0:0,0:0:0:0:
78,326,73467,2,0,P|97:256|85:170,1,139.999995727539,8|0,1:3|0:0,0:0:0:0:
29,19,73803,1,2,1:2:0:0:
29,19,73915,2,0,P|12:65|28:109,1,69.9999978637696,8|0,0:3|0:0,0:0:0:0:
87,162,74139,2,0,P|122:168|178:149,1,69.9999978637696,2|0,1:2|0:0,0:0:0:0:
231,72,74363,5,8,0:3:0:0:
291,13,74475,1,2,1:2:0:0:
321,91,74587,1,0,0:0:0:0:
384,36,74699,1,2,1:2:0:0:
418,112,74811,2,0,P|438:116|501:107,1,69.9999978637696,8|0,0:3|0:0,0:0:0:0:
420,220,75035,2,0,P|344:209|310:238,1,104.999996795654,2|0,1:2|0:0,0:0:0:0:
289,249,75258,6,0,L|302:336,1,69.9999978637696,8|0,1:3|0:0,0:0:0:0:
179,331,75482,2,0,L|167:253,1,69.9999978637696,0|2,0:0|1:2,0:0:0:0:
53,255,75706,2,0,P|159:274|170:261,1,139.999995727539,8|2,0:3|1:2,0:0:0:0:
157,144,76042,1,2,0:0:0:0:
157,144,76098,1,0,0:0:0:0:
157,144,76154,2,0,L|76:132,1,69.9999978637696,8|0,0:3|0:0,0:0:0:0:
194,34,76378,2,0,L|114:22,1,69.9999978637696,0|2,0:0|1:2,0:0:0:0:
278,108,76602,6,0,L|370:89,1,69.9999978637696,8|0,0:3|0:0,0:0:0:0:
299,215,76826,2,0,L|391:196,1,69.9999978637696,2|0,1:2|0:0,0:0:0:0:
451,49,77049,2,0,B|464:9|464:9|492:65|470:149,1,139.999995727539,8|2,1:3|0:0,0:0:0:0:
394,256,77385,2,0,B|381:296|381:296|353:240|375:156,1,139.999995727539,2|0,1:2|0:0,0:0:0:0:
482,259,77721,2,0,L|465:337,1,69.9999978637696,2|0,1:2|0:0,0:0:0:0:
330,365,77945,5,8,0:3:0:0:
281,369,78057,1,2,0:0:0:0:
215,306,78169,5,0,0:0:0:0:
165,307,78281,1,2,1:2:0:0:
83,257,78393,6,0,P|35:268|11:296,1,69.9999978637696,8|0,0:3|0:0,0:0:0:0:
20,281,78617,2,0,P|56:194|23:122,1,139.999995727539,2|8,1:2|1:3,0:0:0:0:
199,276,79064,6,0,P|220:238|274:224,1,69.9999978637696,0|2,1:0|1:2,0:0:0:0:
328,216,79288,2,0,P|245:190|211:103,1,139.999995727539,8|2,0:3|1:2,0:0:0:0:
269,66,79624,1,0,0:0:0:0:
153,27,79736,2,0,P|120:16|80:20,2,69.9999978637696,8|2|0,0:3|0:0|0:0,0:0:0:0:
269,66,80072,2,0,P|305:72|342:59,2,69.9999978637696,2|8|0,1:2|0:3|0:0,0:0:0:0:
173,152,80408,2,0,B|162:189|162:189|171:225,1,69.9999978637696,2|0,1:2|0:0,0:0:0:0:
99,350,80632,6,0,P|172:309|246:339,1,139.999995727539,8|2,1:3|1:2,0:0:0:0:
308,358,80967,1,0,1:0:0:0:
308,358,81079,2,0,P|298:318|316:267,1,69.9999978637696,8|0,0:3|0:0,0:0:0:0:
396,124,81303,2,0,P|404:176|388:215,1,69.9999978637696,2|0,1:2|0:0,0:0:0:0:
256,228,81527,5,8,0:3:0:0:
207,177,81639,1,0,0:0:0:0:
256,127,81751,1,10,0:3:0:0:
304,177,81863,1,0,0:0:0:0:
223,209,81975,5,4,0:3:0:0:
220,139,82087,1,0,0:0:0:0:
290,140,82199,1,4,0:3:0:0:
293,209,82311,1,0,0:0:0:0:
181,117,82423,6,0,P|96:115|38:198,1,179.999994506836,4|0,1:1|1:0,0:0:0:0:
128,233,82870,2,0,P|160:226|203:232,1,59.9999981689454,10|0,0:3|0:0,0:0:0:0:
389,308,83094,2,0,P|356:314|329:311,1,59.9999981689454,0|0,1:0|0:0,0:0:0:0:
255,178,83318,2,2,B|277:221|260:264|260:264|237:310|258:353,1,179.999994506836,10|2,0:3|1:2,0:0:0:0:
345,239,83766,2,0,P|374:219|415:219,1,59.9999981689454,8|0,0:3|0:0,0:0:0:0:
511,250,83990,2,0,P|487:216|487:164,1,59.9999981689454,2|0,1:2|0:0,0:0:0:0:
499,82,84214,6,0,P|428:123|393:119,1,119.999996337891,8|2,1:3|0:3,0:0:0:0:
274,66,84549,1,2,1:2:0:0:
274,66,84661,2,0,B|268:37|268:37|274:-5,1,59.9999981689454,8|2,0:3|0:3,0:0:0:0:
189,142,84885,2,0,B|196:180|196:180|186:226,1,59.9999981689454,2|0,1:2|0:0,0:0:0:0:
84,97,85109,1,10,0:3:0:0:
84,97,85221,2,0,L|4:88,1,59.9999981689454
50,246,85445,1,2,1:2:0:0:
50,246,85557,2,0,P|72:210|79:170,1,59.9999981689454,10|0,0:3|0:0,0:0:0:0:
180,300,85781,2,2,P|166:265|167:222,1,59.9999981689454,2|2,1:2|0:2,1:2:0:0:
189,142,86005,6,0,B|205:106|238:103|238:103|267:127|306:130,1,119.999996337891,8|0,1:3|0:0,0:0:0:0:
354,62,86340,2,0,P|380:22|401:7,1,59.9999981689454,2|10,1:2|0:3,0:0:0:0:
382,165,86564,1,0,0:0:0:0:
382,165,86676,2,0,P|373:209|346:235,1,59.9999981689454,2|0,1:2|0:0,0:0:0:0:
490,195,86900,2,2,P|512:271|466:358,1,179.999994506836,10|0,0:3|1:0,0:0:0:0:
353,371,87348,2,0,L|246:344,1,59.9999981689454,8|0,0:3|0:0,0:0:0:0:
122,300,87572,2,0,L|221:269,1,59.9999981689454,2|0,1:2|0:0,0:0:0:0:
277,197,87796,6,0,B|277:176|302:154|302:154|314:119|287:90,1,119.999996337891,8|2,1:3|0:3,0:0:0:0:
187,19,88132,1,0,1:0:0:0:
187,19,88243,2,0,P|132:58|99:59,1,59.9999981689454,8|2,1:3|0:3,0:0:0:0:
22,55,88467,2,0,P|6:89|10:136,1,59.9999981689454,0|0,1:3|0:3,0:0:0:0:
24,240,88691,5,10,0:3:0:0:
76,305,88803,1,2,1:2:0:0:
159,309,88915,1,2,0:0:0:0:
221,252,89027,1,2,1:2:0:0:
208,168,89139,5,10,0:3:0:0:
259,101,89251,1,2,0:0:0:0:
343,98,89363,1,2,1:2:0:0:
413,143,89475,1,2,0:0:0:0:
445,233,89587,6,0,P|418:314|365:248,1,209.999993591309,8|0,1:2|0:0,0:0:0:0:
328,172,90035,2,0,P|288:171|255:201,1,69.9999978637696,14|0,0:0|0:0,0:0:0:0:
446,149,90258,2,0,P|474:132|533:135,1,69.9999978637696,8|0,1:2|0:0,0:0:0:0:
324,84,90482,6,0,P|356:36|389:124,1,139.999995727539,14|0,0:0|0:0,0:0:0:0:
308,75,90818,6,0,P|349:28|426:118,1,150.000005722046,10|0,1:2|0:0,0:0:0:0:
293,71,91154,6,0,P|334:24|391:36,1,80,8|0,1:2|0:0,0:0:0:0:
387,169,91378,6,0,P|390:210|377:254,1,69.9999978637696,0|0,1:0|0:0,0:0:0:0:
297,315,91602,2,0,P|250:315|214:300,1,69.9999978637696,14|0,0:0|1:2,0:0:0:0:
152,209,91826,2,0,P|177:195|137:195,1,69.9999978637696,8|0,0:0|0:0,0:0:0:0:
48,158,92049,2,0,P|22:171|62:171,1,69.9999978637696,14|0,1:2|0:0,0:0:0:0:
164,96,92273,6,0,P|136:46|95:131,1,139.999995727539,14|0,0:0|0:0,0:0:0:0:
180,89,92609,6,0,P|143:39|58:122,1,150.000005722046,8|0,1:2|0:0,0:0:0:0:
195,86,92945,6,0,P|158:36|100:43,1,80,10|0,1:2|0:0,0:0:0:0:
74,181,93169,6,0,P|172:199|221:175,1,139.999995727539,10|0,1:2|0:0,0:0:0:0:
303,78,93617,2,0,P|295:111|329:106,1,69.9999978637696,14|0,0:0|0:0,0:0:0:0:
446,76,93840,2,0,P|456:43|425:47,1,69.9999978637696,8|0,1:2|0:0,0:0:0:0:
352,199,94064,6,0,P|432:203|480:148,1,139.999995727539,14|0,0:0|0:0,0:0:0:0:
472,164,94400,6,0,P|383:165|347:218,1,139.999995727539,8|0,1:2|0:0,0:0:0:0:
353,199,94736,6,0,P|393:211|438:197,1,69.9999978637696,8|0,1:2|0:0,0:0:0:0:
275,132,94960,6,0,P|238:112|183:113,1,69.9999978637696,0|0,1:0|0:0,0:0:0:0:
120,194,95184,2,0,L|123:116,1,69.9999978637696,14|0,0:0|1:0,0:0:0:0:
73,37,95408,2,0,P|45:65|26:124,1,69.9999978637696,8|0,0:0|0:0,0:0:0:0:
211,109,95632,2,0,L|305:100,1,69.9999978637696,14|0,1:2|0:0,0:0:0:0:
476,215,95855,6,0,L|368:192,1,80,8|2,0:0|0:0,0:0:0:0:
268,221,96079,2,2,L|184:200,1,80,2|10,0:0|1:2,0:0:0:0:
39,341,96303,6,0,L|200:308,1,100,8|0,0:0|0:0,0:0:0:0:
288,348,96527,2,0,L|396:320,1,100,8|0,1:2|0:0,0:0:0:0:
502,88,96751,6,0,P|457:28|366:30,1,160,6|0,0:1|2:0,0:0:0:0:
282,84,97087,1,2,0:0:0:0:
345,180,97199,2,0,P|360:230|363:273,1,80,8|0,0:0|2:0,0:0:0:0:
150,257,97423,2,0,P|157:216|166:179,1,80,2|0,0:0|2:0,0:0:0:0:
242,17,97646,2,0,P|255:62|254:117,1,80,2|0,0:0|2:0,0:0:0:0:
105,242,97870,1,0,0:0:0:0:
3,196,97982,1,0,0:0:0:0:
88,125,98094,2,0,P|137:127|196:154,1,80,8|0,0:0|2:0,0:0:0:0:
214,322,98318,2,0,P|162:346|101:342,1,80,2|0,0:0|2:0,0:0:0:0:
193,221,98542,6,0,P|280:191|327:286,1,160,2|0,0:0|2:0,0:0:0:0:
390,342,98878,2,0,L|285:360,1,80,2|8,0:0|2:1,0:0:0:0:
433,249,99102,1,0,0:0:0:0:
433,249,99214,2,0,P|480:239|538:256,1,80,2|0,0:0|2:0,0:0:0:0:
361,160,99437,2,0,P|357:68|390:5,1,160,2|0,0:0|2:0,0:0:0:0:
490,28,99773,1,0,0:0:0:0:
475,148,99885,2,0,P|429:168|367:163,1,80,10|0,0:0|2:0,0:0:0:0:
330,295,100109,2,0,P|294:277|254:273,1,80,8|0,0:0|2:0,0:0:0:0:
87,310,100333,6,0,B|69:250|69:250|78:203|78:203|67:108,1,160,2|0,0:0|2:0,0:0:0:0:
40,52,100669,1,2,0:0:0:0:
40,52,100781,2,0,P|83:28|141:27,1,80,8|0,0:0|2:0,0:0:0:0:
196,173,101005,2,0,P|163:150|136:83,1,80,2|0,0:0|2:0,0:0:0:0:
311,134,101229,2,0,L|296:240,1,80,2|0,0:0|2:0,0:0:0:0:
264,365,101452,1,0,0:0:0:0:
192,298,101564,2,0,P|280:261|380:316,1,160,0|0,0:0|2:0,0:0:0:0:
456,266,101900,2,0,P|469:328|459:373,1,80,2|0,0:0|2:0,0:0:0:0:
367,201,102124,6,0,L|383:96,1,80,2|0,0:0|2:0,0:0:0:0:
176,63,102348,2,0,L|203:162,1,80,0|2,1:0|2:1,0:0:0:0:
341,235,102572,2,0,L|359:133,1,80,8|0,0:0|2:0,0:0:0:0:
151,97,102796,2,0,L|176:182,1,80,2|0,0:0|2:0,0:0:0:0:
348,364,103020,6,0,P|387:362|426:334,1,80,2|0,0:0|2:0,0:0:0:0:
314,236,103243,2,0,P|275:247|243:270,1,80,0|0,0:0|2:0,0:0:0:0:
134,354,103467,1,10,0:0:0:0:
26,283,103579,1,0,0:0:0:0:
37,155,103691,1,10,0:0:0:0:
151,97,103803,1,0,0:0:0:0:
288,189,103915,6,0,P|377:211|485:127,1,160,6|0,0:0|2:0,0:0:0:0:
493,50,104251,1,2,0:0:0:0:
493,50,104363,2,0,P|450:85|437:154,1,80,8|0,0:0|2:0,0:0:0:0:
288,189,104587,2,0,P|291:124|270:84,1,80,2|0,0:0|2:0,0:0:0:0:
180,20,104811,2,0,P|141:23|79:66,1,80,2|0,0:0|2:0,0:0:0:0:
59,263,105035,1,0,0:0:0:0:
59,263,105146,2,0,B|73:305|73:305|125:236|51:193|104:104,1,240,0|2,0:0|0:0,0:0:0:0:
288,189,105706,6,0,P|240:198|157:161,1,80,2|0,0:0|2:0,0:0:0:0:
311,294,105930,1,0,0:0:0:0:
311,294,106042,2,0,P|358:279|427:293,1,80,2|8,0:0|2:1,0:0:0:0:
225,384,106266,1,0,0:0:0:0:
113,281,106378,2,0,L|28:251,1,80,2|0,0:0|2:0,0:0:0:0:
152,114,106602,2,0,P|230:110|290:160,1,160,2|0,0:0|2:0,0:0:0:0:
310,268,106937,1,0,0:0:0:0:
209,302,107049,2,0,P|198:266|199:221,1,80,10|0,0:0|2:0,0:0:0:0:
396,68,107273,2,0,P|386:134|362:154,1,80,8|0,0:0|2:0,0:0:0:0:
292,246,107497,6,0,L|294:49,1,160,2|0,0:0|2:0,0:0:0:0:
186,24,107833,1,2,0:0:0:0:
186,24,107945,2,0,P|121:35|91:87,1,80,8|0,0:0|2:0,0:0:0:0:
22,144,108169,2,0,P|66:175|125:163,1,80,2|0,0:0|2:0,0:0:0:0:
237,165,108393,2,0,P|217:240|152:284,1,160,2|0,0:0|2:0,0:0:0:0:
42,332,108729,1,0,0:0:0:0:
190,371,108840,2,0,P|226:379|285:359,1,80,8|0,0:0|2:3,0:0:0:0:
418,283,109064,2,0,P|420:337|400:388,1,80,2|0,0:0|2:0,0:0:0:0:
319,223,109288,6,0,P|297:185|290:118,1,80,2|0,0:0|2:0,0:0:0:0:
448,56,109512,2,0,P|426:105|364:144,1,80,0|2,0:0|0:0,0:0:0:0:
266,41,109736,2,0,P|230:29|168:22,1,80,8|0,0:0|2:0,0:0:0:0:
63,150,109960,2,0,P|103:162|141:167,1,80,2|0,0:0|2:0,0:0:0:0:
406,220,110184,2,0,P|449:222|484:237,1,80,2|2,0:0|2:0,0:0:0:0:
360,361,110408,2,0,P|315:359|282:346,1,80,2|0,0:0|2:0,0:0:0:0:
190,216,110632,5,10,0:0:0:0:
279,266,110743,1,0,0:0:0:0:
356,125,110855,5,10,0:0:0:0:
263,172,110967,1,0,0:0:0:0:
127,145,111079,6,0,L|41:152,1,69.9999978637696,4|0,1:1|0:0,0:0:0:0:
89,229,111303,2,0,L|-2:237,1,69.9999978637696,0|2,0:0|1:2,0:0:0:0:
142,284,111527,2,0,L|211:277,1,69.9999978637696,8|0,0:3|0:0,0:0:0:0:
188,198,111751,2,0,L|270:190,1,69.9999978637696,2|0,1:2|0:0,0:0:0:0:
356,125,111975,1,8,0:3:0:0:
356,125,112087,1,0,0:0:0:0:
344,243,112199,2,0,L|339:349,1,69.9999978637696,0|2,0:0|1:2,0:0:0:0:
441,376,112423,2,0,B|441:325|441:325|449:281|449:281|447:176,1,139.999995727539,8|2,0:3|1:2,0:0:0:0:
448,236,112758,1,0,0:0:0:0:
419,120,112870,6,0,P|382:127|333:120,1,69.9999978637696,10|0,0:3|0:0,0:0:0:0:
213,146,113094,2,0,P|275:179|282:203,1,69.9999978637696,0|2,0:0|1:2,0:0:0:0:
344,243,113318,2,0,P|302:256|275:294,1,69.9999978637696,8|0,0:3|0:0,0:0:0:0:
184,266,113542,2,0,P|204:305|191:359,1,69.9999978637696,2|0,1:2|0:0,0:0:0:0:
107,376,113766,1,8,0:3:0:0:
107,376,113878,1,2,0:0:0:0:
79,274,113990,2,0,P|95:200|106:185,1,69.9999978637696,0|2,0:0|1:2,0:0:0:0:
268,208,114214,2,0,B|280:279|265:322|265:322|245:290,1,139.999995727539,8|2,0:3|1:2,0:0:0:0:
251,300,114549,1,0,0:0:0:0:
353,200,114661,6,0,P|386:209|443:202,1,69.9999978637696,10|0,0:3|0:0,0:0:0:0:
342,87,114885,2,0,P|313:70|277:65,1,69.9999978637696,0|2,0:0|1:2,0:0:0:0:
160,44,115109,1,8,0:3:0:0:
101,108,115221,1,0,0:0:0:0:
170,159,115333,2,0,L|174:256,1,69.9999978637696,2|0,1:2|0:0,0:0:0:0:
285,213,115557,2,0,P|324:200|381:207,1,69.9999978637696,8|0,0:3|0:0,0:0:0:0:
266,318,115781,2,0,P|234:309|176:326,1,69.9999978637696,0|2,0:0|1:2,0:0:0:0:
374,365,116005,2,0,P|437:322|430:207,1,139.999995727539,8|2,0:3|1:2,0:0:0:0:
192,270,116452,5,10,0:3:0:0:
102,229,116564,2,0,B|61:213|61:213|5:232|17:312,1,139.999995727539,0|2,0:0|1:2,0:0:0:0:
177,356,116900,2,0,L|153:241,1,69.9999978637696,8|0,0:3|0:0,0:0:0:0:
263,217,117124,2,0,L|279:148,1,69.9999978637696,2|2,1:2|0:0,0:0:0:0:
143,99,117348,1,8,0:3:0:0:
163,187,117460,1,2,1:2:0:0:
75,162,117572,2,0,P|44:167|-17:143,1,69.9999978637696,2|2,0:0|1:3,0:0:0:0:
75,40,117796,2,0,P|161:13|234:81,1,139.999995727539,8|2,0:3|1:3,0:0:0:0:
437,40,118243,6,0,P|350:13|277:81,1,139.999995727539,10|0,0:3|1:0,0:0:0:0:
252,117,118579,1,2,1:2:0:0:
310,191,118691,2,0,P|320:228|339:264,1,69.9999978637696,8|0,0:3|0:0,0:0:0:0:
220,280,118915,2,0,P|210:329|186:365,1,69.9999978637696,2|0,1:2|0:0,0:0:0:0:
144,180,119139,2,0,P|188:184|234:207,1,69.9999978637696,8|0,0:3|0:0,0:0:0:0:
393,302,119363,2,0,P|357:326|316:330,1,69.9999978637696,0|2,0:0|1:2,0:0:0:0:
220,280,119587,1,8,0:3:0:0:
150,328,119699,1,0,0:0:0:0:
80,280,119811,2,0,P|50:252|-15:241,1,69.9999978637696,2|0,1:2|0:0,0:0:0:0:
178,189,120035,6,0,P|247:160|256:149,1,69.9999978637696,10|0,0:3|0:0,0:0:0:0:
336,45,120258,2,0,L|325:125,1,69.9999978637696,0|2,0:0|1:2,0:0:0:0:
431,220,120482,2,0,L|439:123,1,69.9999978637696,8|0,0:3|0:0,0:0:0:0:
301,288,120706,2,0,P|262:347|265:368,1,69.9999978637696,2|0,1:2|0:0,0:0:0:0:
411,315,120930,1,8,0:3:0:0:
431,220,121042,1,2,0:0:0:0:
334,203,121154,2,0,L|236:187,1,69.9999978637696,0|2,0:0|1:2,0:0:0:0:
80,280,121378,2,0,P|133:296|221:240,1,139.999995727539,8|2,0:3|1:2,0:0:0:0:
85,23,121826,6,0,P|38:53|24:97,1,69.9999978637696,10|0,0:3|0:0,0:0:0:0:
168,182,122049,2,0,P|205:126|205:95,1,69.9999978637696,0|2,0:0|1:2,0:0:0:0:
64,170,122273,2,0,P|41:248|74:334,1,139.999995727539,8|2,0:3|1:2,0:0:0:0:
135,366,122609,1,0,0:0:0:0:
252,254,122721,6,0,L|362:245,1,69.9999978637696,8|2,0:3|0:0,0:0:0:0:
451,172,122945,1,0,0:0:0:0:
399,328,123057,1,2,1:2:0:0:
332,166,123169,2,0,P|318:86|363:-3,1,139.999995727539,8|2,0:3|0:0,0:0:0:0:
456,48,123505,1,0,0:0:0:0:
451,172,123617,6,0,L|452:275,1,69.9999978637696,10|0,0:3|0:0,0:0:0:0:
328,268,123840,2,0,L|323:353,1,69.9999978637696,0|2,0:0|1:2,0:0:0:0:
224,140,124064,6,0,L|212:232,1,69.9999978637696,8|0,0:3|0:0,0:0:0:0:
103,239,124288,2,0,L|88:312,1,69.9999978637696,2|0,1:2|0:0,0:0:0:0:
21,82,124512,6,0,L|46:176,1,80,8|2,1:3|0:0,0:0:0:0:
256,76,124736,2,0,L|258:163,1,80,8|2,1:3|1:2,0:0:0:0:
491,82,124960,2,0,L|471:163,1,80,4|0,1:3|0:0,0:0:0:0:
420,348,125184,1,4,1:3:0:0:
56,84,125408,5,4,1:2:0:0:
72,232,125632,5,0,0:0:0:0:
75,260,125855,5,8,0:3:0:0:
77,288,126079,5,0,0:0:0:0:
79,316,126303,6,0,P|112:320|142:317,1,59.9999981689454,8|0,0:3|0:0,0:0:0:0:
230,274,126527,2,0,L|226:121,1,119.999996337891,0|8,0:0|0:3,0:0:0:0:
215,139,126975,2,2,L|215:210,1,59.9999981689454,0|0,0:0|0:0,1:0:0:0:
332,361,127199,6,2,L|345:221,1,119.999996337891,2|0,0:2|0:0,1:0:0:0:
440,164,127535,1,0,0:0:0:0:
440,164,127646,2,0,P|478:179|524:175,1,59.9999981689454,8|0,0:3|0:0,0:0:0:0:
284,151,127870,2,0,P|245:157|204:143,1,59.9999981689454
452,7,128094,2,0,P|449:46|415:87,1,59.9999981689454,8|0,0:3|0:0,0:0:0:0:
303,59,128318,1,0,0:0:0:0:
303,59,128430,2,0,P|292:27|298:-10,1,59.9999981689454,2|8,0:1|0:3,0:0:0:0:
367,101,128654,1,0,0:0:0:0:
367,101,128766,2,0,L|359:207,1,59.9999981689454,2|0,0:1|0:3,0:0:0:0:
355,279,128990,5,2,0:0:0:0:
169,265,129214,5,0,0:0:0:0:
145,259,129437,5,8,0:3:0:0:
121,252,129661,5,0,0:0:0:0:
97,246,129885,6,0,L|76:165,1,59.9999981689454,8|0,0:3|0:0,0:0:0:0:
194,45,130109,2,0,P|193:127|170:177,1,119.999996337891,0|8,0:0|0:3,0:0:0:0:
179,161,130557,2,2,L|259:155,1,59.9999981689454,0|0,0:0|0:0,0:1:0:0:
438,95,130781,6,2,B|444:152|432:177|432:177|399:164|399:164|383:211|426:269,1,209.999993591309,0|0,0:0|0:0,0:1:0:0:
262,312,131229,2,2,B|268:255|256:230|256:230|223:243|223:243|207:196|250:138,1,209.999993591309,0|0,0:0|0:0,0:1:0:0:
134,34,131676,2,2,P|62:69|129:167,1,209.999993591309,2|0,0:0|0:0,0:1:0:0:
403,166,132124,2,2,P|456:87|378:34,1,209.999993591309,0|0,0:0|0:0,0:1:0:0:
295,221,132572,6,0,P|223:221|123:171,1,160,6|0,0:1|2:0,0:0:0:0:
85,90,132908,1,2,0:0:0:0:
10,174,133020,2,0,L|15:273,1,80,8|0,0:0|2:0,0:0:0:0:
149,358,133243,2,0,P|149:306|178:255,1,80,2|0,0:0|2:0,0:0:0:0:
282,145,133467,2,0,P|297:185|291:236,1,80,2|0,0:0|2:0,0:0:0:0:
231,329,133691,1,0,0:0:0:0:
212,223,133803,1,0,0:0:0:0:
319,304,133915,2,0,P|386:299|448:262,1,120,8|0,0:0|2:0,0:0:0:0:
445,257,134139,2,0,P|447:213|439:161,1,80,2|0,0:0|2:0,0:0:0:0:
325,35,134363,6,0,P|317:109|330:215,1,160,2|0,0:0|2:0,0:0:0:0:
217,259,134699,1,2,0:0:0:0:
111,195,134811,2,0,L|27:181,1,80,8|0,0:0|2:0,0:0:0:0:
193,107,135035,2,0,P|252:93|277:73,1,80,2|0,0:0|2:0,0:0:0:0:
134,15,135258,2,0,L|150:181,1,160,2|0,0:0|2:0,0:0:0:0:
217,259,135594,1,0,0:0:0:0:
128,323,135706,2,0,P|79:317|27:348,1,80,10|0,0:0|2:0,0:0:0:0:
312,311,135930,2,0,P|280:337|218:352,1,80,8|0,0:0|2:0,0:0:0:0:
447,365,136154,6,0,P|468:313|447:197,1,160,2|0,0:0|2:0,0:0:0:0:
399,104,136490,1,2,0:0:0:0:
287,147,136602,2,0,P|249:148|191:136,1,80,8|0,0:0|2:0,0:0:0:0:
367,36,136826,2,0,P|386:22|467:9,1,80,2|0,0:0|2:0,0:0:0:0:
393,158,137049,2,0,B|368:220|392:279|392:279|421:241,1,160,2|0,0:0|2:0,0:0:0:0:
275,295,137385,1,0,0:0:0:0:
275,295,137497,2,0,P|226:278|186:246,1,80,8|0,0:0|2:0,0:0:0:0:
2,154,137721,2,0,P|38:144|76:111,1,80,2|0,0:0|2:0,0:0:0:0:
201,9,137945,6,0,P|213:65|196:120,1,80,2|0,0:0|2:0,0:0:0:0:
112,316,138169,2,0,P|100:260|117:205,1,80,0|2,0:0|2:1,0:0:0:0:
355,107,138393,2,0,P|336:158|308:181,1,80,8|0,0:0|2:0,0:0:0:0:
17,141,138617,2,0,P|58:106|100:97,1,80,2|0,0:0|2:0,0:0:0:0:
319,270,138840,6,0,L|226:245,1,80,2|0,0:0|2:0,0:0:0:0:
190,59,139064,2,0,L|296:81,1,80,2|0,0:0|2:0,0:0:0:0:
404,246,139288,1,10,0:0:0:0:
296,176,139400,1,0,0:0:0:0:
335,54,139512,1,8,0:0:0:0:
462,64,139624,1,0,0:0:0:0:
502,185,139736,6,0,P|510:279|490:346,1,160,6|0,0:0|2:0,0:0:0:0:
378,383,140072,1,2,0:0:0:0:
293,297,140184,2,0,L|190:274,1,80,8|0,0:0|2:0,0:0:0:0:
92,232,140408,2,0,P|73:281|86:327,1,80,2|0,0:0|2:0,0:0:0:0:
211,200,140632,2,0,P|220:147|194:94,1,80,2|0,0:0|2:0,0:0:0:0:
120,22,140855,1,0,0:0:0:0:
120,22,140967,2,0,B|84:38|84:38|120:88|186:-2|263:51,1,200,0|0,0:0|2:0,0:0:0:0:
269,50,141303,2,0,P|298:102|296:149,1,80,2|0,0:0|2:0,0:0:0:0:
357,314,141527,6,0,P|357:257|394:146,1,160,2|0,0:0|2:0,0:0:0:0:
491,102,141863,1,2,0:0:0:0:
491,102,141975,2,0,P|458:70|391:55,1,80,8|0,0:0|2:0,0:0:0:0:
432,245,142199,2,0,P|480:219|496:193,1,80,2|0,0:0|2:0,0:0:0:0:
335,160,142423,2,0,P|274:170|163:153,1,160,2|0,0:0|2:0,0:0:0:0:
106,243,142758,1,0,0:0:0:0:
36,155,142870,2,0,L|20:57,1,80,10|0,0:0|2:0,0:0:0:0:
125,267,143094,2,0,L|146:168,1,80,10|0,0:0|2:0,0:0:0:0:
28,291,143318,6,0,P|54:337|169:357,1,160,2|0,0:0|2:0,0:0:0:0:
229,270,143654,1,2,0:0:0:0:
229,270,143766,2,0,P|285:275|322:306,1,80,8|0,0:0|2:0,0:0:0:0:
464,222,143990,2,0,P|413:245|388:287,1,80,2|0,0:0|2:0,0:0:0:0:
371,354,144214,2,0,L|328:177,1,160,2|0,0:0|2:0,0:0:0:0:
216,140,144549,1,0,0:0:0:0:
216,140,144661,2,0,P|163:135|130:111,1,80,8|0,0:0|2:0,0:0:0:0:
296,38,144885,2,0,P|359:9|387:18,1,80,2|0,0:0|2:0,0:0:0:0:
456,152,145109,6,0,P|455:112|462:73,1,80,2|0,0:0|2:0,0:0:0:0:
313,206,145333,2,0,P|320:253|311:305,1,80,2|0,0:0|0:0,0:0:0:0:
160,379,145557,2,0,P|151:339|159:300,1,80,10|0,0:0|2:0,0:0:0:0:
34,195,145781,2,0,P|40:156|33:116,1,80,10|0,0:0|2:0,0:0:0:0:
138,13,146005,6,0,B|180:10|221:25|221:25|199:63|157:97|157:97|132:61|133:19,1,240,10|0,1:2|0:0,0:0:0:0:
366,138,146452,2,0,B|368:154|344:190|344:190|301:155|279:118|279:118|320:103|363:105,1,240,8|0,1:2|2:0,0:0:0:0:
470,224,146900,6,0,P|470:267|456:330,1,89.9999972534181,6|0,0:0|2:0,0:0:0:0:
342,366,147124,2,0,L|253:347,1,89.9999972534181
59,316,147348,2,0,P|119:303|158:279,1,89.9999972534181,8|0,0:0|2:0,0:0:0:0:
242,188,147572,2,0,P|245:132|218:25,1,134.999995880127,8|0,0:0|2:0,0:0:0:0:
218,31,147796,2,0,P|174:24|112:40,1,89.9999972534181,2|0,0:0|2:0,0:0:0:0:
49,124,148020,1,0,0:0:0:0:
161,176,148132,1,0,0:0:0:0:
92,264,148243,2,0,P|89:305|125:379,1,89.9999972534181,8|0,0:0|2:0,0:0:0:0:
233,371,148467,2,0,P|266:336|281:276,1,89.9999972534181,0|0,0:0|2:0,0:0:0:0:
300,135,148691,6,0,P|361:195|459:197,1,179.999994506836,2|0,0:0|2:0,0:0:0:0:
511,101,149027,1,0,0:0:0:0:
435,14,149139,2,0,L|340:31,1,89.9999972534181,8|0,0:0|2:0,0:0:0:0:
114,103,149363,2,0,L|207:136,1,89.9999972534181,8|0,0:0|2:0,0:0:0:0:
361,317,149587,2,0,P|393:249|393:122,1,179.999994506836,2|0,0:0|2:0,0:0:0:0:
347,30,149923,1,0,0:0:0:0:
161,17,150035,2,0,P|145:87|160:213,1,179.999994506836,10|0,0:0|2:0,0:0:0:0:
216,351,150370,1,0,0:0:0:0:
216,351,150426,1,2,0:0:0:0:
216,351,150482,6,0,L|229:240,1,89.9999972534181,2|0,0:0|2:0,0:0:0:0:
363,98,150706,2,0,L|350:209,1,89.9999972534181
138,128,150930,2,0,P|199:121|265:145,1,89.9999972534181,8|0,0:0|2:0,0:0:0:0:
401,298,151154,2,0,P|328:301|300:291,1,89.9999972534181,8|0,0:0|2:0,0:0:0:0:
128,238,151378,2,0,P|81:250|39:301,1,89.9999972534181,2|0,0:0|2:0,0:0:0:0:
20,127,151602,1,0,0:0:0:0:
20,127,151714,2,0,P|100:148|200:122,1,179.999994506836,0|0,0:0|2:0,0:0:0:0:
192,126,152049,2,0,L|168:17,1,89.9999972534181,0|0,0:0|2:0,0:0:0:0:
340,44,152273,6,0,L|320:227,1,179.999994506836,2|0,0:0|2:0,0:0:0:0:
299,378,152609,1,0,0:0:0:0:
372,308,152721,2,0,P|410:306|467:274,1,89.9999972534181,8|0,0:0|2:0,0:0:0:0:
240,284,152945,2,0,P|203:273|155:228,1,89.9999972534181,8|0,0:0|2:0,0:0:0:0:
77,115,153169,5,2,0:0:0:0:
149,33,153281,1,8,0:0:0:0:
256,36,153393,1,0,0:0:0:0:
309,129,153505,1,2,0:0:0:0:
203,129,153617,5,8,0:0:0:0:
256,36,153729,1,0,0:0:0:0:
363,33,153840,1,10,0:0:0:0:
435,115,153952,1,0,0:0:0:0:
392,226,154064,6,0,P|343:237|198:211,1,179.999994506836,6|0,0:0|2:0,0:0:0:0:
128,140,154400,1,0,0:0:0:0:
42,215,154512,2,0,P|40:272|56:323,1,89.9999972534181,8|0,0:0|2:0,0:0:0:0:
205,180,154736,2,0,P|212:116|190:74,1,89.9999972534181,8|0,0:0|2:0,0:0:0:0:
28,16,154960,2,0,L|42:124,1,89.9999972534181,2|0,0:0|2:0,0:0:0:0:
140,306,155184,1,0,0:0:0:0:
140,306,155296,2,0,P|211:277|335:332,1,179.999994506836,0|0,0:0|2:0,0:0:0:0:
307,303,155632,2,0,P|298:245|309:203,1,89.9999972534181,2|0,0:0|2:0,0:0:0:0:
482,46,155855,6,0,P|490:137|456:235,1,179.999994506836,2|0,0:0|2:0,0:0:0:0:
360,137,156191,1,0,0:0:0:0:
360,137,156303,2,0,L|258:112,1,89.9999972534181,8|0,0:0|2:0,0:0:0:0:
116,49,156527,2,0,L|218:31,1,89.9999972534181,8|0,0:0|2:0,0:0:0:0:
309,202,156751,2,0,P|315:264|252:362,1,179.999994506836,2|0,0:0|2:0,0:0:0:0:
142,380,157087,1,0,0:0:0:0:
54,310,157199,2,0,P|120:293|170:311,1,89.9999972534181,10|0,0:0|2:1,0:0:0:0:
89,187,157423,2,0,P|131:142|186:132,1,89.9999972534181,2|0,0:0|2:0,0:0:0:0:
7,93,157646,6,0,P|56:41|177:11,1,179.999994506836,2|0,0:0|2:0,0:0:0:0:
257,94,157982,1,0,0:0:0:0:
377,16,158094,2,0,L|480:9,1,89.9999972534181,8|0,0:0|2:0,0:0:0:0:
451,213,158318,2,0,L|339:219,1,89.9999972534181,8|0,0:0|2:0,0:0:0:0:
217,301,158542,2,0,P|165:277|153:162,1,179.999994506836,2|0,0:0|2:0,0:0:0:0:
295,83,158878,2,0,P|347:107|359:222,1,179.999994506836,0|0,0:0|2:0,0:0:0:0:
218,217,159214,2,0,L|306:156,1,89.9999972534181,0|0,0:0|2:0,0:0:0:0:
469,292,159437,6,0,P|410:301|362:288,1,89.9999972534181,2|0,0:0|2:0,0:0:0:0:
276,376,159661,2,0,P|219:355|165:360,1,89.9999972534181
17,228,159885,6,0,P|86:230|128:206,1,89.9999972534181,8|0,0:0|2:0,0:0:0:0:
206,95,160109,2,0,P|259:91|317:118,1,89.9999972534181,8|0,0:0|2:0,0:0:0:0:
186,319,160333,6,0,L|194:214,1,89.9999972534181,2|8,0:0|2:1,0:0:0:0:
378,40,160557,2,0,B|388:81|388:81|372:142,1,89.9999972534181,0|0,0:0|2:0,0:0:0:0:
206,95,160781,6,0,P|161:71|99:74,1,89.9999972534181,10|0,0:0|2:0,0:0:0:0:
329,278,161005,2,0,P|374:265|411:216,1,89.9999972534181,10|0,0:0|2:0,0:0:0:0:
256,192,161229,12,0,162124,0:0:0:0:
139,227,162348,6,2,P|125:138|145:107,1,104.999996795654,0|0,0:0|0:0,0:1:0:0:
93,131,162572,2,0,L|24:132,1,69.9999978637696,2|0,0:1|0:0,0:1:0:0:
215,19,162796,2,2,P|209:80|229:128,1,104.999996795654,0|0,0:0|0:0,0:1:0:0:
242,136,163020,6,0,P|279:123|378:182,1,139.999995727539,4|0,0:1|0:0,0:0:0:0:
290,224,163355,1,0,1:0:0:0:
290,224,163467,2,0,P|249:235|207:224,1,69.9999978637696,8|0,0:3|0:0,0:0:0:0:
352,308,163691,2,0,P|392:292|440:309,1,69.9999978637696,2|0,1:2|0:0,0:0:0:0:
274,362,163915,2,0,L|185:378,1,69.9999978637696,8|2,0:3|0:0,0:0:0:0:
163,292,164139,2,0,L|63:273,1,69.9999978637696,0|2,0:0|1:2,0:0:0:0:
26,206,164363,2,0,P|22:160|45:83,1,104.999996795654,8|0,0:3|0:0,0:0:0:0:
36,104,164587,2,0,B|69:118|69:118|119:115,1,69.9999978637696,2|0,1:2|0:0,0:0:0:0:
18,17,164811,6,0,B|64:23|64:23|89:19|89:19|110:31|110:31|180:43,1,139.999995727539,8|0,1:3|0:0,0:0:0:0:
238,91,165146,1,2,1:2:0:0:
311,30,165258,2,0,P|330:69|331:122,1,69.9999978637696,8|0,0:3|0:0,0:0:0:0:
273,173,165482,2,0,P|253:208|255:254,1,69.9999978637696,2|0,1:2|0:0,0:0:0:0:
316,311,165706,1,8,0:3:0:0:
379,247,165818,1,2,0:0:0:0:
451,313,165930,2,0,L|453:391,1,69.9999978637696,0|2,0:0|1:2,0:0:0:0:
493,224,166154,2,0,P|483:166|504:68,1,139.999995727539,8|2,0:3|1:2,0:0:0:0:
299,166,166602,6,0,P|306:122|278:20,1,139.999995727539,8|0,1:3|0:0,0:0:0:0:
191,28,166937,1,2,1:2:0:0:
191,28,167049,2,0,L|110:25,1,69.9999978637696,8|0,0:3|0:0,0:0:0:0:
20,114,167273,2,0,L|98:118,1,69.9999978637696,2|0,1:2|0:0,0:0:0:0:
168,191,167497,1,8,0:3:0:0:
168,191,167609,2,0,B|177:247|160:294|160:294|138:258,1,139.999995727539,2|2,0:0|1:2,0:0:0:0:
273,273,167945,2,0,B|264:329|281:376|281:376|303:340,1,139.999995727539,8|2,0:3|1:2,0:0:0:0:
344,271,168281,1,0,0:0:0:0:
375,192,168393,6,0,P|421:191|465:220,1,69.9999978637696,8|0,1:3|0:0,0:0:0:0:
403,271,168617,1,0,0:0:0:0:
403,271,168729,2,0,P|323:258|295:190,1,139.999995727539,2|0,1:2|0:0,0:0:0:0:
300,119,169064,2,0,L|301:29,1,69.9999978637696,2|0,1:2|0:0,0:0:0:0:
169,1,169288,5,8,1:3:0:0:
89,29,169400,1,2,0:0:0:0:
75,111,169512,1,0,1:0:0:0:
138,165,169624,1,2,0:0:0:0:
218,140,169736,5,8,1:3:0:0:
274,202,169848,1,0,0:0:0:0:
263,285,169960,1,2,1:2:0:0:
186,318,170072,1,0,0:0:0:0:
122,262,170184,6,0,L|37:253,1,69.9999978637696,4|0,1:1|0:0,0:0:0:0:
207,172,170408,2,0,L|122:163,1,69.9999978637696,0|2,0:0|1:2,0:0:0:0:
263,285,170632,6,0,L|178:276,1,69.9999978637696,8|0,0:3|0:0,0:0:0:0:
348,195,170856,2,0,L|263:186,1,69.9999978637696,2|0,1:2|0:0,0:0:0:0:
410,307,171079,6,0,L|325:298,1,69.9999978637696,8|2,0:3|0:0,0:0:0:0:
495,217,171303,2,0,L|410:208,1,69.9999978637696,0|2,0:0|1:2,0:0:0:0:
327,102,171527,2,0,P|393:81|471:133,1,139.999995727539,8|2,0:3|1:2,0:0:0:0:
185,102,171975,6,0,P|119:81|102:86,1,69.9999978637696,8|0,1:3|0:0,0:0:0:0:
152,233,172199,2,0,P|188:212|203:180,1,69.9999978637696,0|2,0:0|1:2,0:0:0:0:
53,217,172423,2,0,L|58:311,2,69.9999978637696,8|0|2,0:3|0:0|1:2,0:0:0:0:
150,346,172758,1,0,0:0:0:0:
150,346,172870,2,0,P|190:343|227:361,1,69.9999978637696,8|2,0:3|0:0,0:0:0:0:
335,284,173094,2,0,P|294:275|265:250,1,69.9999978637696,0|2,0:0|1:2,0:0:0:0:
400,177,173318,2,0,P|410:121|404:26,1,139.999995727539,8|2,0:3|1:2,0:0:0:0:
474,241,173766,6,0,P|477:293|459:335,1,69.9999978637696,8|0,1:3|0:0,0:0:0:0:
350,366,173990,2,0,P|347:314|365:272,1,69.9999978637696,0|2,0:0|1:2,0:0:0:0:
317,175,174214,2,0,P|255:185|188:173,1,104.999996795654,8|0,0:3|0:0,0:0:0:0:
179,167,174437,2,0,P|169:117|172:86,1,69.9999978637696,2|0,1:2|0:0,0:0:0:0:
54,37,174661,2,0,P|18:66|12:120,1,69.9999978637696,8|2,0:3|0:0,0:0:0:0:
15,230,174885,2,0,P|56:211|85:171,1,69.9999978637696,0|2,0:0|1:2,0:0:0:0:
105,319,175109,2,0,P|162:325|208:312,1,104.999996795654,8|0,0:3|0:0,0:0:0:0:
226,306,175333,2,0,L|241:387,1,69.9999978637696,2|0,1:2|0:0,0:0:0:0:
293,196,175557,6,0,P|291:121|303:37,1,139.999995727539,8|0,1:3|0:0,0:0:0:0:
427,41,175893,1,2,1:2:0:0:
427,41,176005,2,0,L|530:52,1,69.9999978637696,8|0,0:3|0:0,0:0:0:0:
362,207,176229,5,8,1:2:0:0:
362,207,176340,2,0,L|271:194,1,69.9999978637696,8|2,0:0|0:0,0:0:0:0:
136,95,176564,1,8,0:0:0:0:
136,95,176676,2,0,L|227:82,1,69.9999978637696,8|0,0:0|0:2,0:0:0:0:
299,295,176900,5,8,1:2:0:0:
168,267,177012,1,0,0:0:0:0:
38,238,177124,1,0,0:0:0:0:
