osu file format v14

[General]
AudioFilename: darude - sandstorm.mp3
AudioLeadIn: 0
PreviewTime: 172776
Countdown: 1
SampleSet: None
StackLeniency: 0.7
Mode: 0
LetterboxInBreaks: 1
WidescreenStoryboard: 0

[Editor]
DistanceSpacing: 1.3
BeatDivisor: 4
GridSize: 4
TimelineZoom: 1

[Metadata]
Title:No Title
TitleUnicode:No Title
Artist:Reol & Giga
ArtistUnicode:Reol & Giga
Creator:Zeolith
Version:Insane
Source:No Title -
Tags:Reol Reolch Giga-p GigaP Giga OKiku No Tilte-
BeatmapID:744113
BeatmapSetID:227946

[Difficulty]
HPDrainRate:6
CircleSize:4
OverallDifficulty:7
ApproachRate:9
SliderMultiplier:1.8
SliderTickRate:2

[Events]
//Background and Video events
0,0,"55f024ca894f7f37369922951e904bda.jpg",0,0
//Break Periods
//Storyboard Layer 0 (Background)
//Storyboard Layer 1 (Fail)
//Storyboard Layer 2 (Pass)
//Storyboard Layer 3 (Foreground)
//Storyboard Sound Samples
Sample,33688,0,"normal-hitclap.wav",35
Sample,37288,0,"normal-hitclap.wav",35
Sample,38488,0,"normal-hitclap.wav",35

[TimingPoints]
2451,300,4,2,0,35,1,0
11267,-100,4,1,0,35,0,0
26113,-200,4,1,0,35,0,0
26563,-100,4,1,0,35,0,0
28513,-200,4,1,0,35,0,0
28888,-100,4,1,0,35,0,0
33613,-100,4,1,2,35,0,0
33763,-100,4,1,0,35,0,0

[HitObjects]
104,64,2451,5,2,0:0:0:0:
256,148,2901,1,0,0:0:0:0:
304,284,3351,1,2,0:0:0:0:
200,216,3501,1,0,0:0:0:0:
304,284,3651,2,0,P|392:276|440:120,1,270,2|2,0:0|0:0,0:0:0:0:
328,84,4401,5,0,0:0:0:0:
180,96,4701,1,0,0:0:0:0:
180,96,4851,2,0,L|48:232,1,180,2|0,0:0|0:0,0:0:0:0:
200,216,5301,2,0,L|332:80,1,180,2|0,0:0|0:0,0:0:0:0:
304,212,5901,1,2,0:0:0:0:
392,280,6051,1,0,0:0:0:0:
408,168,6201,1,2,0:0:0:0:
416,152,6501,1,2,0:0:0:0:
192,96,6801,5,0,0:0:0:0:
372,60,6951,2,0,L|196:96,1,180,2|0,0:0|0:0,0:0:0:0:
116,172,7401,2,0,L|228:228,1,90,2|0,0:0|0:0,0:0:0:0:
244,324,7701,2,0,L|56:232,1,180,8|0,0:0|0:0,0:0:0:0:
81,244,8151,1,0,0:0:0:0:
116,172,8301,5,2,0:0:0:0:
36,176,8451,1,0,0:0:0:0:
81,244,8601,2,0,L|176:244,1,90,2|0,0:0|0:0,0:0:0:0:
376,172,8901,2,0,L|188:172,1,180,8|0,0:0|0:0,0:0:0:0:
192,172,9351,1,0,0:0:0:0:
256,60,9651,5,0,0:0:0:0:
388,176,9951,1,0,0:0:0:0:
400,208,10101,1,8,0:0:0:0:
152,248,10401,1,0,0:0:0:0:
124,216,10551,1,8,0:0:0:0:
100,184,10701,1,0,0:0:0:0:
80,156,10851,1,0,0:0:0:0:
192,144,11001,5,10,0:0:0:0:
180,132,11076,1,0,0:0:0:0:
168,120,11151,1,2,0:0:0:0:
272,172,11301,2,0,L|344:240,2,90,8|0|0,0:0|0:0|0:0,0:0:0:0:
412,200,11751,2,0,L|276:76,1,180,0|8,0:0|0:0,0:0:0:0:
200,56,12201,5,0,0:0:0:0:
92,60,12351,1,0,0:0:0:0:
44,156,12501,1,8,0:0:0:0:
144,196,12651,2,0,P|168:252|84:348,1,180,0|8,0:0|0:0,0:0:0:0:
64,252,13101,1,0,0:0:0:0:
144,196,13251,2,0,P|184:164|232:152,1,90,8|0,0:0|0:0,0:0:0:0:
236,252,13551,1,0,0:0:0:0:
144,196,13701,2,0,P|152:120|92:28,1,180,8|0,0:0|0:0,0:0:0:0:
240,88,14151,6,0,L|304:160,1,90,8|0,0:0|0:0,0:0:0:0:
368,204,14451,2,0,P|312:236|276:232,1,90,8|0,0:0|0:0,0:0:0:0:
360,124,14751,2,0,P|400:80|452:60,1,90,0|8,0:0|0:0,0:0:0:0:
276,232,15051,2,0,P|232:296|228:348,1,90
200,184,15351,2,0,P|212:120|256:88,1,90,8|0,0:0|0:0,0:0:0:0:
124,216,15651,2,0,P|92:172|92:104,2,90,8|0|0,0:0|0:0|0:0,0:0:0:0:
204,272,16101,1,8,0:0:0:0:
300,300,16251,2,0,P|348:216|324:112,1,180,0|8,0:0|0:0,0:0:0:0:
244,200,16701,5,0,0:0:0:0:
124,216,16851,1,8,0:0:0:0:
176,108,17001,1,0,0:0:0:0:
124,216,17151,2,0,L|32:284,1,90,0|8,0:0|0:0,0:0:0:0:
244,200,17451,1,0,0:0:0:0:
304,100,17601,5,0,0:0:0:0:
364,188,17751,2,0,P|396:248|408:312,2,90,8|0|8,0:0|0:0|0:0,0:0:0:0:
304,100,18201,1,0,0:0:0:0:
244,200,18351,2,0,P|240:248|212:304,1,90,0|8,0:0|0:0,0:0:0:0:
116,280,18651,5,0,0:0:0:0:
140,176,18801,1,0,0:0:0:0:
244,200,18951,1,8,0:0:0:0:
220,304,19101,1,0,0:0:0:0:
140,176,19251,6,0,P|112:116|88:92,1,90,8|0,0:0|0:0,0:0:0:0:
220,304,19551,1,0,0:0:0:0:
372,220,19701,1,8,0:0:0:0:
244,200,19851,1,0,0:0:0:0:
372,136,20001,2,0,P|420:96|444:64,1,90,0|8,0:0|0:0,0:0:0:0:
248,112,20301,1,0,0:0:0:0:
88,104,20451,1,8,0:0:0:0:
140,176,20601,1,8,0:0:0:0:
128,156,20676,1,0,0:0:0:0:
116,140,20751,1,8,0:0:0:0:
88,104,20901,6,0,P|76:188|84:224,2,90,0|8|0,0:0|0:0|0:0,0:0:0:0:
176,48,21351,2,0,P|244:36|364:80,1,180,8|8,0:0|0:0,0:0:0:0:
248,112,21801,1,0,0:0:0:0:
248,112,21951,2,0,P|236:188|204:216,1,90,0|8,0:0|0:0,0:0:0:0:
84,260,22551,6,0,P|160:284|192:304,1,90,8|0,0:0|0:0,0:0:0:0:
84,260,22851,2,0,P|176:248|284:276,1,180,8|0,0:0|0:0,0:0:0:0:
376,320,23301,1,8,0:0:0:0:
407,212,23451,2,0,P|336:164|295:68,1,180,0|12,0:0|0:0,0:0:0:0:
400,100,23901,5,0,0:0:0:0:
208,100,24051,2,0,P|260:84|332:84,1,90,8|0,0:0|0:0,0:0:0:0:
164,224,24351,2,0,P|212:188|252:176,1,90,0|8,0:0|0:0,0:0:0:0:
164,224,24951,6,0,P|164:268|140:340,1,90,8|0,0:0|0:0,0:0:0:0:
80,128,25251,1,8,0:0:0:0:
208,100,25401,2,0,P|256:132|288:184,1,90,0|0,0:0|0:0,0:0:0:0:
280,264,25701,1,8,0:0:0:0:
372,204,25851,1,0,0:0:0:0:
280,264,26001,1,0,0:0:0:0:
384,316,26151,2,0,B|352:356|316:332|280:368,1,90,12|8,0:0|0:0,0:0:0:0:
236,188,26601,6,0,L|140:224,1,90
224,104,26901,2,0,L|320:140,1,90,8|0,0:0|0:0,0:0:0:0:
251,276,27201,2,0,L|235:176,1,90,0|8,0:0|0:0,0:0:0:0:
136,228,27501,1,0,0:0:0:0:
120,120,27651,1,8,0:0:0:0:
36,188,27801,1,0,0:0:0:0:
52,296,27951,1,0,0:0:0:0:
36,188,28101,1,8,0:0:0:0:
52,296,28251,2,0,L|152:232,1,90
36,188,28551,2,0,L|52:80,1,90,12|0,0:0|0:0,0:0:0:0:
140,168,29001,5,0,0:0:0:0:
232,104,29151,1,0,0:0:0:0:
248,212,29301,2,0,L|272:300,1,90,8|0,0:0|0:0,0:0:0:0:
332,208,29601,2,0,L|384:120,1,90,0|8,0:0|0:0,0:0:0:0:
416,232,29901,5,0,0:0:0:0:
360,324,30051,1,8,0:0:0:0:
280,292,30201,1,8,0:0:0:0:
303,302,30276,1,0,0:0:0:0:
323,310,30351,1,8,0:0:0:0:
256,288,30501,2,0,P|192:284|128:296,1,90,0|8,0:0|0:0,0:0:0:0:
84,328,30801,1,0,0:0:0:0:
68,220,30951,6,0,P|100:168|212:120,1,180,8|8,0:0|0:0,0:0:0:0:
320,196,31401,1,0,0:0:0:0:
372,104,31551,1,8,0:0:0:0:
320,196,31701,2,0,L|244:268,1,90,8|0,0:0|0:0,0:0:0:0:
352,272,32001,2,0,L|428:192,1,90,0|8,0:0|0:0,0:0:0:0:
372,104,32301,5,0,0:0:0:0:
236,160,32451,2,0,L|308:80,1,90,8|0,0:0|0:0,0:0:0:0:
188,96,32751,1,0,0:0:0:0:
108,172,32901,1,8,0:0:0:0:
180,252,33051,2,0,L|108:320,1,90
180,252,33351,1,8,0:0:0:0:
296,268,33501,6,0,P|328:304|384:324,1,90
460,252,33801,1,0,0:0:0:0:
360,176,33951,2,0,P|300:136|244:136,1,90,0|8,0:0|0:0,0:0:0:0:
180,252,34251,2,0,P|200:192|192:152,1,90
92,188,34551,1,8,0:0:0:0:
76,296,34701,1,0,0:0:0:0:
92,188,34851,2,0,P|124:128|132:64,1,90,8|0,0:0|0:0,0:0:0:0:
196,168,35151,2,0,P|232:216|276:232,1,90,0|8,0:0|0:0,0:0:0:0:
92,188,35451,2,0,P|128:240|136:280,1,90
224,340,35751,2,0,P|228:264|188:156,1,180,8|8,0:0|0:0,0:0:0:0:
308,192,36201,6,0,P|320:268|320:304,1,90,0|0,0:0|0:0,0:0:0:0:
396,192,36501,1,8,0:0:0:0:
316,104,36651,1,0,0:0:0:0:
208,152,36801,1,0,0:0:0:0:
316,104,36951,1,8,0:0:0:0:
208,152,37101,6,0,P|120:176|48:124,1,180
148,60,37551,2,0,P|216:40|260:56,1,90,0|8,0:0|0:0,0:0:0:0:
208,152,37851,1,0,0:0:0:0:
140,248,38001,1,0,0:0:0:0:
236,316,38151,1,8,0:0:0:0:
304,220,38301,6,0,P|344:184|400:160,1,90
388,160,38601,1,0,0:0:0:0:
372,276,38751,1,0,0:0:0:0:
388,160,38901,2,0,P|372:112|332:72,1,90,8|0,0:0|0:0,0:0:0:0:
208,152,39201,2,0,P|276:156|308:176,1,90,0|8,0:0|0:0,0:0:0:0:
140,248,39501,2,0,L|92:160,1,90,0|8,0:0|0:0,0:0:0:0:
80,328,39801,5,8,0:0:0:0:
68,304,39876,1,0,0:0:0:0:
56,280,39951,1,8,0:0:0:0:
140,248,40101,2,0,L|184:336,1,90,0|8,0:0|0:0,0:0:0:0:
268,252,40401,1,0,0:0:0:0:
208,152,40551,2,0,P|268:104|388:120,1,180,8|8,0:0|0:0,0:0:0:0:
420,208,41001,6,0,L|376:304,1,90,0|0,0:0|0:0,0:0:0:0:
368,116,41301,2,0,L|412:24,1,90,8|0,0:0|0:0,0:0:0:0:
420,208,41601,2,0,P|368:228|320:208,1,90,0|8,0:0|0:0,0:0:0:0:
208,152,41901,2,0,P|232:204|228:256,1,90,0|8,0:0|0:0,0:0:0:0:
120,180,42201,1,0,0:0:0:0:
184,272,42351,1,0,0:0:0:0:
232,120,42501,1,8,0:0:0:0:
232,120,42951,5,8,0:0:0:0:
232,120,43251,2,0,P|260:172|260:228,1,90,8|0,0:0|0:0,0:0:0:0:
120,180,43551,1,0,0:0:0:0:
232,120,43701,2,0,P|300:104|336:72,1,90,8|0,0:0|0:0,0:0:0:0:
120,180,44001,1,0,0:0:0:0:
176,336,44151,2,0,P|187:282|140:232,1,90,8|0,0:0|0:0,0:0:0:0:
268,320,44451,1,8,0:0:0:0:
336,212,44601,5,8,0:0:0:0:
324,232,44676,1,0,0:0:0:0:
312,252,44751,1,8,0:0:0:0:
268,320,44901,1,0,0:0:0:0:
354,345,45051,2,0,L|268:320,1,90,8|0,0:0|0:0,0:0:0:0:
400,272,45351,2,0,P|424:232|468:216,1,90,8|0,0:0|0:0,0:0:0:0:
