osu file format v14

[General]
AudioFilename: darude - sandstorm.mp3
AudioLeadIn: 0
PreviewTime: 172768
Countdown: 1
SampleSet: None
StackLeniency: 0.7
Mode: 0
LetterboxInBreaks: 1
WidescreenStoryboard: 0

[Editor]
DistanceSpacing: 1.4
BeatDivisor: 4
GridSize: 4
TimelineZoom: 0.9

[Metadata]
Title:No Title
TitleUnicode:No Title
Artist:Reol & Giga
ArtistUnicode:Reol & Giga
Creator:Zeolith
Version:Extreme
Source:No Title -
Tags:Reol Reolch Giga-p GigaP Giga OKiku No Tilte-
BeatmapID:531009
BeatmapSetID:227946

[Difficulty]
HPDrainRate:7
CircleSize:4
OverallDifficulty:8
ApproachRate:9
SliderMultiplier:1.4
SliderTickRate:1

[Events]
//Background and Video events
0,0,"Konachan.com - 189634 amemura_(caramelo) aqua_eyes aqua_hair butterfly grass hatsune_miku leaves long_hair tie vocaloid water.jpg",0,0
//Break Periods
2,69850,76251
//Storyboard Layer 0 (Background)
//Storyboard Layer 1 (Fail)
//Storyboard Layer 2 (Pass)
//Storyboard Layer 3 (Foreground)
//Storyboard Sound Samples

[TimingPoints]
2451,300,4,2,0,15,1,0
9268,-100,4,1,0,25,0,0
9418,-80,4,1,0,30,0,0

[Colours]
Combo1 : 0,200,255
Combo2 : 0,128,0
Combo3 : 0,88,205

[HitObjects]
312,100,2451,5,2,0:0:0:0:
360,188,2901,1,0,0:0:0:0:
140,296,3351,5,0,0:0:0:0:
192,240,3501,1,2,0:0:0:0:
244,188,3651,1,0,0:0:0:0:
132,144,4101,1,2,0:0:0:0:
200,68,4401,6,0,P|252:80|356:68,1,140,2|0,0:0|0:0,0:0:0:0:
308,151,4851,2,0,P|372:192|451:204,1,140,2|0,0:0|0:0,0:0:0:0:
434,204,5301,1,2,0:0:0:0:
320,264,5601,5,0,0:0:0:0:
192,204,5901,1,0,0:0:0:0:
232,268,6051,1,2,0:0:0:0:
268,328,6201,1,0,0:0:0:0:
136,292,6501,1,2,0:0:0:0:
112,220,6801,5,0,0:0:0:0:
100,212,6951,2,0,P|64:152|56:80,1,140,2|0,0:0|0:0,0:0:0:0:
120,120,7401,2,0,L|192:84,1,70,8|0,0:0|0:0,0:0:0:0:
212,148,7701,2,0,P|280:128|368:128,1,140
272,228,8151,2,0,L|344:172,2,70,0|0|0,0:0|0:0|0:0,0:0:0:0:
216,276,8601,1,8,0:0:0:0:
240,344,8751,1,0,0:0:0:0:
288,296,8901,6,0,P|360:292|432:312,1,140
425,308,9351,1,8,0:0:0:0:
416,204,9651,1,0,0:0:0:0:
308,144,9951,1,8,0:0:0:0:
308,144,10101,1,0,0:0:0:0:
216,40,10401,1,8,0:0:0:0:
164,136,10551,1,0,0:0:0:0:
84,60,10701,1,4,0:0:0:0:
56,144,10851,5,8,0:0:0:0:
48,228,11001,1,8,0:0:0:0:
52,248,11076,1,8,0:0:0:0:
60,268,11151,2,0,P|76:308|112:352,2,87.5,0|8|0,0:0|0:0|0:0,0:0:0:0:
120,248,11601,2,0,P|160:308|192:336,1,87.5,8|0,0:0|0:0,0:0:0:0:
200,244,11901,1,0,0:0:0:0:
284,328,12051,1,8,0:0:0:0:
344,220,12201,1,0,0:0:0:0:
320,88,12351,5,0,0:0:0:0:
420,112,12501,2,0,P|440:168|464:200,1,87.5,8|0,0:0|0:0,0:0:0:0:
344,220,12801,2,0,P|308:176|260:144,1,87.5,8|0,0:0|0:0,0:0:0:0:
264,248,13101,1,0,0:0:0:0:
168,156,13251,1,8,0:0:0:0:
136,284,13401,1,0,0:0:0:0:
200,168,13551,1,0,0:0:0:0:
92,260,13701,2,0,P|64:304|48:348,2,87.5,8|0|0,0:0|0:0|0:0,0:0:0:0:
72,184,14151,2,0,P|96:144|104:84,1,87.5,8|0,0:0|0:0,0:0:0:0:
176,36,14451,5,8,0:0:0:0:
328,116,14601,1,0,0:0:0:0:
184,200,14751,1,0,0:0:0:0:
312,208,14901,2,0,P|388:200|432:208,1,87.5,8|0,0:0|0:0,0:0:0:0:
184,200,15201,2,0,P|224:236|248:284,1,87.5,0|8,0:0|0:0,0:0:0:0:
72,184,15501,2,0,P|136:156|160:128,2,87.5,0|8|0,0:0|0:0|0:0,0:0:0:0:
60,92,15951,1,8,0:0:0:0:
148,144,16101,1,0,0:0:0:0:
44,28,16251,1,8,0:0:0:0:
192,80,16551,6,0,P|252:88|316:76,1,87.5,8|0,0:0|0:0,0:0:0:0:
224,148,16851,2,0,P|272:192|288:220,2,87.5,8|0|0,0:0|0:0|0:0,0:0:0:0:
148,144,17301,1,8,0:0:0:0:
164,364,17451,2,0,P|204:280|184:204,1,175,0|8,0:0|0:0,0:0:0:0:
72,320,17901,2,0,P|140:296|144:268,2,87.5,0|8|0,0:0|0:0|0:0,0:0:0:0:
64,224,18351,1,0,0:0:0:0:
56,112,18501,1,8,0:0:0:0:
148,144,18651,1,0,0:0:0:0:
148,44,18801,1,0,0:0:0:0:
240,96,18951,1,8,0:0:0:0:
328,88,19101,6,0,P|392:68|412:32,1,87.5,0|8,0:0|0:0,0:0:0:0:
336,208,19401,2,0,P|312:160|260:140,1,87.5,0|0,0:0|0:0,0:0:0:0:
364,316,19701,2,0,P|384:256|436:224,2,87.5,8|0|0,0:0|0:0|0:0,0:0:0:0:
216,328,20151,2,0,P|284:308|312:264,1,87.5,8|0,0:0|0:0,0:0:0:0:
116,224,20451,1,0,0:0:0:0:
224,256,20601,1,8,0:0:0:0:
224,256,20676,1,0,0:0:0:0:
224,256,20751,1,8,0:0:0:0:
224,256,20901,6,0,P|216:196|200:168,1,87.5,8|0,0:0|0:0,0:0:0:0:
80,128,21201,1,8,0:0:0:0:
116,224,21351,1,8,0:0:0:0:
304,80,21801,5,0,0:0:0:0:
304,80,21951,2,0,P|360:120|392:232,1,175,8|0,0:0|0:0,0:0:0:0:
280,176,22551,1,0,0:0:0:0:
340,248,22701,2,0,L|432:272,1,87.5,8|0,0:0|0:0,0:0:0:0:
272,304,23001,2,0,L|168:308,2,87.5,0|8|0,0:0|0:0|0:0,0:0:0:0:
228,240,23451,2,0,L|44:204,1,175,0|8,0:0|0:0,0:0:0:0:
228,240,24051,1,0,0:0:0:0:
180,176,24201,2,0,L|144:92,1,87.5,8|0,0:0|0:0,0:0:0:0:
304,136,24651,5,8,0:0:0:0:
304,136,24951,1,0,0:0:0:0:
420,136,25251,2,0,L|460:232,1,87.5,8|0,0:0|0:0,0:0:0:0:
356,212,25551,2,0,L|312:296,1,87.5,8|0,0:0|0:0,0:0:0:0:
304,136,25851,2,0,L|208:136,1,87.5,0|8,0:0|0:0,0:0:0:0:
356,212,26151,2,0,L|152:248,1,175,0|8,0:0|0:0,0:0:0:0:
80,220,26601,6,0,L|172:144,1,87.5,0|8,0:0|0:0,0:0:0:0:
40,128,26901,1,0,0:0:0:0:
200,104,27051,1,0,0:0:0:0:
144,268,27201,1,8,0:0:0:0:
256,184,27351,2,0,L|352:104,1,87.5
308,240,27651,2,0,L|232:308,2,87.5,8|0|0,0:0|0:0|0:0,0:0:0:0:
424,232,28101,1,8,0:0:0:0:
332,336,28251,1,0,0:0:0:0:
452,352,28401,1,0,0:0:0:0:
308,240,28551,2,0,P|384:164|408:96,1,175,8|0,0:0|0:0,0:0:0:0:
288,136,29001,6,0,L|188:208,1,87.5,8|0,0:0|0:0,0:0:0:0:
120,248,29301,1,8,0:0:0:0:
96,136,29451,1,0,0:0:0:0:
216,188,29601,1,0,0:0:0:0:
192,68,29751,1,8,0:0:0:0:
288,136,29901,2,0,P|328:164|392:172,1,87.5
352,304,30201,1,8,0:0:0:0:
344,264,30276,1,0,0:0:0:0:
328,228,30351,1,8,0:0:0:0:
288,136,30501,5,8,0:0:0:0:
192,68,30651,1,0,0:0:0:0:
96,136,30801,1,0,0:0:0:0:
120,248,30951,2,0,P|184:312|280:324,1,175,8|0,0:0|0:0,0:0:0:0:
196,176,31401,6,0,L|192:52,1,87.5,8|0,0:0|0:0,0:0:0:0:
288,136,31701,2,0,P|364:108|460:112,1,175,8|0,0:0|0:0,0:0:0:0:
384,192,32151,1,8,0:0:0:0:
196,176,32301,2,0,P|292:244|352:312,1,175,0|8,0:0|0:0,0:0:0:0:
224,292,32751,2,0,P|176:288|112:264,1,87.5,0|8,0:0|0:0,0:0:0:0:
72,192,33051,1,0,0:0:0:0:
116,80,33201,2,0,P|172:52|232:40,1,87.5,0|8,0:0|0:0,0:0:0:0:
352,80,33501,6,0,P|316:168|312:264,1,175,0|8,0:0|0:0,0:0:0:0:
412,160,33951,2,0,P|448:92|448:56,1,87.5,0|8,0:0|0:0,0:0:0:0:
460,236,34251,2,0,P|428:296|424:336,1,87.5,0|8,0:0|0:0,0:0:0:0:
312,312,34551,1,0,0:0:0:0:
208,308,34701,2,0,P|156:224|64:184,1,175,8|0,0:0|0:0,0:0:0:0:
100,288,35151,1,8,0:0:0:0:
228,176,35301,2,0,P|208:120|164:76,1,87.5,0|0,0:0|0:0,0:0:0:0:
88,44,35601,1,0,0:0:0:0:
224,176,35751,1,8,0:0:0:0:
229,26,35901,6,0,P|296:82|336:160,1,175,8|0,0:0|0:0,0:0:0:0:
400,240,36351,2,0,P|428:168|432:116,1,87.5,0|8,0:0|0:0,0:0:0:0:
408,328,36651,2,0,P|460:284|480:244,1,87.5,0|8,0:0|0:0,0:0:0:0:
324,296,36951,1,0,0:0:0:0:
236,328,37101,2,0,P|140:268|108:184,1,175,8|0,0:0|0:0,0:0:0:0:
216,224,37551,2,0,B|252:196|264:236|324:204,1,87.5,0|8,0:0|0:0,0:0:0:0:
136,104,37851,2,0,B|99:126|87:86|51:114,1,87.5,0|8,0:0|0:0,0:0:0:0:
176,164,38151,1,0,0:0:0:0:
272,148,38301,6,0,P|348:128|480:136,1,175,8|0,0:0|0:0,0:0:0:0:
296,272,38751,2,0,P|356:224|368:192,1,87.5,0|8,0:0|0:0,0:0:0:0:
176,244,39051,2,0,P|220:284|224:324,1,87.5,0|8,0:0|0:0,0:0:0:0:
52,232,39351,1,0,0:0:0:0:
128,320,39501,1,8,0:0:0:0:
92,160,39651,1,0,0:0:0:0:
176,244,39801,1,0,0:0:0:0:
192,264,39876,1,0,0:0:0:0:
204,280,39951,1,8,0:0:0:0:
152,104,40101,1,0,0:0:0:0:
304,176,40251,2,0,P|236:152|204:108,1,87.5,8|0,0:0|0:0,0:0:0:0:
380,288,40551,2,0,P|308:268|272:268,1,87.5
408,220,40851,6,0,P|376:148|392:48,1,175,8|0,0:0|0:0,0:0:0:0:
456,128,41301,1,8,0:0:0:0:
304,176,41451,1,0,0:0:0:0:
304,76,41601,2,0,P|248:84|196:72,1,87.5,8|0,0:0|0:0,0:0:0:0:
408,220,41901,2,0,P|352:240|212:240,1,175,8|0,0:0|0:0,0:0:0:0:
84,228,42351,2,0,P|128:260|152:304,1,87.5,0|8,0:0|0:0,0:0:0:0:
120,148,42651,2,0,P|144:96|184:52,1,87.5,0|8,0:0|0:0,0:0:0:0:
304,76,42951,1,0,0:0:0:0:
304,176,43101,6,0,P|236:240|168:284,1,175,8|0,0:0|0:0,0:0:0:0:
308,280,43551,2,0,P|364:232|404:212,1,87.5,0|8,0:0|0:0,0:0:0:0:
241,236,43851,2,0,P|169:260|133:252,1,87.5,0|8,0:0|0:0,0:0:0:0:
120,148,44151,1,0,0:0:0:0:
240,236,44301,1,8,0:0:0:0:
248,88,44451,1,8,0:0:0:0:
240,240,44601,1,0,0:0:0:0:
120,148,44751,1,8,0:0:0:0:
360,144,44901,2,0,P|328:188|312:240,2,87.5,0|8|0,0:0|0:0|0:0,0:0:0:0:
360,144,45351,6,0,P|288:168|188:132,1,175,0|8,0:0|0:0,0:0:0:0:
240,232,45801,2,0,P|316:300|320:312,1,87.5,0|0,0:0|0:0,0:0:0:0:
176,296,46101,2,0,P|144:264|128:212,1,87.5,8|0,0:0|0:0,0:0:0:0:
308,284,46401,2,0,L|412:272,1,87.5,8|0,0:0|0:0,0:0:0:0:
200,164,46701,1,8,0:0:0:0:
308,284,46851,1,0,0:0:0:0:
200,164,47001,2,0,L|144:96,1,87.5,0|8,0:0|0:0,0:0:0:0:
108,256,47301,2,0,L|108:152,1,87.5,0|8,0:0|0:0,0:0:0:0:
200,164,47601,5,0,0:0:0:0:
312,136,47751,1,0,0:0:0:0:
288,252,47901,1,0,0:0:0:0:
176,280,48051,1,8,0:0:0:0:
56,144,48351,5,0,0:0:0:0:
40,248,48501,1,8,0:0:0:0:
200,164,48801,5,0,0:0:0:0:
256,56,48951,1,8,0:0:0:0:
424,148,49251,5,8,0:0:0:0:
420,164,49326,1,0,0:0:0:0:
416,180,49401,2,8,P|396:252|360:280,1,87.5,8|8,0:0|0:0,0:0:0:0:
280,308,49701,2,0,P|200:292|160:300,1,87.5,0|8,0:0|0:0,0:0:0:0:
172,304,50001,1,0,0:0:0:0:
148,316,50151,1,8,0:0:0:0:
124,328,50301,1,0,0:0:0:0:
60,216,50451,6,0,P|152:176|216:100,1,175,8|2,0:0|0:0,0:0:0:0:
192,232,50901,2,0,P|304:196|360:204,1,175,8|2,0:0|0:0,0:0:0:0:
272,64,51351,1,8,0:0:0:0:
358,203,51501,1,0,0:0:0:0:
272,64,51651,2,0,P|200:88|80:92,1,175,8|2,0:0|0:0,0:0:0:0:
358,203,52101,2,0,L|292:268,1,87.5,8|0,0:0|0:0,0:0:0:0:
124,320,52401,1,2,0:0:0:0:
296,264,52551,1,8,0:0:0:0:
168,160,52701,1,2,0:0:0:0:
358,203,52851,6,0,P|400:136|428:40,1,175,8|2,0:0|0:0,0:0:0:0:
168,160,53301,2,0,P|104:220|56:292,1,175,8|2,0:0|0:0,0:0:0:0:
296,264,53751,1,0,0:0:0:0:
312,80,53901,2,0,L|368:160,1,87.5,10|0,0:0|0:0,0:0:0:0:
168,160,54201,2,0,L|84:104,2,87.5,2|8|0,0:0|0:0|0:0,0:0:0:0:
296,264,54651,2,0,L|408:328,2,87.5,10|0|2,0:0|0:0|0:0,0:0:0:0:
160,296,55101,5,0,0:0:0:0:
128,216,55251,1,8,0:0:0:0:
212,228,55401,1,2,0:0:0:0:
160,296,55551,1,0,0:0:0:0:
88,144,55701,1,8,0:0:0:0:
260,160,55851,1,2,0:0:0:0:
160,296,56001,1,8,0:0:0:0:
176,152,56151,1,0,0:0:0:0:
160,296,56301,1,2,0:0:0:0:
332,148,56451,2,0,L|432:132,2,87.5,8|2|0,0:0|0:0|0:0,0:0:0:0:
288,228,56901,2,8,L|468:200,1,175,10|8,0:0|0:0,0:0:0:0:
272,312,57351,5,2,0:0:0:0:
448,276,57501,1,0,0:0:0:0:
272,312,57651,1,8,0:0:0:0:
120,248,57801,1,2,0:0:0:0:
240,156,57951,1,0,0:0:0:0:
240,308,58101,1,8,0:0:0:0:
104,224,58251,1,0,0:0:0:0:
260,140,58401,1,8,0:0:0:0:
212,304,58551,1,2,0:0:0:0:
164,128,58701,5,0,0:0:0:0:
184,300,58851,1,0,0:0:0:0:
160,108,59001,1,10,0:0:0:0:
160,84,59076,1,0,0:0:0:0:
164,60,59151,1,8,0:0:0:0:
248,108,59301,6,0,P|292:120|360:104,1,87.5,8|0,0:0|0:0,0:0:0:0:
372,184,59601,2,8,P|284:208|176:200,1,175,8|8,0:0|0:0,0:0:0:0:
112,148,60051,2,0,P|200:96|292:80,1,175,8|2,0:0|0:0,0:0:0:0:
200,204,60501,2,0,P|140:276|68:320,1,175,8|2,0:0|0:0,0:0:0:0:
300,296,60951,2,0,L|372:224,1,87.5,8|2,0:0|0:0,0:0:0:0:
200,204,61251,2,0,L|112:236,2,87.5,8|0|2,0:0|0:0|0:0,0:0:0:0:
320,120,61701,1,8,0:0:0:0:
104,88,61851,5,2,0:0:0:0:
44,240,62001,1,0,0:0:0:0:
104,88,62151,1,8,0:0:0:0:
44,240,62301,1,2,0:0:0:0:
200,204,62451,2,0,P|296:208|384:248,1,175,8|2,0:0|0:0,0:0:0:0:
200,204,62901,2,0,P|264:140|364:104,1,175,8|2,0:0|0:0,0:0:0:0:
296,208,63351,2,0,P|236:272|208:288,1,87.5,0|10,0:0|0:0,0:0:0:0:
340,108,63651,2,0,P|368:68|416:36,1,87.5,0|2,0:0|0:0,0:0:0:0:
200,204,63951,2,0,P|160:224|104:228,1,87.5,8|0,0:0|0:0,0:0:0:0:
396,192,64251,2,0,L|488:192,1,87.5,8|2,0:0|0:0,0:0:0:0:
236,272,64551,2,0,L|356:272,1,87.5,8|0,0:0|0:0,0:0:0:0:
152,276,64851,6,0,P|84:248|56:120,1,175,8|2,0:0|0:0,0:0:0:0:
200,204,65301,2,0,L|324:204,1,87.5,8|0,0:0|0:0,0:0:0:0:
140,140,65601,1,10,0:0:0:0:
256,136,65751,1,0,0:0:0:0:
76,64,65901,1,0,0:0:0:0:
192,60,66051,1,8,0:0:0:0:
76,64,66201,1,2,0:0:0:0:
192,60,66351,2,0,P|268:44|304:40,1,87.5,0|8,0:0|0:0,0:0:0:0:
140,140,66651,2,0,B|204:140|252:144|256:144,1,87.5,2|8,0:0|0:0,0:0:0:0:
376,152,66951,5,0,0:0:0:0:
227,142,67101,1,2,0:0:0:0:
376,152,67251,1,8,0:0:0:0:
228,224,67551,5,2,0:0:0:0:
380,228,67701,1,8,0:0:0:0:
200,308,68001,5,2,0:0:0:0:
48,288,68151,1,8,0:0:0:0:
200,308,68301,1,0,0:0:0:0:
48,288,68451,1,8,0:0:0:0:
128,204,68601,1,10,0:0:0:0:
140,188,68676,1,8,0:0:0:0:
152,172,68751,1,0,0:0:0:0:
176,148,68901,6,0,P|208:108|248:72,2,87.5,8|0|0,0:0|0:0|0:0,0:0:0:0:
264,164,69351,2,0,P|324:100|400:56,1,175,8|2,0:0|0:0,0:0:0:0:
376,96,76851,5,0,0:0:0:0:
352,216,77151,5,0,0:0:0:0:
380,244,77301,1,8,0:0:0:0:
140,144,77601,5,0,0:0:0:0:
112,116,77751,1,8,0:0:0:0:
84,88,77901,1,8,0:0:0:0:
84,88,77976,1,0,0:0:0:0:
84,88,78051,1,8,0:0:0:0:
84,88,78201,2,0,P|64:164|72:200,1,87.5,8|0,0:0|0:0,0:0:0:0:
196,116,78501,2,0,P|212:72|212:24,1,87.5,8|0,0:0|0:0,0:0:0:0:
196,116,78801,2,0,P|224:184|304:248,1,175,8|0,0:0|0:0,0:0:0:0:
304,156,79251,6,0,P|376:196|492:208,1,175,8|0,0:0|0:0,0:0:0:0:
384,120,79701,2,0,P|336:80|300:68,1,87.5,8|0,0:0|0:0,0:0:0:0:
304,156,80001,2,0,P|312:216|332:268,1,87.5,0|8,0:0|0:0,0:0:0:0:
384,344,80301,1,0,0:0:0:0:
320,240,80451,1,8,0:0:0:0:
248,344,80601,2,0,L|196:236,1,87.5
144,340,80901,1,8,0:0:0:0:
68,184,81051,2,0,L|108:276,1,87.5
152,184,81351,5,8,0:0:0:0:
228,184,81501,2,0,L|272:264,1,87.5,0|8,0:0|0:0,0:0:0:0:
152,184,81801,2,0,L|116:100,1,87.5,0|0,0:0|0:0,0:0:0:0:
200,112,82101,2,0,L|240:24,1,87.5,8|0,0:0|0:0,0:0:0:0:
152,184,82401,1,0,0:0:0:0:
192,256,82551,2,0,L|148:356,1,87.5,8|0,0:0|0:0,0:0:0:0:
272,272,82851,2,0,L|312:164,1,87.5,8|0,0:0|0:0,0:0:0:0:
344,296,83151,1,0,0:0:0:0:
444,288,83301,2,0,L|356:296,1,87.5,8|0,0:0|0:0,0:0:0:0:
432,188,83601,5,0,0:0:0:0:
340,156,83751,2,0,P|356:112|352:64,1,87.5
264,184,84051,1,8,0:0:0:0:
128,112,84201,2,0,P|176:136|184:184,1,87.5
112,40,84501,1,8,0:0:0:0:
116,184,84651,2,0,P|120:256|100:300,1,87.5
40,224,84951,1,8,0:0:0:0:
184,256,85101,2,0,P|240:260|304:280,1,87.5,0|8,0:0|0:0,0:0:0:0:
264,184,85401,2,0,L|148:168,1,87.5,0|0,0:0|0:0,0:0:0:0:
344,192,85701,1,8,0:0:0:0:
312,120,85851,2,0,L|212:108,1,87.5,0|0,0:0|0:0,0:0:0:0:
344,192,86151,5,0,0:0:0:0:
296,256,86301,2,0,L|240:332,1,87.5,0|8,0:0|0:0,0:0:0:0:
376,328,86601,1,0,0:0:0:0:
184,256,86751,2,0,L|256:168,1,87.5,0|8,0:0|0:0,0:0:0:0:
116,192,87051,1,0,0:0:0:0:
240,188,87201,2,0,L|360:188,1,87.5,0|8,0:0|0:0,0:0:0:0:
116,192,87501,2,0,L|200:120,1,87.5,0|8,0:0|0:0,0:0:0:0:
184,256,87801,5,0,0:0:0:0:
96,284,87951,1,0,0:0:0:0:
116,192,88101,1,8,0:0:0:0:
184,256,88251,2,0,L|184:360,1,87.5,0|8,0:0|0:0,0:0:0:0:
116,192,88551,2,0,L|200:124,1,87.5,8|0,0:0|0:0,0:0:0:0:
344,152,88851,5,8,0:0:0:0:
320,284,89001,1,0,0:0:0:0:
440,232,89151,1,0,0:0:0:0:
320,284,89301,2,0,P|256:324|208:328,1,87.5,8|0,0:0|0:0,0:0:0:0:
264,220,89601,2,0,P|312:200|368:200,1,87.5,0|8,0:0|0:0,0:0:0:0:
184,264,89901,1,0,0:0:0:0:
116,192,90051,2,0,P|172:152|184:100,2,87.5,8|0|0,0:0|0:0|0:0,0:0:0:0:
40,200,90501,2,0,P|68:104|164:64,1,175,8|0,0:0|0:0,0:0:0:0:
116,192,90951,2,0,L|88:288,1,87.5,0|0,0:0|0:0,0:0:0:0:
136,68,91251,5,8,0:0:0:0:
272,140,91401,1,0,0:0:0:0:
232,48,91551,1,0,0:0:0:0:
356,116,91701,2,0,L|436:180,2,87.5,8|0|0,0:0|0:0|0:0,0:0:0:0:
420,256,92151,2,0,L|332:184,1,87.5,8|0,0:0|0:0,0:0:0:0:
328,276,92451,2,0,L|256:220,1,87.5,8|0,0:0|0:0,0:0:0:0:
272,336,92751,1,0,0:0:0:0:
160,240,92901,2,0,L|236:304,1,87.5,8|0,0:0|0:0,0:0:0:0:
120,312,93201,5,0,0:0:0:0:
272,336,93351,1,0,0:0:0:0:
160,240,93501,1,0,0:0:0:0:
272,336,93651,2,0,L|368:336,1,87.5,8|0,0:0|0:0,0:0:0:0:
412,272,93951,1,0,0:0:0:0:
312,272,94101,2,0,L|196:272,1,87.5,8|0,0:0|0:0,0:0:0:0:
280,188,94401,1,0,0:0:0:0:
160,240,94551,2,0,L|64:240,1,87.5,8|0,0:0|0:0,0:0:0:0:
120,172,94851,2,0,L|196:104,1,87.5,8|0,0:0|0:0,0:0:0:0:
68,120,95151,1,0,0:0:0:0:
208,184,95301,2,0,L|292:104,1,87.5,8|0,0:0|0:0,0:0:0:0:
312,272,95601,5,0,0:0:0:0:
428,228,95751,1,0,0:0:0:0:
332,160,95901,1,0,0:0:0:0:
440,116,96051,2,0,L|416:24,1,87.5,8|0,0:0|0:0,0:0:0:0:
256,116,96351,2,0,L|348:168,1,87.5,0|8,0:0|0:0,0:0:0:0:
208,184,96651,1,0,0:0:0:0:
144,324,96801,2,0,L|144:216,1,87.5,0|8,0:0|0:0,0:0:0:0:
220,304,97101,1,0,0:0:0:0:
312,324,97251,5,8,0:0:0:0:
312,324,97326,1,0,0:0:0:0:
312,324,97401,1,8,0:0:0:0:
312,324,97551,2,0,P|352:280|356:240,1,87.5,0|8,0:0|0:0,0:0:0:0:
208,184,97851,2,0,P|248:220|288:224,1,87.5,0|8,0:0|0:0,0:0:0:0:
128,184,98151,2,0,L|168:272,1,87.5,0|8,0:0|0:0,0:0:0:0:
56,220,98451,5,8,0:0:0:0:
124,336,98601,1,0,0:0:0:0:
192,232,98751,2,0,P|256:232|284:208,1,87.5,0|8,0:0|0:0,0:0:0:0:
252,104,99051,1,0,0:0:0:0:
352,200,99201,1,0,0:0:0:0:
252,104,99351,2,0,L|136:84,1,87.5,8|0,0:0|0:0,0:0:0:0:
400,132,99651,5,8,0:0:0:0:
252,104,99801,1,0,0:0:0:0:
432,208,99951,2,0,P|464:264|476:328,1,87.5,0|8,0:0|0:0,0:0:0:0:
360,336,100251,1,0,0:0:0:0:
352,200,100401,2,0,P|320:256|264:280,1,87.5,8|0,0:0|0:0,0:0:0:0:
180,308,100701,1,8,0:0:0:0:
176,176,100851,6,0,L|92:96,1,87.5
120,244,101151,1,0,0:0:0:0:
232,240,101301,2,0,P|300:256|344:276,1,87.5,8|0,0:0|0:0,0:0:0:0:
264,164,101601,1,0,0:0:0:0:
176,176,101751,2,0,L|68:176,1,87.5,8|0,0:0|0:0,0:0:0:0:
56,336,102051,1,8,0:0:0:0:
120,244,102201,1,0,0:0:0:0:
156,344,102351,2,0,L|212:268,1,87.5,0|8,0:0|0:0,0:0:0:0:
56,336,102651,1,0,0:0:0:0:
208,272,102801,1,0,0:0:0:0:
332,344,102951,6,0,L|436:344,1,87.5,8|0,0:0|0:0,0:0:0:0:
300,268,103251,1,8,0:0:0:0:
440,288,103401,1,0,0:0:0:0:
308,184,103551,2,0,L|204:120,1,87.5,0|8,0:0|0:0,0:0:0:0:
384,204,103851,2,0,P|360:120|304:52,1,175,0|8,0:0|0:0,0:0:0:0:
300,268,104301,5,0,0:0:0:0:
440,288,104451,1,8,0:0:0:0:
384,204,104601,2,0,L|328:92,1,87.5
396,352,104901,1,8,0:0:0:0:
308,184,105051,2,0,P|208:140|116:140,1,175,0|8,0:0|0:0,0:0:0:0:
96,240,105501,5,0,0:0:0:0:
180,340,105651,2,0,L|156:236,1,87.5,8|0,0:0|0:0,0:0:0:0:
232,264,105951,2,0,L|248:160,1,87.5,0|8,0:0|0:0,0:0:0:0:
292,348,106251,6,0,L|272:160,1,175,0|8,0:0|0:0,0:0:0:0:
372,300,106851,5,0,0:0:0:0:
324,224,107001,1,8,0:0:0:0:
312,232,107076,1,0,0:0:0:0:
300,240,107151,1,8,0:0:0:0:
332,216,107301,2,0,P|392:160|404:64,1,175,0|8,0:0|0:0,0:0:0:0:
405,71,107751,1,0,0:0:0:0:
304,96,108051,6,0,P|200:104|132:144,1,175,8|0,0:0|0:0,0:0:0:0:
220,192,108501,1,8,0:0:0:0:
120,264,108651,2,0,L|220:272,1,87.5
88,184,108951,1,8,0:0:0:0:
196,332,109101,2,0,L|320:352,1,87.5,0|8,0:0|0:0,0:0:0:0:
