osu file format v13

[General]
AudioFilename: gashou01.mp3
AudioLeadIn: 0
PreviewTime: 3120
Countdown: 0
SampleSet: None
StackLeniency: 0.7
Mode: 3
LetterboxInBreaks: 0
SpecialStyle: 0
WidescreenStoryboard: 1

[Editor]
Bookmarks: 22470,41670,51270,60870
DistanceSpacing: 1
BeatDivisor: 4
GridSize: 8
TimelineZoom: 1.1

[Metadata]
Title:Gasei Sozai sono 1
TitleUnicode:賀正素材その1
Artist:Rengoku Teien
ArtistUnicode:煉獄庭園
Creator:Sky_Demon
Version:NM
Source:Rainy Keelung
Tags:雨港基隆 林明華 galgame BGM
BeatmapID:502962
BeatmapSetID:214038

[Difficulty]
HPDrainRate:7
CircleSize:4
OverallDifficulty:7
ApproachRate:5
SliderMultiplier:1.4
SliderTickRate:1

[Events]
//Background and Video events
0,0,"011155551.jpg",0,0
//Break Periods
//Storyboard Layer 0 (Background)
//Storyboard Layer 1 (Fail)
//Storyboard Layer 2 (Pass)
//Storyboard Layer 3 (Foreground)
//Storyboard Sound Samples

[TimingPoints]
870,600,4,3,1,29,1,0
60870,-100,4,3,1,29,0,1
80070,-100,4,3,1,29,0,0

[HitObjects]
64,192,870,5,0,2:0:0:0:
448,192,870,1,0,2:0:0:0:
320,192,1170,1,0,2:0:0:0:
192,192,1320,1,0,2:0:0:0:
64,192,1470,1,8,1:0:0:0:
448,192,1620,1,0,2:0:0:0:
192,192,1920,1,0,2:0:0:0:
320,192,2070,1,0,2:0:0:0:
448,192,2220,1,8,1:0:0:0:
448,192,2370,1,8,1:0:0:0:
64,192,2520,1,0,2:0:0:0:
320,192,2670,1,8,1:0:0:0:
320,192,2820,1,8,1:0:0:0:
192,192,2970,1,0,2:0:0:0:
64,192,3120,1,0,0:0:0:0:
448,192,3270,1,0,0:0:0:0:
320,192,3270,1,0,0:0:0:0:
192,192,3420,1,0,0:0:0:0:
64,192,3570,1,0,0:0:0:0:
320,192,3870,1,8,1:0:0:0:
192,192,4020,1,0,2:0:0:0:
192,192,4320,1,0,2:0:0:0:
320,192,4470,1,0,2:0:0:0:
448,192,4620,1,0,2:0:0:0:
64,192,4770,1,0,2:0:0:0:
448,192,5070,1,8,1:0:0:0:
64,192,5220,1,0,2:0:0:0:
64,192,5520,1,0,2:0:0:0:
448,192,5670,1,0,2:0:0:0:
320,192,5820,1,0,2:0:0:0:
192,192,5970,1,0,2:0:0:0:
64,192,6270,1,8,1:0:0:0:
320,192,6420,1,0,2:0:0:0:
320,192,6720,1,0,2:0:0:0:
192,192,6870,1,0,2:0:0:0:
64,192,7020,1,0,2:0:0:0:
64,192,7320,1,0,2:0:0:0:
64,192,7620,1,0,2:0:0:0:
64,192,7920,1,0,2:0:0:0:
192,192,8070,1,0,2:0:0:0:
448,192,8220,1,0,2:0:0:0:
320,192,8370,1,0,2:0:0:0:
64,192,8670,1,8,1:0:0:0:
320,192,8820,1,0,2:0:0:0:
448,192,9120,1,0,2:0:0:0:
64,192,9270,1,0,2:0:0:0:
320,192,9420,1,0,2:0:0:0:
192,192,9570,1,0,2:0:0:0:
192,192,9870,1,8,1:0:0:0:
320,192,10020,1,0,2:0:0:0:
448,192,10320,1,0,2:0:0:0:
320,192,10470,1,0,2:0:0:0:
192,192,10620,1,0,2:0:0:0:
64,192,10770,1,0,2:0:0:0:
448,192,11070,1,8,1:0:0:0:
192,192,11220,1,0,2:0:0:0:
192,192,11520,1,0,2:0:0:0:
448,192,11670,1,0,2:0:0:0:
64,192,11820,1,0,2:0:0:0:
192,192,12120,1,0,2:0:0:0:
320,192,12420,1,0,2:0:0:0:
64,192,12720,1,0,2:0:0:0:
448,192,12870,1,0,2:0:0:0:
320,192,12870,1,0,2:0:0:0:
192,192,13020,1,0,2:0:0:0:
64,192,13170,1,0,2:0:0:0:
320,192,13470,1,8,1:0:0:0:
448,192,13620,1,0,2:0:0:0:
320,192,13920,1,0,2:0:0:0:
192,192,14070,1,0,2:0:0:0:
64,192,14220,1,0,2:0:0:0:
192,192,14370,1,0,2:0:0:0:
64,192,14670,1,8,1:0:0:0:
320,192,14820,1,0,2:0:0:0:
320,192,15120,1,0,2:0:0:0:
64,192,15270,1,0,2:0:0:0:
192,192,15420,1,0,2:0:0:0:
320,192,15570,1,0,2:0:0:0:
64,192,15870,1,8,1:0:0:0:
448,192,16020,1,0,2:0:0:0:
448,192,16320,1,0,2:0:0:0:
320,192,16470,1,0,2:0:0:0:
192,192,16620,1,0,2:0:0:0:
192,192,16920,1,0,2:0:0:0:
192,192,17220,1,0,2:0:0:0:
192,192,17520,1,0,2:0:0:0:
448,192,17670,1,0,2:0:0:0:
64,192,17820,1,0,2:0:0:0:
192,192,17970,1,0,2:0:0:0:
448,192,18270,1,8,1:0:0:0:
192,192,18420,1,0,2:0:0:0:
192,192,18720,1,0,2:0:0:0:
448,192,18870,1,0,2:0:0:0:
320,192,19020,1,0,2:0:0:0:
192,192,19170,1,0,2:0:0:0:
64,192,19470,1,8,1:0:0:0:
192,192,19620,1,0,2:0:0:0:
448,192,19920,1,0,2:0:0:0:
320,192,20070,1,0,2:0:0:0:
192,192,20220,1,0,2:0:0:0:
64,192,20370,1,0,2:0:0:0:
448,192,20670,1,8,1:0:0:0:
192,192,20820,1,0,2:0:0:0:
192,192,21120,1,0,2:0:0:0:
320,192,21270,1,0,2:0:0:0:
448,192,21420,1,0,2:0:0:0:
320,192,21720,1,0,2:0:0:0:
192,192,22020,1,0,2:0:0:0:
64,192,22320,1,0,2:0:0:0:
448,192,22470,1,4,2:0:0:0:
320,192,22470,1,4,2:0:0:0:
192,192,22770,1,0,2:0:0:0:
192,192,22920,1,0,0:0:0:0:
448,192,23070,1,8,1:0:0:0:
192,192,23370,1,0,2:0:0:0:
320,192,23670,1,0,2:0:0:0:
64,192,23970,1,0,0:0:0:0:
192,192,24270,1,8,1:0:0:0:
320,192,24570,1,0,0:0:0:0:
64,192,24720,1,0,0:0:0:0:
320,192,24870,1,0,0:0:0:0:
192,192,25170,1,0,0:0:0:0:
448,192,25470,1,8,1:0:0:0:
320,192,25770,1,0,0:0:0:0:
64,192,26070,1,0,2:0:0:0:
192,192,26370,1,0,0:0:0:0:
320,192,26670,1,8,1:0:0:0:
448,192,26970,1,0,0:0:0:0:
64,192,27270,1,0,2:0:0:0:
320,192,27570,1,0,0:0:0:0:
320,192,27720,1,0,0:0:0:0:
192,192,27870,1,8,1:0:0:0:
64,192,28170,1,0,0:0:0:0:
448,192,28470,1,0,0:0:0:0:
192,192,28770,1,0,0:0:0:0:
192,192,28920,1,0,0:0:0:0:
320,192,29070,1,8,1:0:0:0:
64,192,29370,1,0,0:0:0:0:
448,192,29520,1,0,2:0:0:0:
64,192,29670,1,0,0:0:0:0:
192,192,29970,1,0,2:0:0:0:
448,192,30120,1,0,0:0:0:0:
64,192,30270,1,8,1:0:0:0:
192,192,30570,1,0,0:0:0:0:
320,192,30870,1,0,0:0:0:0:
448,192,31170,1,0,0:0:0:0:
64,192,31470,1,8,1:0:0:0:
192,192,31770,1,0,0:0:0:0:
448,192,32070,1,4,2:0:0:0:
64,192,32070,1,4,2:0:0:0:
192,192,32370,1,0,2:0:0:0:
192,192,32520,1,0,0:0:0:0:
320,192,32670,1,8,1:0:0:0:
192,192,32970,1,0,0:0:0:0:
320,192,33270,1,0,0:0:0:0:
64,192,33570,1,0,0:0:0:0:
192,192,33870,1,8,1:0:0:0:
320,192,34170,1,0,2:0:0:0:
64,192,34320,1,0,0:0:0:0:
320,192,34470,1,0,0:0:0:0:
448,192,34770,1,0,0:0:0:0:
64,192,35070,1,8,1:0:0:0:
320,192,35370,1,0,0:0:0:0:
192,192,35670,1,0,0:0:0:0:
64,192,35970,1,0,0:0:0:0:
320,192,36270,1,8,1:0:0:0:
448,192,36570,1,0,0:0:0:0:
64,192,36870,1,0,0:0:0:0:
320,192,37170,1,0,0:0:0:0:
320,192,37320,1,0,2:0:0:0:
192,192,37470,1,8,1:0:0:0:
64,192,37770,1,0,0:0:0:0:
448,192,38070,1,0,0:0:0:0:
320,192,38370,1,0,2:0:0:0:
320,192,38520,1,0,0:0:0:0:
64,192,38670,1,8,1:0:0:0:
192,192,38970,1,0,2:0:0:0:
320,192,39120,1,0,0:0:0:0:
64,192,39270,1,0,0:0:0:0:
64,192,39570,1,0,0:0:0:0:
448,192,39870,1,8,1:0:0:0:
320,192,39870,1,0,0:0:0:0:
64,192,40170,1,0,0:0:0:0:
448,192,40470,1,0,0:0:0:0:
64,192,40620,1,0,2:0:0:0:
192,192,40620,1,8,1:0:0:0:
448,192,41070,1,8,1:0:0:0:
320,192,41070,1,0,0:0:0:0:
192,192,41370,1,8,1:0:0:0:
192,192,41520,1,8,1:0:0:0:
64,192,41670,1,0,2:0:0:0:
448,192,41670,1,0,2:0:0:0:
448,192,41970,1,0,0:0:0:0:
192,192,42270,1,0,0:0:0:0:
448,192,42570,1,0,0:0:0:0:
64,192,42870,1,0,0:0:0:0:
320,192,43470,1,0,0:0:0:0:
64,192,43620,1,0,0:0:0:0:
448,192,43770,1,0,0:0:0:0:
192,192,43920,1,0,0:0:0:0:
320,192,44070,1,0,0:0:0:0:
192,192,44670,1,0,0:0:0:0:
448,192,44970,1,0,2:0:0:0:
64,192,44970,1,0,0:0:0:0:
320,192,45270,1,0,0:0:0:0:
192,192,45270,1,0,0:0:0:0:
320,192,45870,1,0,0:0:0:0:
448,192,45870,1,0,0:0:0:0:
192,192,46170,1,0,0:0:0:0:
64,192,46170,1,0,0:0:0:0:
320,192,46470,1,0,2:0:0:0:
448,192,46770,1,0,0:0:0:0:
64,192,47070,1,0,0:0:0:0:
448,192,47370,1,0,0:0:0:0:
320,192,47670,1,0,0:0:0:0:
64,192,47670,1,0,0:0:0:0:
192,192,48270,1,0,0:0:0:0:
448,192,48270,1,0,0:0:0:0:
320,192,48570,1,0,0:0:0:0:
320,192,48870,1,0,0:0:0:0:
64,192,48870,1,0,0:0:0:0:
64,192,49470,1,0,0:0:0:0:
448,192,50070,1,0,0:0:0:0:
64,192,50370,1,8,1:0:0:0:
192,192,50370,1,4,2:0:0:0:
448,192,50670,1,0,0:0:0:0:
64,192,50820,1,8,1:0:0:0:
192,192,50820,1,4,2:0:0:0:
320,192,51120,1,8,1:0:0:0:
64,192,51270,1,4,2:0:0:0:
448,192,51270,1,4,2:0:0:0:
64,192,51570,1,0,2:0:0:0:
320,192,51870,1,8,1:0:0:0:
448,192,51870,1,0,2:0:0:0:
192,192,52170,1,0,2:0:0:0:
64,192,52470,1,0,2:0:0:0:
448,192,53070,1,8,1:0:0:0:
320,192,53070,1,0,0:0:0:0:
64,192,53220,1,0,0:0:0:0:
448,192,53370,1,0,0:0:0:0:
64,192,53520,1,0,0:0:0:0:
448,192,53670,1,0,0:0:0:0:
448,192,54270,1,0,2:0:0:0:
64,192,54270,1,0,0:0:0:0:
320,192,54570,1,0,0:0:0:0:
192,192,54870,1,0,2:0:0:0:
192,192,55470,1,0,2:0:0:0:
64,192,55470,1,0,0:0:0:0:
448,192,55770,1,0,2:0:0:0:
320,192,55770,1,0,0:0:0:0:
64,192,56070,1,0,2:0:0:0:
192,192,56370,1,0,2:0:0:0:
448,192,56670,1,8,1:0:0:0:
64,192,56670,1,0,2:0:0:0:
320,192,56970,1,0,2:0:0:0:
192,192,57270,1,0,2:0:0:0:
192,192,57570,1,0,2:0:0:0:
448,192,57720,1,0,0:0:0:0:
192,192,57870,1,0,0:0:0:0:
64,192,57870,1,8,1:0:0:0:
320,192,58170,1,0,0:0:0:0:
448,192,58470,1,0,2:0:0:0:
448,192,59070,1,8,1:0:0:0:
64,192,59070,1,0,2:0:0:0:
448,192,59670,1,4,0:0:0:0:
320,192,59970,1,4,2:0:0:0:
64,192,59970,1,0,2:0:0:0:
192,192,60270,1,4,2:0:0:0:
64,192,60420,1,0,2:0:0:0:
448,192,60420,1,8,1:0:0:0:
64,192,60720,1,8,1:0:0:0:
448,192,60720,1,0,2:0:0:0:
320,192,60870,1,4,2:0:0:0:
192,192,60870,1,0,0:0:0:0:
448,192,61020,1,0,0:0:0:0:
64,192,61170,1,0,2:0:0:0:
320,192,61470,1,8,1:0:0:0:
64,192,61620,1,0,2:0:0:0:
64,192,61920,1,0,2:0:0:0:
192,192,62070,1,0,2:0:0:0:
320,192,62220,1,0,2:0:0:0:
448,192,62370,1,0,2:0:0:0:
192,192,62670,1,8,1:0:0:0:
448,192,62820,1,0,2:0:0:0:
448,192,63120,1,0,2:0:0:0:
64,192,63270,1,0,2:0:0:0:
192,192,63420,1,0,2:0:0:0:
320,192,63570,1,0,2:0:0:0:
64,192,63870,1,8,1:0:0:0:
448,192,64020,1,0,2:0:0:0:
192,192,64320,1,0,2:0:0:0:
320,192,64470,1,0,2:0:0:0:
448,192,64620,1,0,2:0:0:0:
448,192,64920,1,0,2:0:0:0:
448,192,65220,1,0,2:0:0:0:
448,192,65520,1,0,2:0:0:0:
320,192,65670,1,0,2:0:0:0:
192,192,65820,1,0,2:0:0:0:
64,192,65970,1,0,2:0:0:0:
448,192,66270,1,8,1:0:0:0:
320,192,66420,1,0,2:0:0:0:
64,192,66720,1,0,2:0:0:0:
192,192,66870,1,0,2:0:0:0:
320,192,67020,1,0,2:0:0:0:
448,192,67170,1,0,2:0:0:0:
64,192,67470,1,8,1:0:0:0:
192,192,67620,1,0,2:0:0:0:
64,192,67920,1,0,2:0:0:0:
192,192,68070,1,0,2:0:0:0:
320,192,68220,1,0,2:0:0:0:
448,192,68370,1,0,2:0:0:0:
64,192,68670,1,8,1:0:0:0:
320,192,68820,1,0,2:0:0:0:
320,192,69120,1,0,2:0:0:0:
192,192,69270,1,0,2:0:0:0:
448,192,69420,1,0,2:0:0:0:
192,192,69720,1,0,2:0:0:0:
320,192,70020,1,0,2:0:0:0:
320,192,70320,1,0,2:0:0:0:
448,192,70470,1,4,2:0:0:0:
64,192,70470,1,4,2:0:0:0:
320,192,70620,1,0,2:0:0:0:
192,192,70770,1,0,2:0:0:0:
64,192,71070,1,8,1:0:0:0:
320,192,71220,1,0,2:0:0:0:
320,192,71520,1,0,2:0:0:0:
64,192,71670,1,0,2:0:0:0:
192,192,71820,1,0,2:0:0:0:
320,192,71970,1,0,2:0:0:0:
64,192,72270,1,8,1:0:0:0:
448,192,72420,1,0,2:0:0:0:
192,192,72720,1,0,2:0:0:0:
448,192,72870,1,0,2:0:0:0:
320,192,73020,1,0,2:0:0:0:
192,192,73170,1,0,2:0:0:0:
448,192,73470,1,8,1:0:0:0:
320,192,73620,1,0,2:0:0:0:
64,192,73920,1,0,2:0:0:0:
192,192,74070,1,0,2:0:0:0:
320,192,74220,1,0,2:0:0:0:
320,192,74520,1,0,2:0:0:0:
320,192,74820,1,0,2:0:0:0:
320,192,75120,1,0,2:0:0:0:
64,192,75270,1,0,2:0:0:0:
192,192,75420,1,0,2:0:0:0:
320,192,75570,1,0,2:0:0:0:
64,192,75870,1,8,1:0:0:0:
320,192,76020,1,0,2:0:0:0:
64,192,76320,1,0,2:0:0:0:
192,192,76470,1,0,2:0:0:0:
320,192,76620,1,0,2:0:0:0:
448,192,76770,1,0,2:0:0:0:
64,192,77070,1,8,1:0:0:0:
448,192,77220,1,0,2:0:0:0:
448,192,77520,1,0,2:0:0:0:
320,192,77670,1,0,2:0:0:0:
192,192,77820,1,0,2:0:0:0:
64,192,77970,1,0,2:0:0:0:
64,192,78270,1,8,1:0:0:0:
448,192,78420,1,0,2:0:0:0:
448,192,78720,1,0,2:0:0:0:
320,192,78870,1,0,2:0:0:0:
64,192,79020,1,0,2:0:0:0:
192,192,79020,1,8,1:0:0:0:
448,192,79170,1,8,1:0:0:0:
320,192,79170,1,0,2:0:0:0:
320,192,79470,1,8,1:0:0:0:
192,192,79470,1,0,2:0:0:0:
64,192,79770,1,0,2:0:0:0:
448,192,79770,1,8,1:0:0:0:
192,192,79920,1,0,2:0:0:0:
320,192,79920,1,8,1:0:0:0:
64,192,80070,128,0,82470:0:0:0:0:
