osu file format v9

[General]
AudioFilename: Mienai Nanika ni obieru Yotu.mp3
AudioLeadIn: 0
PreviewTime: 48037
Countdown: 0
SampleSet: Soft
StackLeniency: 0.3
Mode: 0
LetterboxInBreaks: 1

[Editor]
Bookmarks: 14212,45412,63712,86812,106162,108037,124387
DistanceSpacing: 0.8
BeatDivisor: 2
GridSize: 8

[Metadata]
Title:Mienai Namikani Obieru Yoru
Artist:Rengoku Kozou
Creator:BinJip
Version:Normal
Source:Higurashi no Naku Koro ni
Tags:samiljul

[Difficulty]
HPDrainRate:4
CircleSize:3
OverallDifficulty:4
ApproachRate:4
SliderMultiplier:0.999999999999999
SliderTickRate:0.5

[Events]
//Background and Video events
0,0,"naver_com_20110205_231716.jpg"
//Break Periods
2,88737,106717
//Storyboard Layer 0 (Background)
//Storyboard Layer 1 (Fail)
//Storyboard Layer 2 (Pass)
//Storyboard Layer 3 (Foreground)
//Storyboard Sound Samples
//Background Colour Transformations
3,100,163,162,255

[TimingPoints]
2437,300,4,2,1,50,1,0
48037,-100,4,2,1,50,0,1
66037,-100,4,2,1,49,0,0
127237,-100,4,2,1,49,0,1
145237,-100,4,2,1,49,0,0

[Colours]
Combo1 : 128,255,128
Combo2 : 255,128,128
Combo3 : 255,255,128

[HitObjects]
80,128,9187,2,8,B|152:128,1,50
128,208,9637,2,0,B|128:288|128:288|192:328|192:328|344:328,1,300,0|8
416,328,10837,2,0,B|416:136,2,150,0|0|8
328,320,12037,2,0,B|224:200,1,150
392,160,12937,1,0
384,72,13237,6,0,B|256:72|256:72|192:16|192:16|64:16,1,300,0|8
104,96,14437,2,0,B|104:224|104:224|48:288|48:288|48:416,1,300,0|8
120,352,15637,6,0,B|200:256|200:256|288:256|288:256|368:184,1,300,0|8
360,120,16837,2,0,B|320:120|320:120|320:72|320:72|272:72|272:72|272:128|272:128|224:128|224:128|224:64,1,300,0|8
144,64,18037,2,0,B|136:64|136:64|136:72|136:72|144:72|144:72|144:80|144:80|136:80|136:80|136:88|136:88|144:88|144:88|144:96|144:96|136:96|136:96|136:104|136:104|144:104|144:104|144:112|144:112|136:112|136:112|136:120|136:120|144:120|144:120|144:128|144:128|136:128|136:128|136:136|136:136|144:136|144:136|144:144|144:144|136:144|136:144|136:152|136:152|144:152|144:152|144:160|144:160|136:160|136:160|144:160,1,200,8|0
136,240,18937,1,8
208,272,19237,6,2,B|256:272|256:272|384:104|384:104|440:104,1,300,10|2
432,16,20437,2,0,B|328:16|328:16|208:176,1,300,8|0
128,176,21637,2,0,B|56:176|56:176|56:264,2,150,8|0|0
136,256,22837,6,0,B|184:256|184:256|184:320|184:320|256:320|256:320|256:256|256:256|312:256,1,300,8|0
312,176,24037,2,0,B|360:176|360:176|360:144|360:144|408:144|408:144|408:112|408:112|472:112|472:112|472:88|472:88|528:88,1,300,8|0
512,8,25237,2,0,B|392:8|392:8|240:112,1,300,8|0
160,112,26437,2,0,B|32:112|32:112|32:288,1,300,8|0
32,360,27637,2,0,B|184:360,2,150,8|0|0
24,264,28837,5,8
104,264,29137,1,8
104,184,29437,2,0,B|104:88,1,50
104,48,29887,1,0
184,48,30187,2,0,B|248:48,1,50
232,168,30787,6,0,B|232:216|232:216|272:248|272:248|272:304,1,150,0|8
352,296,31537,1,8
432,296,31837,1,8
432,256,31987,2,0,B|432:208|432:208|416:208|416:208|376:208,1,99.9999999999999
144,208,33187,5,8
104,208,33337,2,0,B|0:208,1,99.9999999999999
8,128,33937,1,0
8,48,34237,2,0,B|72:48,1,50
136,80,34687,1,0
232,152,35137,5,0
296,200,35437,1,0
360,152,35737,1,0
368,72,36037,2,0,B|208:72|208:72|176:40|176:40|64:40,1,300,8|0
80,120,37237,1,8
80,240,37687,5,8
80,320,37987,1,8
120,320,38137,2,0,B|224:320,1,99.9999999999999
224,240,38737,1,0
304,240,39037,2,0,B|368:240,1,50
432,240,39487,2,0,B|432:192|432:192|392:160|392:160|392:104,1,150
264,104,40387,6,0,B|104:104,1,150,8|0
112,184,41137,1,0
112,264,41437,2,0,B|56:264,1,50
40,184,41887,2,0,B|40:120|40:120|112:64|112:64|112:16,1,200,8|0
192,24,42787,6,0,B|352:24,1,150,0|8
344,104,43537,1,0
344,184,43837,2,0,B|344:256,1,50
424,248,44287,2,0,B|424:336|424:336|208:336|208:336|208:392,1,350
128,360,45637,1,8
200,264,46087,5,0
80,264,46537,1,0
80,184,46837,1,8
200,184,47287,1,0
272,88,47737,1,0
344,48,48037,6,0,B|344:56|344:56|352:56|352:56|352:48|352:48|360:48|360:48|360:56|360:56|368:56|368:56|368:48|368:48|376:48|376:48|376:56|376:56|384:56|384:56|384:48|384:48|392:48|392:48|392:56|392:56|400:56|400:56|400:48|400:48|408:48|408:48|408:56|408:56|416:56|416:56|416:48|416:48|424:48|424:48|424:56|424:56|432:56|432:56|432:48|432:48|440:48|440:48|440:56|440:56|448:56|448:56|448:48|448:48|456:48|456:48|456:56|456:56|456:64|456:64|448:64|448:64|448:72|448:72|456:72|456:72|456:80|456:80|448:80|448:80|448:88|448:88|456:88|456:88|456:96|456:96,1,300,8|0
456,176,49237,2,0,B|456:240|456:240|384:240|384:240|384:272|384:272|320:272|320:272|320:320|320:320|280:320,1,300,8|0
224,328,50437,2,0,B|224:264|224:264|152:264|152:264|152:232|152:232|88:232|88:232|88:184|88:184|48:184,1,300,8|0
64,104,51637,2,0,B|64:48|64:48|296:48|296:48|296:8,1,300,8|0
376,40,52837,6,0,B|376:120|376:120|384:120|384:120|384:128|384:128|376:128|376:128|376:200|376:200|368:200|368:200|368:208|368:208|376:208|376:208|376:312,1,300,8|0
296,312,54037,2,0,B|288:312|288:312|288:304|288:304|280:304|280:304|280:312|280:312|280:320|280:320|280:328|280:328|280:336|280:336|272:336|272:336|272:328|272:328|272:320|272:320|48:320,1,300,8|0
48,240,55237,2,0,B|48:208|48:208|96:184|96:184|96:160|96:160|144:144|144:144|144:128|144:128|200:104|200:104|200:88|200:88|248:64,1,300,8|0
320,72,56437,2,0,B|432:72,1,99.9999999999999,8|0
424,152,57037,1,8
424,232,57337,1,8
384,304,57637,6,0,B|384:296|384:296|392:296|392:296|392:304|392:304|400:304|400:304|400:296|400:296|408:296|408:296|408:304|408:304|416:304|416:304|416:296|416:296|424:296|424:296|424:304|424:304|432:304|432:304|432:296|432:296|440:296|440:296|440:304|440:304|448:304|448:304|448:296|448:296|456:296|456:296|456:304|456:304|464:304|464:304|464:296|464:296|472:296|472:296|472:304|472:304|480:304|480:304|480:296|480:296|488:296|488:296|488:304|488:304|496:304|496:304|496:296|496:296|496:288|496:288|488:288|488:288|488:280|488:280|496:280|496:280|496:272|496:272|488:272|488:272|488:264|488:264|496:264|496:264|496:256|496:256,1,300,8|0
496,176,58837,2,0,B|496:112|496:112|424:112|424:112|424:80|424:80|360:80|360:80|360:32|360:32|320:32,1,300,8|0
264,32,60037,2,0,B|264:96|264:96|192:96|192:96|192:128|192:128|128:128|128:128|128:176|128:176|88:176,1,300,8|0
104,256,61237,2,0,B|104:312|104:312|336:312|336:312|336:352,1,300,8|0
416,320,62437,6,0,B|416:240|416:240|424:240|424:240|424:232|424:232|416:232|416:232|416:160|416:160|408:160|408:160|408:152|408:152|416:152|416:152|416:48,1,300,8|0
336,48,63637,2,0,B|328:48|328:48|328:56|328:56|320:56|320:56|320:48|320:48|320:40|320:40|320:32|320:32|320:24|320:24|312:24|312:24|312:32|312:32|312:40|312:40|88:40,1,300,8|0
96,120,64837,2,0,B|128:168,1,50,8|0
200,160,65287,1,0
280,160,65587,2,0,B|304:224,1,50
376,208,66037,1,8
344,80,66937,6,0,B|416:80,1,50,0|8
400,160,67387,2,0,B|400:216,1,50,0|8
400,288,67837,2,0,B|344:288,1,50,0|8
272,288,68287,6,0,B|208:288|208:288|184:256|184:256|120:256,2,150,8|0|0
272,208,69487,2,0,B|272:56,2,150,8|0|0
264,288,70687,2,0,B|384:336,3,99.9999999999999,8|0|0|0
432,312,71887,6,0,B|432:288|432:288|424:288|424:288|424:280|424:280|432:280|432:280|432:248|432:248|440:248|440:248|440:240|440:240|432:240|432:240|432:200|432:200|424:200|424:200|424:192|424:192|432:192|432:192|432:152|432:152|440:152|440:152|440:144|440:144|432:144|432:144|432:104|432:104|424:104|424:104|424:96|424:96|432:96|432:96|432:88,1,300,8|0
352,88,73087,2,0,B|48:88,1,300,8|0
56,168,74287,2,0,B|64:168|64:168|56:176|56:176|64:176|64:176|56:184|56:184|64:184|64:184|56:192|56:192|64:192|64:192|56:200|56:200|64:200|64:200|56:208|56:208|64:208|64:208|56:216|56:216|64:216|64:216|56:224|56:224|64:224|64:224|56:232|56:232|64:232|64:232|56:240|56:240|64:240|64:240|56:248|56:248|64:248|64:248|56:256|56:256|64:256|64:256|56:264|56:264|64:264|64:264|56:272|56:272|64:272|64:272|56:280|56:280|64:280|64:280|56:288|56:288|64:288|64:288|56:296|56:296|64:296|64:296|56:304|56:304|64:304|64:304|56:312|56:312|64:312|64:312,1,350,8|8
136,312,75637,2,0,B|216:312|216:312|216:208|216:208|264:208,1,200
232,128,76537,6,0,B|176:128,1,50,0|8
64,128,77137,1,0
64,208,77437,2,0,B|64:264,1,50,0|8
64,336,77887,6,0,B|128:336|128:336|160:296|160:296|232:296,2,150,0|0|8
64,256,79087,2,0,B|64:192|64:192|24:160|24:160|24:88,2,150,0|0|8
144,256,80287,2,0,B|256:256,3,99.9999999999999,0|0|0|8
240,176,81487,6,0,B|240:112|240:112|200:80|200:80|200:8,2,150,0|0|8
320,176,82687,2,0,B|320:240|320:240|360:272|360:272|360:344,2,150,0|0|8
400,176,83887,2,8,B|408:176|408:176|400:168|400:168|408:168|408:168|400:160|400:160|408:160|408:160|400:152|400:152|408:152|408:152|400:144|400:144|408:144|408:144|400:136|400:136|408:136|408:136|400:128|400:128|408:128|408:128|400:120|400:120|408:120|408:120|400:112|400:112|408:112|408:112|400:104|400:104|408:104|408:104|400:96|400:96|408:96|408:96|400:88|400:88|408:88|408:88|400:80|400:80|408:80|408:80|400:72|400:72|408:72|408:72|400:64|400:64|408:64|408:64|400:56|400:56|408:56|408:56|400:48|400:48|408:48|408:48|400:40|400:40|408:40|408:40|400:32|400:32|408:32|408:32,1,350
320,32,85237,2,0,B|280:32,14,25,8|0|0|0|0|0|0|0|0|0|0|0|0|0|0
256,192,86587,8,12,88537
488,120,108037,5,8
408,120,108337,1,8
408,200,108637,2,0,B|408:296,1,50
408,336,109087,1,0
328,336,109387,2,0,B|264:336,1,50
280,216,109987,6,0,B|280:168|280:168|240:136|240:136|240:80,1,150,0|8
160,88,110737,1,8
80,88,111037,1,8
80,128,111187,2,0,B|80:176|80:176|96:176|96:176|136:176,1,99.9999999999999
368,176,112387,5,8
408,176,112537,2,0,B|512:176,1,99.9999999999999
504,256,113137,1,0
504,336,113437,2,0,B|440:336,1,50
376,304,113887,1,0
280,232,114337,5,0
216,184,114637,1,0
152,232,114937,1,0
152,312,115237,2,0,B|312:312|312:312|344:344|344:344|456:344,1,300,8|0
440,264,116437,1,8
440,144,116887,5,8
440,64,117187,1,8
400,64,117337,2,0,B|296:64,1,99.9999999999999
296,144,117937,1,0
216,144,118237,2,0,B|152:144,1,50
88,144,118687,2,0,B|88:192|88:192|128:224|128:224|128:280,1,150
248,280,119587,6,0,B|408:280,1,150,8|0
400,200,120337,1,0
400,120,120637,2,0,B|456:120,1,50
472,200,121087,2,0,B|472:264|472:264|400:320|400:320|400:368,1,200,8|0
320,360,121987,6,0,B|160:360,1,150,0|8
168,280,122737,1,0
168,200,123037,2,0,B|168:128,1,50
88,144,123487,2,0,B|88:56|88:56|304:56|304:56|304:0,1,350
384,32,124837,1,8
320,128,125287,5,0
440,128,125737,1,0
408,200,126037,1,8
288,208,126487,1,0
280,336,126937,1,0
168,336,127237,6,0,B|168:328|168:328|160:328|160:328|160:336|160:336|152:336|152:336|152:328|152:328|144:328|144:328|144:336|144:336|136:336|136:336|136:328|136:328|128:328|128:328|128:336|128:336|120:336|120:336|120:328|120:328|112:328|112:328|112:336|112:336|104:336|104:336|104:328|104:328|96:328|96:328|96:336|96:336|88:336|88:336|88:328|88:328|80:328|80:328|80:336|80:336|72:336|72:336|72:328|72:328|64:328|64:328|64:336|64:336|56:336|56:336|56:328|56:328|56:320|56:320|64:320|64:320|64:312|64:312|56:312|56:312|56:304|56:304|64:304|64:304|64:296|64:296|56:296|56:296|56:288|56:288,1,300,8|0
56,208,128437,2,0,B|56:144|56:144|128:144|128:144|128:112|128:112|192:112|192:112|192:64|192:64|232:64,1,300,8|0
288,56,129637,2,0,B|288:120|288:120|360:120|360:120|360:152|360:152|424:152|424:152|424:200|424:200|464:200,1,300,8|0
448,280,130837,2,0,B|448:336|448:336|216:336|216:336|216:376,1,300,8|0
136,344,132037,6,0,B|136:264|136:264|128:264|128:264|128:256|128:256|136:256|136:256|136:184|136:184|144:184|144:184|144:176|144:176|136:176|136:176|136:72,1,300,8|0
216,72,133237,2,0,B|224:72|224:72|224:80|224:80|232:80|232:80|232:72|232:72|232:64|232:64|232:56|232:56|232:48|232:48|240:48|240:48|240:56|240:56|240:64|240:64|464:64,1,300,8|0
464,144,134437,2,0,B|464:176|464:176|416:200|416:200|416:224|416:224|368:240|368:240|368:256|368:256|312:280|312:280|312:296|312:296|264:320,1,300,8|0
192,312,135637,2,0,B|80:312,1,99.9999999999999,8|0
88,232,136237,1,8
88,152,136537,1,8
128,80,136837,6,0,B|128:88|128:88|120:88|120:88|120:80|120:80|112:80|112:80|112:88|112:88|104:88|104:88|104:80|104:80|96:80|96:80|96:88|96:88|88:88|88:88|88:80|88:80|80:80|80:80|80:88|80:88|72:88|72:88|72:80|72:80|64:80|64:80|64:88|64:88|56:88|56:88|56:80|56:80|48:80|48:80|48:88|48:88|40:88|40:88|40:80|40:80|32:80|32:80|32:88|32:88|24:88|24:88|24:80|24:80|16:80|16:80|16:88|16:88|16:96|16:96|24:96|24:96|24:104|24:104|16:104|16:104|16:112|16:112|24:112|24:112|24:120|24:120|16:120|16:120|16:128|16:128,1,300,8|0
16,208,138037,2,0,B|16:272|16:272|88:272|88:272|88:304|88:304|152:304|152:304|152:352|152:352|192:352,1,300,8|0
248,352,139237,2,0,B|248:288|248:288|320:288|320:288|320:256|320:256|384:256|384:256|384:208|384:208|424:208,1,300,8|0
408,128,140437,2,0,B|408:72|408:72|176:72|176:72|176:32,1,300,8|0
96,64,141637,6,0,B|96:144|96:144|88:144|88:144|88:152|88:152|96:152|96:152|96:224|96:224|104:224|104:224|104:232|104:232|96:232|96:232|96:336,1,300,8|0
176,336,142837,2,0,B|184:336|184:336|184:328|184:328|192:328|192:328|192:336|192:336|192:344|192:344|192:352|192:352|192:360|192:360|200:360|200:360|200:352|200:352|200:344|200:344|424:344,1,300,8|0
416,264,144037,2,0,B|384:216,1,50,8|0
312,224,144487,1,0
232,224,144787,2,0,B|208:160,1,50
136,176,145237,1,8
168,304,146137,6,0,B|96:304,1,50,0|8
112,224,146587,2,0,B|112:168,1,50,0|8
112,96,147037,2,0,B|168:96,1,50,0|8
240,96,147487,6,0,B|304:96|304:96|328:128|328:128|392:128,2,150,8|0|0
240,176,148687,2,0,B|240:328,2,150,8|0|0
248,96,149887,2,0,B|128:48,3,99.9999999999999,8|0|0|0
80,72,151087,6,0,B|80:96|80:96|88:96|88:96|88:104|88:104|80:104|80:104|80:136|80:136|72:136|72:136|72:144|72:144|80:144|80:144|80:184|80:184|88:184|88:184|88:192|88:192|80:192|80:192|80:232|80:232|72:232|72:232|72:240|72:240|80:240|80:240|80:280|80:280|88:280|88:280|88:288|88:288|80:288|80:288|80:296,1,300,8|0
160,296,152287,2,0,B|464:296,1,300,8|0
456,216,153487,2,0,B|448:216|448:216|456:208|456:208|448:208|448:208|456:200|456:200|448:200|448:200|456:192|456:192|448:192|448:192|456:184|456:184|448:184|448:184|456:176|456:176|448:176|448:176|456:168|456:168|448:168|448:168|456:160|456:160|448:160|448:160|456:152|456:152|448:152|448:152|456:144|456:144|448:144|448:144|456:136|456:136|448:136|448:136|456:128|456:128|448:128|448:128|456:120|456:120|448:120|448:120|456:112|456:112|448:112|448:112|456:104|456:104|448:104|448:104|456:96|456:96|448:96|448:96|456:88|456:88|448:88|448:88|456:80|456:80|448:80|448:80|456:72|456:72|448:72|448:72,1,350,8|8
376,72,154837,2,0,B|296:72|296:72|296:176|296:176|248:176,1,200
280,256,155737,6,0,B|336:256,1,50,0|8
448,256,156337,1,0
448,176,156637,2,0,B|448:120,1,50,0|8
448,48,157087,6,0,B|384:48|384:48|352:88|352:88|280:88,2,150,0|0|8
448,128,158287,2,0,B|448:192|448:192|488:224|488:224|488:296,2,150,0|0|8
368,128,159487,2,0,B|256:128,3,99.9999999999999,0|0|0|8
272,208,160687,6,0,B|272:272|272:272|312:304|312:304|312:376,2,150,0|0|8
192,208,161887,2,0,B|192:144|192:144|152:112|152:112|152:40,2,150,0|0|8
112,208,163087,2,8,B|104:208|104:208|112:216|112:216|104:216|104:216|112:224|112:224|104:224|104:224|112:232|112:232|104:232|104:232|112:240|112:240|104:240|104:240|112:248|112:248|104:248|104:248|112:256|112:256|104:256|104:256|112:264|112:264|104:264|104:264|112:272|112:272|104:272|104:272|112:280|112:280|104:280|104:280|112:288|112:288|104:288|104:288|112:296|112:296|104:296|104:296|112:304|112:304|104:304|104:304|112:312|112:312|104:312|104:312|112:320|112:320|104:320|104:320|112:328|112:328|104:328|104:328|112:336|112:336|104:336|104:336|112:344|112:344|104:344|104:344|112:352|112:352|104:352|104:352,1,350
192,352,164437,2,0,B|232:352,14,25,8|0|0|0|0|0|0|0|0|0|0|0|0|0|0
256,192,165787,8,12,167737
