osu file format v9

[General]
AudioFilename: Mienai Nanika ni obieru Yotu.mp3
AudioLeadIn: 0
PreviewTime: 48037
Countdown: 0
SampleSet: Soft
StackLeniency: 0.6
Mode: 0
LetterboxInBreaks: 1

[Editor]
Bookmarks: 28837,41437,51937,108037,121837,131437
DistanceSpacing: 1
BeatDivisor: 2
GridSize: 8

[Metadata]
Title:Mienai Namikani Obieru Yoru
Artist:Rengoku Kozou
Creator:BinJip
Version:Easy
Source:Higurashi no Naku Koro ni
Tags:samiljul

[Difficulty]
HPDrainRate:3
CircleSize:3
OverallDifficulty:3
ApproachRate:3
SliderMultiplier:0.500000005960464
SliderTickRate:1

[Events]
//Background and Video events
0,0,"naver_com_20110205_231716.jpg"
//Break Periods
2,98637,106597
//Storyboard Layer 0 (Background)
//Storyboard Layer 1 (Fail)
//Storyboard Layer 2 (Pass)
//Storyboard Layer 3 (Foreground)
//Storyboard Sound Samples
//Background Colour Transformations
3,100,163,162,255

[TimingPoints]
2437,300,4,2,1,51,1,0
48037,-100,4,2,1,50,0,1
66037,-100,4,2,1,50,0,0
127237,-100,4,2,1,50,0,1
145237,-100,4,2,1,50,0,0

[Colours]
Combo1 : 128,255,128
Combo2 : 255,128,128
Combo3 : 255,255,128

[HitObjects]
176,280,28837,5,8
256,280,29437,2,0,B|288:280|288:280|304:256|304:256|336:256,1,75.0000008940696,0|8
368,80,31237,5,8
288,80,31837,2,0,B|256:80|256:80|240:56|240:56|208:56,1,75.0000008940696,0|8
32,168,33637,6,0,B|88:240|88:240|144:240|144:240|200:280,1,200.000002384186,8|8
264,336,35437,1,0
360,336,36037,5,8
440,288,36637,5,0
440,192,37237,6,0,B|440:112,1,75.0000008940696,0|8
344,200,38437,6,0,B|288:200|288:200|248:168|248:168|176:168,1,175.000002086162,0|8
384,72,40837,2,0,B|384:136|384:136|416:160|416:160|424:160|424:240,1,175.000002086162,0|8
352,288,43237,6,0,B|464:288|464:288|496:224,1,175.000002086162,0|8
400,152,45037,1,0
304,208,45637,1,8
304,112,46237,1,8
216,152,46837,1,0
216,248,47437,1,8
312,280,48037,6,0,B|376:280|376:280|376:240|376:240|432:240|432:240|432:192|432:192|488:192|488:192|488:144|488:144,1,300.000003576278,8|8
392,120,50437,2,0,B|328:120|328:120|328:160|328:160|272:160|272:160|272:208|272:208|216:208|216:208|216:256|216:256,1,300.000003576278,8|8
208,320,52837,6,0,B|488:320,1,275.000003278255,8|0
480,192,55237,2,0,B|408:192|408:192|352:144|352:144|264:144,1,225.000002682209,8|0
200,104,57037,5,8
200,104,57337,1,8
200,104,57637,2,8,B|200:216|200:216|272:264|272:264|208:320|208:320|208:320,1,275.000003278255,8|0
88,312,60037,6,0,B|88:200|88:200|16:152|16:152|80:96|80:96|80:96,1,275.000003278255,8|0
144,72,62137,1,8
144,152,62437,2,0,B|337:154|337:154|433:242,1,300.000003576278,8|0
352,296,64837,6,0,B|544:296,1,150.000001788139,8|0
502,296,66037,1,12
440,64,66937,5,8
216,64,68287,1,0
16,64,69487,1,8
40,264,70687,6,0,B|176:336,1,150.000001788139
172,334,71887,1,8
344,232,73087,1,0
264,80,74287,6,0,B|208:80|208:80|208:128|208:128|160:128|160:128,2,150.000001788139
88,352,77437,5,8
240,216,78637,1,8
384,352,79837,1,8
384,280,80287,6,0,B|384:216|384:216|472:216|472:216|472:128|472:128,1,200.000002384186,0|8
280,64,82687,1,8
256,192,83887,12,12,86437
72,240,88837,6,0,B|144:240|144:240|200:192|200:192|272:192,1,200.000002384186,8|0
256,96,90637,1,0
352,96,91237,1,8
448,96,91837,1,0
448,192,92437,6,0,B|448:264|448:264|392:264|392:264|392:336,1,200.000002384186,8|0
288,336,94237,1,0
208,272,94837,1,8
288,208,95437,1,0
256,192,96037,12,4,98437
352,88,108037,5,8
256,88,108637,2,0,B|168:88,1,75.0000008940696,0|8
160,288,110437,5,8
256,288,111037,2,0,B|344:288,1,75.0000008940696,0|8
448,96,112837,6,0,B|384:72|384:72|312:104|312:104|264:104,1,175.000002086162,8|0
208,104,114337,1,0
112,104,114937,2,0,B|40:104,1,50.0000005960464,0|8
64,256,116137,5,8
160,304,117037,1,0
256,304,117637,1,8
416,232,118687,6,0,B|512:232|512:232|512:144|512:144,1,175.000002086162
472,120,120037,1,0
296,88,121087,2,0,B|224:88|224:88|224:128|224:128|144:128|144:128|144:128,1,175.000002086162
160,208,122437,5,8
248,160,123037,1,0
248,88,123487,2,0,B|184:88|184:88|136:120|136:120|32:120,1,225.000002682209,0|8
96,200,125437,1,0
176,256,126037,1,0
264,304,126637,1,0
352,296,127237,6,0,B|440:176|440:176|360:40,1,300.000003576278,8|0
288,112,129637,2,0,B|168:24|168:24|32:104,1,300.000003576278,8|0
40,200,132037,6,0,B|160:288|160:288|296:208,1,300.000003576278,8|0
368,144,134437,2,0,B|456:144|456:144|456:64|456:64|368:64|368:64|304:64,1,300.000003576278
224,64,136837,5,8
56,208,138037,1,0
208,344,139237,1,8
352,208,140437,1,0
424,16,141637,5,8
224,16,142837,1,0
72,152,144037,1,8
72,352,145237,1,4
256,352,146287,6,8,B|304:352|304:352|304:320|304:320|328:320|328:320|328:296|328:296|352:296|352:296|352:272|352:272|376:272|376:272|376:240|376:240|400:240|400:240|400:208|400:208|432:208|432:208|432:160,1,350.000004172325,8|0
440,128,148687,2,0,B|440:40|440:40|344:40|344:40|296:96|296:96|200:96,1,350.000004172325,0|8
152,96,151087,6,0,B|16:96|16:96|16:184|16:184|160:184|160:184|160:184,1,350.000004172325,8|0
144,232,153487,2,0,B|232:232|232:232|264:200|264:200|320:200|320:200|360:168|360:168|416:168|416:168|440:144,1,325.000003874302,8|0
440,72,155887,5,8
312,72,156637,2,0,B|224:72,1,75.0000008940696,0|8
80,248,158437,1,8
264,336,159637,5,0
360,336,160237,1,0
456,336,160837,1,8
368,152,162037,1,0
272,152,162637,1,8
176,152,163087,2,0,B|32:152|32:152|32:248|32:248|176:248,1,375.000004470348
256,192,165637,12,12,167737
