osu file format v9

[General]
AudioFilename: Renegade Masterz - Nasty Girl (Nightcore Mix).mp3
AudioLeadIn: 1996
PreviewTime: 88439
Countdown: 0
SampleSet: Soft
StackLeniency: 0.5
Mode: 0
LetterboxInBreaks: 0

[Editor]
DistanceSpacing: 0.8
BeatDivisor: 2
GridSize: 8

[Metadata]
Title:Nasty Girl (Nightcore Mix)
Artist:Renegade Masterz
Creator:ztrot
Version:Easy
Source:
Tags:trance rave DiamondCrash

[Difficulty]
HPDrainRate:2
CircleSize:3
OverallDifficulty:1
ApproachRate:3
SliderMultiplier:1.1
SliderTickRate:2

[Events]
//Background and Video events
0,0,"BG2.jpg"
//Break Periods
2,78288,85964
2,134531,142552
//Storyboard Layer 0 (Background)
//Storyboard Layer 1 (Fail)
//Storyboard Layer 2 (Pass)
//Storyboard Layer 3 (Foreground)
//Storyboard Sound Samples
//Background Colour Transformations
3,100,163,162,255

[TimingPoints]
453,345.04653328734,4,1,1,54,1,0
10890,-100,4,1,2,55,0,0
20983,-100,4,1,2,55,0,0
22885,-100,4,2,1,56,0,0
24433,-100,4,2,0,55,0,0
25813,-100,4,2,0,45,0,0
27194,-100,4,2,0,34,0,0
28574,-100,4,2,0,26,0,0
29954,-100,4,2,0,15,0,0
31334,-100,4,2,0,25,0,0
32714,-100,4,2,0,35,0,0
32973,-100,4,2,0,45,0,0
33146,-100,4,1,0,55,0,0
33318,-100,4,1,0,55,0,0
33491,-100,4,1,0,55,0,0
33663,-100,4,1,0,54,0,0
34095,-100,4,1,1,55,0,0
34698,-100,4,1,1,35,0,0
35216,-100,4,1,1,55,0,0
36079,-100,4,1,1,35,0,0
36596,-100,4,1,1,55,0,0
43842,-166.666666666667,4,1,0,55,0,0
44360,-100,4,1,1,56,0,0
54021,-100,4,1,2,55,0,0
55487,-100,4,1,1,55,0,0
87059,-100,4,1,2,55,0,0
88698,-100,4,1,1,56,0,0
104312,-100,4,1,2,55,0,0
111207,-100,4,2,0,55,0,0
123203,-100,4,2,1,55,0,0
142612,-100,4,1,2,56,0,0
145200,-100,4,1,1,55,0,0
178324,-100,4,2,1,55,0,0

[Colours]
Combo1 : 196,0,196
Combo2 : 98,0,196
Combo3 : 170,170,0
Combo4 : 140,0,0

[HitObjects]
256,72,453,6,0,B|232:16|152:16|120:72,2,165,0|0|8
192,128,1833,2,0,B|216:184|296:184|328:128,2,165,0|0|8
256,72,3213,2,0,B|286:19|366:19|390:75,2,165,0|0|8
328,128,4593,6,0,B|351:258|249:288|162:255|184:128,1,330
96,128,5973,6,0,B|96:296,2,165,0|0|8
168,80,7353,2,0,B|344:80,2,165,0|0|8
168,168,8734,2,0,B|336:168,2,165,0|0|8
168,256,10114,5,4
336,256,10804,2,0,B|264:256,2,55,0|8|8
400,200,11494,5,4
256,96,12184,1,8
112,200,12874,1,0
112,200,13219,1,8
112,200,13564,1,8
160,32,14254,6,0,B|256:128|368:24,1,220,0|8
352,208,15635,6,0,B|256:112|144:216,1,220,0|8
304,296,17015,6,0,B|424:352|488:224,1,220,0|8
208,296,18395,6,0,B|88:352|24:224,1,220,0|8
173,131,19775,6,0,B|349:131,2,165,4|0|4
144,216,21155,5,0
256,352,21845,1,0
368,216,22535,1,0
256,104,23226,6,0,B|152:104|112:200|152:312|256:312,1,330
256,208,24606,2,0,B|360:208|400:112|360:0|256:0,1,330
256,104,25986,2,0,B|152:104|112:200|152:312|256:312,1,330
344,312,27366,6,0,B|447:311|487:215|447:103|345:104,1,330
352,192,28746,2,0,B|312:248|312:248|288:192|256:272|256:272|224:192|208:248|208:248|152:192,1,330
165,104,30127,2,0,B|64:103|24:215|64:311|168:312,1,330
152,224,31507,2,0,B|209:166|209:166|225:222|257:142|257:142|289:222|313:166|313:166|353:222,1,330
338,308,32887,6,0,B|162:308,2,165
338,220,34267,2,0,B|164:220,2,165
340,132,35647,2,0,B|404:123|444:187|427:248,2,165
256,104,37027,2,0,B|216:168|160:96|112:192,1,165,4|0
304,272,38408,6,0,B|480:272,2,165,0|0|4
208,272,39788,2,0,B|40:272,2,165,0|0|4
174,185,41168,2,0,B|350:185,2,165,0|0|4
173,97,42548,2,0,B|341:97,1,165
256,200,43928,6,0,B|256:272,1,66.0000015735627
344,312,44618,6,0,B|328:368|272:344|256:328|256:328|240:344|184:368|168:312,2,220
256,160,46689,1,0
256,160,47034,1,0
168,88,47379,6,0,B|184:32|240:56|256:72|256:72|272:56|328:32|344:88,2,220
256,240,49449,1,0
416,184,50139,6,0,B|416:304,1,110,4|0
336,256,50829,2,0,B|336:144,1,110,4|0
256,112,51519,2,0,B|256:232,1,110,4|0
176,256,52209,2,0,B|176:144,1,110,4|0
96,184,52900,2,0,B|96:304,1,110
96,296,53590,1,0
256,360,54280,5,8
208,288,54625,1,0
304,288,54970,1,8
304,200,55315,1,0
208,200,55660,6,0,B|80:200|24:88,2,220,4|0|4
256,32,57730,1,0
296,112,58075,1,0
304,200,58420,2,0,B|432:200|488:88,2,220,4|0|4
208,176,61181,6,0,B|80:176|24:288,2,220,2|0|2
256,344,63251,1,0
296,264,63596,1,0
304,176,63941,2,0,B|432:176|488:288,2,220,2|0|2
171,335,66701,6,0,B|171:271|115:247,1,110,0|8
76,337,67392,2,0,B|20:313|24:249,1,110,0|8
71,174,68082,2,0,B|123:146|178:175,1,110,2|2
224,248,68772,2,0,B|229:311|170:335,1,110,0|2
126,257,69462,1,2
304,280,70152,5,2
208,280,70497,1,0
256,208,70842,1,2
342,49,71532,5,0
342,49,71877,1,0
341,49,72222,2,0,B|341:113|397:137,1,110,2|8
436,47,72913,2,0,B|492:71|488:135,1,110,0|8
441,210,73603,2,0,B|389:238|334:209,1,110,2|2
288,136,74293,2,0,B|284:72|343:48,1,110,0|2
386,127,74983,1,2
312,288,75673,5,2
256,216,76018,1,0
200,288,76363,1,6
304,144,77053,5,0
208,144,77398,1,0
256,312,78088,1,4
256,192,87404,5,0
256,192,87749,1,8
256,192,88094,1,0
256,192,88439,1,8
256,288,88784,6,0,B|280:344|360:344|392:288,2,165,0|0|8
320,224,90164,2,0,B|296:168|216:168|184:224,2,165,0|0|8
256,280,91544,2,0,B|226:333|146:333|122:277,2,165,0|0|8
184,224,92924,6,0,B|161:94|263:64|350:97|328:224,1,330
416,224,94304,6,0,B|416:56,2,165,0|0|8
344,272,95684,2,0,B|168:272,2,165,4|0|8
344,184,97065,2,0,B|176:184,2,165,4|0|8
344,96,98445,5,4
176,96,99135,2,0,B|248:96,2,55,0|8|8
112,152,99825,5,4
256,256,100515,1,8
400,152,101205,1,0
400,152,101550,1,8
400,152,101895,1,8
352,320,102585,6,0,B|256:224|144:328,1,220,0|8
160,144,103966,6,0,B|256:240|368:136,1,220,0|8
208,56,105346,6,0,B|88:0|24:128,1,220,0|8
304,56,106726,6,0,B|424:0|488:128,1,220,0|8
339,221,108106,6,0,B|163:221,2,165,4|0|4
368,136,109486,5,2
256,0,110176,1,2
144,136,110866,1,2
336,104,111557,6,0,B|336:280,2,165,0|0|2
256,64,112938,2,0,B|256:240,2,165,0|0|2
176,104,114318,2,0,B|176:280,2,165,0|0|2
176,16,115698,2,0,B|344:16,1,165
256,216,117078,6,0,B|88:216,2,165,0|0|2
256,128,118458,2,0,B|440:128,2,165,0|0|2
256,216,119839,2,0,B|80:216,2,165,0|0|2
256,304,121219,2,0,B|432:304,1,165
360,96,122599,6,0,B|256:32|248:144|152:88,1,220,0|8
256,184,123807,1,8
96,336,124669,5,8
96,336,125187,1,8
96,160,125877,1,0
96,160,126049,1,8
232,160,126567,1,8
416,336,127430,5,8
416,336,127947,1,8
416,160,128637,1,0
416,160,128810,1,8
288,160,129327,1,8
256,376,130190,5,8
256,240,130708,1,8
256,240,130880,1,0
256,104,131398,6,0,B|344:104|392:208,1,165,0|0
328,264,132260,2,0,B|256:336|168:256,1,165
208,48,133640,5,2
256,120,133986,1,0
304,48,134331,1,4
256,80,143992,5,4
256,80,144337,1,4
256,80,144682,1,4
256,80,145027,1,4
304,184,145372,6,0,B|432:184|488:296,2,220
256,352,147442,1,0
216,272,147787,1,0
208,184,148132,2,0,B|80:184|24:296,2,220
304,208,150893,6,0,B|432:208|488:96,2,220,4|0|0
256,40,152963,1,0
216,120,153308,1,0
208,208,153653,2,0,B|80:208|24:96,2,220
341,49,156413,6,0,B|341:113|397:137,1,110,2|8
436,47,157104,2,0,B|492:71|488:135,1,110,0|8
441,210,157794,2,0,B|389:238|334:209,1,110,2|2
288,136,158484,2,0,B|283:73|342:49,1,110,2|8
386,127,159174,1,2
208,104,159864,5,0
304,104,160209,1,0
256,176,160554,1,4
170,335,161244,5,0
170,335,161589,1,0
171,335,161934,2,0,B|171:271|115:247,1,110,2|8
76,337,162625,2,0,B|20:313|24:249,1,110,2|8
71,174,163315,2,0,B|123:146|178:175,1,110,2|2
224,248,164005,2,0,B|228:312|169:336,1,110,2|8
126,257,164695,1,2
312,288,165385,5,0
256,216,165730,1,0
200,288,166075,1,0
208,144,166765,5,0
304,144,167110,1,0
344,64,167455,6,0,B|328:8|272:32|256:48|256:48|240:32|184:8|168:64,2,220,4|0|0
256,216,169526,1,0
256,216,169871,1,0
168,288,170216,6,0,B|184:344|240:320|256:304|256:304|272:320|328:344|344:288,2,220
256,136,172286,1,0
416,192,172976,6,0,B|416:72,1,110,0|8
336,120,173666,2,0,B|336:232,1,110,0|8
256,264,174356,2,0,B|256:144,1,110,0|8
176,120,175046,2,0,B|176:232,1,110,0|8
96,192,175737,2,0,B|96:72,1,110
96,80,176427,1,0
256,16,177117,5,4
208,88,177462,1,4
304,88,177807,1,4
304,176,178152,1,4
256,344,178842,5,4
256,344,179532,1,4
256,168,180222,1,4
256,168,180912,1,4
256,344,181602,1,4
256,192,182292,12,4,184017
