osu file format v14

[General]
AudioFilename: Renard - BEST OF LAPFOX VOL 1- Because Maybe! - 16 Dear Spark.mp3
AudioLeadIn: 0
PreviewTime: 60000
Countdown: 1
SampleSet: Normal
StackLeniency: 0.7
Mode: 0
LetterboxInBreaks: 1
WidescreenStoryboard: 1

[Editor]
DistanceSpacing: 1.2
BeatDivisor: 4
GridSize: 4
TimelineZoom: 1.8

[Metadata]
Title:Dear Spark
TitleUnicode:Dear Spark
Artist:Renard vs FIAB
ArtistUnicode:Renard vs FIAB
Creator:AlecJumps
Version:Extra
Source:Because Maybe!
Tags:because maybe renard best of lapfox fiab furries in a blender
BeatmapID:741207
BeatmapSetID:334839

[Difficulty]
HPDrainRate:6.5
CircleSize:4
OverallDifficulty:8.3
ApproachRate:9.6
SliderMultiplier:1.9
SliderTickRate:4

[Events]
//Background and Video events
0,0,"Lapfox-Papers-lapfox-32482953-1600-900.jpg",0,0
//Break Periods
2,35245,51991
//Storyboard Layer 0 (Background)
//Storyboard Layer 1 (Fail)
//Storyboard Layer 2 (Pass)
//Storyboard Layer 3 (Foreground)
//Storyboard Sound Samples

[TimingPoints]
0,272.727272727273,4,1,0,75,1,0
17522,-133.333333333333,4,1,0,100,0,0
35590,-200,4,1,0,100,0,0
59727,-100,4,1,0,100,0,0
61227,-100,4,1,0,100,0,1
83045,-100,4,1,0,100,0,0
85090,-133.333333333333,4,1,0,100,0,0

[HitObjects]
152,180,17045,5,4,0:0:0:0:
236,96,17181,5,4,0:0:0:0:
264,276,17318,5,4,0:0:0:0:
388,224,17454,5,4,0:0:0:0:
332,116,17590,6,0,L|232:104,1,71.2500027179719,4|0,0:0|0:0,0:0:0:0:
224,224,17863,1,0,0:0:0:0:
176,128,18000,2,0,L|105:136,1,71.2500027179719,4|0,0:0|0:0,0:0:0:0:
84,248,18272,1,0,0:0:0:0:
168,348,18409,2,0,L|184:272,1,71.2500027179719,4|0,0:0|0:0,0:0:0:0:
224,112,18681,1,0,0:0:0:0:
344,172,18818,2,0,P|320:200|276:224,2,71.2500027179719,4|0|0,0:0|0:0|0:0,0:0:0:0:
200,72,19227,2,0,L|216:152,1,71.2500027179719,8|0,0:0|0:0,0:0:0:0:
124,96,19500,2,0,L|152:176,1,71.2500027179719,8|0,0:0|0:0,0:0:0:0:
296,316,19772,6,0,L|304:236,1,71.2500027179719,4|0,0:0|0:0,0:0:0:0:
256,76,20045,1,0,0:0:0:0:
160,212,20181,2,0,L|172:136,1,71.2500027179719,4|0,0:0|0:0,0:0:0:0:
352,100,20454,1,0,0:0:0:0:
456,184,20590,2,0,L|396:228,1,71.2500027179719,4|0,0:0|0:0,0:0:0:0:
236,272,20863,1,0,0:0:0:0:
196,100,21000,2,0,P|160:48|144:32,2,71.2500027179719,4|0|0,0:0|0:0|0:0,0:0:0:0:
116,288,21409,5,12,0:0:0:0:
175,185,21545,1,12,0:0:0:0:
263,107,21681,1,12,0:0:0:0:
372,61,21818,1,12,0:0:0:0:
408,248,21954,6,0,P|352:272|328:272,1,71.2500027179719
268,88,22227,1,0,0:0:0:0:
128,120,22363,2,0,P|152:160|180:180,1,71.2500027179719
252,304,22636,1,0,0:0:0:0:
316,176,22772,2,0,L|360:112,2,71.2500027179719
204,268,23181,2,0,P|172:304|152:340,2,71.2500027179719
288,96,23590,5,0,0:0:0:0:
396,68,23727,1,0,0:0:0:0:
448,204,23863,1,0,0:0:0:0:
352,288,24000,1,0,0:0:0:0:
280,152,24136,6,0,L|200:160,2,71.2500027179719
244,344,24545,2,0,P|252:304|268:272,2,71.2500027179719
172,280,24954,1,0,0:0:0:0:
177,209,25090,1,0,0:0:0:0:
194,140,25226,1,0,0:0:0:0:
88,268,25363,1,0,0:0:0:0:
93,197,25499,1,0,0:0:0:0:
110,128,25635,1,0,0:0:0:0:
264,76,25772,6,12,L|184:64,1,71.2500027179719
356,164,26045,2,12,L|276:152,1,71.2500027179719
88,272,26318,5,0,0:0:0:0:
64,136,26454,1,0,0:0:0:0:
184,164,26590,2,0,P|224:176|264:176,1,71.2500027179719
344,96,26863,1,0,0:0:0:0:
368,252,27000,1,0,0:0:0:0:
224,252,27136,2,0,P|176:264|128:284,2,71.2500027179719
332,160,27545,1,0,0:0:0:0:
408,216,27681,1,0,0:0:0:0:
336,296,27818,1,0,0:0:0:0:
184,212,27954,6,0,P|140:176|132:144,1,71.2500027179719
176,320,28227,2,0,P|119:325|91:308,1,71.2500027179719
96,304,28431,1,0,0:0:0:0:
80,288,28500,2,0,L|80:240|80:192,2,71.2500027179719
128,96,28909,2,0,L|208:80,1,71.2500027179719
256,176,29181,1,0,0:0:0:0:
145,76,29318,2,0,L|226:88,1,71.2500027179719
238,195,29590,1,0,0:0:0:0:
168,64,29727,2,0,L|240:103,1,71.2500027179719
215,207,29999,1,0,0:0:0:0:
320,256,30136,6,0,L|304:176,1,71.2500027179719
416,320,30409,2,0,L|400:240,1,71.2500027179719
384,128,30681,6,0,P|352:96|304:80,1,71.2500027179719
256,192,30954,1,0,0:0:0:0:
127,128,31090,2,0,P|151:101|183:85,1,71.2500027179719
256,336,31363,1,0,0:0:0:0:
256,192,31500,2,0,L|256:272,2,71.2500027179719
256,112,31909,2,0,L|256:32,2,71.2500027179719
160,304,32318,1,0,0:0:0:0:
192,208,32454,1,0,0:0:0:0:
256,352,32590,1,0,0:0:0:0:
288,144,32727,5,0,0:0:0:0:
288,144,32795,1,0,0:0:0:0:
288,144,32863,2,0,P|336:112|368:96,1,71.2500027179719
320,304,33136,1,0,0:0:0:0:
208,80,33272,2,0,P|160:80|128:96,1,71.2500027179719
128,256,33545,1,0,0:0:0:0:
352,192,33681,1,0,0:0:0:0:
304,336,33818,1,0,0:0:0:0:
224,80,33954,1,0,0:0:0:0:
320,272,34090,2,0,L|336:176,1,71.2500027179719
432,288,34363,1,0,0:0:0:0:
144,80,34500,5,12,0:0:0:0:
368,272,34636,1,12,0:0:0:0:
368,48,34772,1,12,0:0:0:0:
144,288,34909,1,12,0:0:0:0:
256,192,35045,1,12,0:0:0:0:
256,192,52500,5,0,0:0:0:0:
256,192,52568,12,0,59045,0:0:0:0:
352,96,59863,5,0,0:0:0:0:
352,96,60136,5,0,0:0:0:0:
352,96,60409,5,0,0:0:0:0:
352,96,60681,5,0,0:0:0:0:
352,96,60954,5,0,0:0:0:0:
144,256,61227,6,0,P|112:192|112:144,1,95
224,32,61500,1,0,0:0:0:0:
288,256,61636,1,0,0:0:0:0:
320,288,61704,1,0,0:0:0:0:
352,320,61772,2,0,P|400:320|448:304,1,95
256,160,62045,6,0,L|304:256,1,95
298,244,62250,1,0,0:0:0:0:
298,244,62318,1,0,0:0:0:0:
192,48,62454,1,0,0:0:0:0:
144,272,62590,1,0,0:0:0:0:
256,96,62727,2,0,P|304:64|352:64,1,95
352,64,62931,1,0,0:0:0:0:
368,64,63000,2,0,P|416:96|416:160,1,95
240,112,63272,2,0,L|208:208,1,95
336,240,63545,5,0,0:0:0:0:
320,128,63681,1,0,0:0:0:0:
112,176,63818,2,0,P|96:224|112:288,1,95
224,64,64090,1,0,0:0:0:0:
208,288,64227,1,0,0:0:0:0:
320,160,64363,1,0,0:0:0:0:
336,112,64431,1,0,0:0:0:0:
352,64,64500,2,0,P|256:48|208:64,1,142.5
176,112,64772,2,0,P|128:192|64:192,1,142.5
112,256,65045,2,0,L|256:304,1,142.5
272,304,65318,1,0,0:0:0:0:
352,144,65454,6,0,L|320:240,1,95
224,48,65727,1,0,0:0:0:0:
80,144,65863,1,0,0:0:0:0:
200,284,66000,2,0,L|204:336,2,47.5
288,96,66272,1,0,0:0:0:0:
304,256,66409,2,0,P|352:288|400:288,1,95
176,176,66681,2,0,L|144:272,1,95
288,192,66954,2,0,L|320:80,1,95
192,48,67227,5,0,0:0:0:0:
176,64,67295,1,0,0:0:0:0:
160,80,67363,1,0,0:0:0:0:
224,304,67500,2,0,P|224:256|240:208,1,95
320,48,67772,5,0,0:0:0:0:
384,256,67909,1,0,0:0:0:0:
272,304,68045,1,0,0:0:0:0:
224,128,68182,1,0,0:0:0:0:
207,111,68250,1,0,0:0:0:0:
184,109,68318,1,0,0:0:0:0:
64,192,68454,2,0,P|96:240|128:256,1,95
80,80,68727,1,0,0:0:0:0:
240,48,68863,5,0,0:0:0:0:
281,53,68931,1,0,0:0:0:0:
319,69,68999,1,0,0:0:0:0:
352,94,69067,1,0,0:0:0:0:
378,126,69135,1,0,0:0:0:0:
395,164,69203,1,0,0:0:0:0:
399,205,69272,1,0,0:0:0:0:
390,246,69340,1,0,0:0:0:0:
371,283,69409,6,0,L|312:320,1,47.5
164,216,69545,2,0,L|184:264,1,47.5
352,108,69681,2,0,L|292:144,1,47.5
132,104,69818,2,0,L|152:152,1,47.5
220,256,69954,6,0,P|264:304|308:312,1,95
312,68,70227,1,0,0:0:0:0:
384,224,70363,1,0,0:0:0:0:
382,270,70431,1,0,0:0:0:0:
406,310,70499,1,0,0:0:0:0:
220,220,70636,1,0,0:0:0:0:
72,304,70772,2,0,P|96:240|100:204,1,95
176,56,71045,5,0,0:0:0:0:
200,256,71181,1,0,0:0:0:0:
344,108,71318,2,0,P|408:128|448:160,1,95
444,168,71522,2,0,L|476:208,1,47.5
360,352,71727,1,0,0:0:0:0:
248,88,71863,2,0,L|256:196,1,95
364,312,72136,6,0,P|364:240|372:216,1,95
200,128,72409,1,0,0:0:0:0:
64,272,72545,2,0,P|100:284|124:284,2,47.5
100,92,72818,1,0,0:0:0:0:
240,56,72954,2,0,P|296:32|344:24,1,95
444,288,73227,2,0,P|416:196|380:144,1,142.5
304,68,73500,2,0,P|292:140|296:244,1,142.5
236,320,73772,2,0,P|184:284|128:224,1,142.5
104,192,74045,1,0,0:0:0:0:
172,72,74181,6,0,P|248:56|284:40,1,95
336,256,74454,2,0,P|312:176|312:128,1,95
224,304,74727,1,0,0:0:0:0:
224,304,74795,1,0,0:0:0:0:
224,304,74863,1,0,0:0:0:0:
72,236,75000,5,0,0:0:0:0:
308,124,75136,2,0,P|280:172|232:196,1,95
172,300,75409,2,0,P|128:264|96:212,1,95
208,56,75681,1,0,0:0:0:0:
200,212,75818,2,0,L|180:264,1,47.5
244,352,75954,2,0,P|312:360|380:340,1,95
392,128,76227,2,0,P|400:188|380:256,1,95
148,72,76500,5,0,0:0:0:0:
64,168,76636,1,0,0:0:0:0:
164,340,76772,1,0,0:0:0:0:
224,88,76909,1,0,0:0:0:0:
226,111,76977,1,0,0:0:0:0:
229,135,77045,1,0,0:0:0:0:
352,96,77181,1,0,0:0:0:0:
292,312,77318,2,0,P|256:276|224:232,1,95
88,176,77590,5,0,0:0:0:0:
104,158,77658,1,0,0:0:0:0:
124,147,77726,1,0,0:0:0:0:
147,138,77794,1,0,0:0:0:0:
169,130,77862,1,0,0:0:0:0:
190,119,77930,1,0,0:0:0:0:
209,105,77999,1,0,0:0:0:0:
224,86,78067,1,0,0:0:0:0:
236,64,78136,6,0,P|304:120|328:124,1,95
184,300,78409,2,0,P|176:244|140:208,1,95
240,96,78681,1,0,0:0:0:0:
396,140,78818,1,0,0:0:0:0:
256,320,78954,2,0,P|224:280|184:232,1,95
196,246,79159,1,0,0:0:0:0:
196,246,79227,2,0,P|152:228|64:236,1,95
260,160,79500,2,0,P|232:100|224:60,1,95
416,336,79772,5,0,0:0:0:0:
350,269,79908,1,0,0:0:0:0:
338,176,80044,1,0,0:0:0:0:
272,80,80181,2,0,L|200:56,1,47.5
96,116,80318,1,0,0:0:0:0:
164,181,80454,1,0,0:0:0:0:
217,260,80590,1,0,0:0:0:0:
251,348,80727,1,0,0:0:0:0:
104,60,80863,6,0,P|84:116|92:160,1,95
172,296,81136,1,0,0:0:0:0:
224,184,81272,2,0,L|184:144,1,47.5
280,84,81409,2,0,P|336:64|412:60,1,95
300,288,81681,1,0,0:0:0:0:
204,184,81818,1,0,0:0:0:0:
84,132,81954,5,0,0:0:0:0:
99,103,82022,1,0,0:0:0:0:
120,78,82090,1,0,0:0:0:0:
146,58,82158,1,0,0:0:0:0:
174,42,82226,1,0,0:0:0:0:
206,32,82294,1,0,0:0:0:0:
238,29,82363,1,0,0:0:0:0:
270,31,82431,1,0,0:0:0:0:
302,40,82499,1,0,0:0:0:0:
312,72,82568,5,0,0:0:0:0:
284,102,82636,1,0,0:0:0:0:
264,137,82704,1,0,0:0:0:0:
252,176,82772,1,0,0:0:0:0:
247,216,82840,1,0,0:0:0:0:
252,256,82908,1,0,0:0:0:0:
264,295,82977,1,0,0:0:0:0:
285,330,83045,1,0,0:0:0:0:
80,280,84136,6,0,L|108:236,1,47.5
176,152,84272,1,0,0:0:0:0:
183,129,84340,1,0,0:0:0:0:
194,108,84408,1,0,0:0:0:0:
208,89,84476,1,0,0:0:0:0:
224,72,84545,2,0,L|288:52,1,47.5
372,128,84681,1,0,0:0:0:0:
384,147,84749,1,0,0:0:0:0:
393,170,84817,1,0,0:0:0:0:
396,193,84885,1,0,0:0:0:0:
393,217,84953,1,0,0:0:0:0:
128,148,85227,6,0,P|144:92|152:72,1,71.2500027179719
248,224,85500,1,0,0:0:0:0:
320,88,85636,1,0,0:0:0:0:
320,88,85704,1,0,0:0:0:0:
320,88,85772,2,0,P|352:72|400:96,1,71.2500027179719
312,264,86045,2,0,P|276:224|248:208,1,71.2500027179719
152,68,86318,5,0,0:0:0:0:
72,232,86454,1,0,0:0:0:0:
244,164,86590,2,0,P|272:128|296:112,1,71.2500027179719
320,120,86795,2,0,L|364:112,1,35.625001358986
284,312,87000,1,0,0:0:0:0:
192,200,87136,2,0,P|160:160|124:144,1,71.2500027179719
256,56,87409,5,0,0:0:0:0:
268,288,87545,1,0,0:0:0:0:
336,136,87681,1,0,0:0:0:0:
184,184,87818,2,0,L|148:212,2,35.625001358986
272,64,88090,1,0,0:0:0:0:
248,244,88227,2,0,P|272:280|312:304,1,71.2500027179719
152,328,88500,5,0,0:0:0:0:
328,308,88636,1,0,0:0:0:0:
252,144,88772,2,0,P|208:136|148:136,1,71.2500027179719
181,134,88977,1,0,0:0:0:0:
181,134,89045,1,0,0:0:0:0:
324,64,89181,1,0,0:0:0:0:
400,264,89318,2,0,L|388:180,1,71.2500027179719
204,48,89590,6,0,L|128:80,1,71.2500027179719
128,316,89863,1,0,0:0:0:0:
264,196,90000,1,0,0:0:0:0:
259,160,90068,1,0,0:0:0:0:
262,125,90136,2,0,P|308:100|356:88,1,71.2500027179719
192,44,90409,1,0,0:0:0:0:
112,196,90545,1,0,0:0:0:0:
284,108,90681,5,0,0:0:0:0:
216,280,90818,2,0,P|280:300|316:304,2,71.2500027179719
172,248,91159,2,0,L|192:200,1,35.625001358986
304,64,91363,1,0,0:0:0:0:
404,112,91500,2,0,P|448:128|464:148,1,71.2500027179719
296,308,91772,5,0,0:0:0:0:
120,220,91909,2,0,P|80:192|60:144,1,71.2500027179719
264,120,92181,1,0,0:0:0:0:
275,87,92249,1,0,0:0:0:0:
308,81,92317,1,0,0:0:0:0:
104,196,92454,2,0,P|128:252|148:272,1,71.2500027179719
228,72,92727,1,0,0:0:0:0:
320,192,92863,6,0,L|336:236,3,35.625001358986
256,256,93136,2,0,L|212:272,3,35.625001358986
160,176,93409,2,0,P|104:212|92:232,1,71.2500027179719
256,128,93681,2,0,L|232:48,1,71.2500027179719
356,192,93954,6,0,P|384:160|392:116,1,71.2500027179719
236,56,94227,1,0,0:0:0:0:
188,204,94363,2,0,L|160:248,1,35.625001358986
140,308,94500,2,0,P|188:328|236:328,1,71.2500027179719
328,204,94772,2,0,P|320:152|312:120,1,71.2500027179719
176,64,95045,5,0,0:0:0:0:
156,280,95181,1,0,0:0:0:0:
272,128,95318,1,0,0:0:0:0:
360,64,95454,2,0,L|384:32,1,35.625001358986
444,124,95590,2,0,P|472:168|464:208,1,71.2500027179719
172,244,95863,2,0,P|192:208|208:168,1,71.2500027179719
312,280,96136,5,0,0:0:0:0:
284,108,96272,1,0,0:0:0:0:
132,324,96409,2,0,L|76:264,1,71.2500027179719
76,232,96613,1,0,0:0:0:0:
72,196,96681,1,0,0:0:0:0:
200,84,96818,1,0,0:0:0:0:
140,208,96954,2,0,P|176:248|204:248,1,71.2500027179719
344,272,97227,5,0,0:0:0:0:
356,248,97295,1,0,0:0:0:0:
363,222,97363,1,0,0:0:0:0:
365,195,97431,1,0,0:0:0:0:
361,169,97499,1,0,0:0:0:0:
353,144,97567,1,0,0:0:0:0:
340,121,97636,1,0,0:0:0:0:
322,101,97704,1,0,0:0:0:0:
301,85,97772,1,0,0:0:0:0:
148,56,97909,5,0,0:0:0:0:
132,232,98045,2,0,P|156:184|196:152,1,71.2500027179719
232,56,98318,2,0,P|280:88|304:116,1,71.2500027179719
368,244,98590,1,0,0:0:0:0:
212,300,98727,2,0,L|152:312,2,35.625001358986
288,72,99000,1,0,0:0:0:0:
84,248,99136,2,0,P|108:204|120:180,1,71.2500027179719
208,92,99409,6,0,L|280:40,1,71.2500027179719
272,184,99681,1,0,0:0:0:0:
180,272,99818,2,0,L|184:316,1,35.625001358986
264,224,99954,2,0,P|272:180|276:120,1,71.2500027179719
160,32,100227,2,0,P|128:72|116:104,1,71.2500027179719
296,64,100500,5,0,0:0:0:0:
380,160,100636,2,0,P|384:216|376:260,1,71.2500027179719
188,148,100909,1,0,0:0:0:0:
188,148,100977,1,0,0:0:0:0:
188,148,101045,2,0,P|168:192|168:232,1,71.2500027179719
304,64,101318,2,0,P|336:112|348:152,1,71.2500027179719
128,160,101590,6,0,L|64:160,1,35.625001358986
224,96,101727,2,0,L|224:32,1,35.625001358986
288,192,101863,2,0,L|352:192,1,35.625001358986
192,256,102000,2,0,L|192:320,1,35.625001358986
256,128,102136,2,0,L|288:96|320:64,1,71.2500027179719
288,288,102409,2,0,L|256:256|224:224,1,71.2500027179719
160,64,102681,5,0,0:0:0:0:
128,256,102818,1,0,0:0:0:0:
256,160,102954,2,0,P|288:160|320:192,1,71.2500027179719
384,256,103159,2,0,L|384:192,1,35.625001358986
192,64,103363,1,0,0:0:0:0:
96,288,103500,2,0,L|64:224,1,71.2500027179719
292,96,103772,6,0,P|336:128|344:148,1,71.2500027179719
164,160,104045,1,0,0:0:0:0:
268,308,104181,1,0,0:0:0:0:
268,308,104250,1,0,0:0:0:0:
268,308,104318,1,0,0:0:0:0:
316,96,104454,2,0,L|368:172,1,71.2500027179719
424,264,104727,6,0,P|396:312|372:336,1,71.2500027179719
268,100,105000,1,0,0:0:0:0:
144,256,105136,1,0,0:0:0:0:
88,136,105272,1,0,0:0:0:0:
75,102,105340,1,0,0:0:0:0:
71,67,105408,1,0,0:0:0:0:
184,264,105545,1,0,0:0:0:0:
264,88,105681,2,0,P|304:60|356:56,1,71.2500027179719
400,152,105954,5,0,0:0:0:0:
364,150,106022,1,0,0:0:0:0:
335,168,106090,1,0,0:0:0:0:
321,201,106158,1,0,0:0:0:0:
304,232,106227,1,0,0:0:0:0:
276,209,106295,1,0,0:0:0:0:
244,194,106363,1,0,0:0:0:0:
209,190,106431,1,0,0:0:0:0:
173,195,106500,2,0,P|132:232|120:272,1,71.2500027179719
300,136,106772,2,0,P|280:100|272:60,1,71.2500027179719
