osu file format v12

[General]
AudioFilename: LapFox Trax - This Place Will Grow EP - 05 Why Am I So Angry.mp3
AudioLeadIn: 1500
PreviewTime: 66513
Countdown: 0
SampleSet: None
StackLeniency: 0.7
Mode: 1
LetterboxInBreaks: 1

[Editor]
Bookmarks: 115604,131968,150513,151331
DistanceSpacing: 0.8
BeatDivisor: 4
GridSize: 4

[Metadata]
Title:Why Am I So Angry
TitleUnicode:
Artist:Renard
ArtistUnicode:
Creator:Blue Dragon
Version:lepidon! - Taiko Oni
Source:
Tags:this place will grow lapfox trax queenston raggacore
BeatmapID:260832
BeatmapSetID:31133

[Difficulty]
HPDrainRate:4
CircleSize:5
OverallDifficulty:6
ApproachRate:5
SliderMultiplier:1.4
SliderTickRate:1

[Events]
//Background and Video events
0,0,"renard_thisplace.png",0,0
//Break Periods
//Storyboard Layer 0 (Background)
//Storyboard Layer 1 (Fail)
//Storyboard Layer 2 (Pass)
//Storyboard Layer 3 (Foreground)
//Storyboard Sound Samples
//Background Colour Transformations
3,100,255,255,255

[TimingPoints]
1059,272.727272727273,4,1,0,80,1,0
132513,-100,4,1,0,65,0,0
133331,-100,4,1,0,50,0,0
150240,-100,4,1,0,80,0,0
150513,-100,4,1,0,80,0,1
185422,-100,4,1,0,80,0,0
186513,-100,4,1,0,50,0,0
198513,-100,4,1,0,35,0,0

[Colours]
Combo1 : 166,0,0
Combo2 : 255,128,128
Combo3 : 213,47,47

[HitObjects]
268,260,2149,1,0,0:0:0:0:
300,212,2286,1,0,0:0:0:0:
352,196,2422,1,8,0:0:0:0:
408,184,2559,1,0,0:0:0:0:
460,200,2695,1,0,0:0:0:0:
452,144,2831,1,8,0:0:0:0:
420,192,2968,1,0,0:0:0:0:
432,216,3036,1,8,0:0:0:0:
460,200,3104,1,0,0:0:0:0:
464,172,3172,1,8,0:0:0:0:
448,196,3240,1,0,0:0:0:0:
412,240,3377,1,0,0:0:0:0:
356,228,3513,1,8,0:0:0:0:
308,196,3649,1,0,0:0:0:0:
268,156,3786,1,0,0:0:0:0:
452,144,3922,1,8,0:0:0:0:
396,152,4059,1,0,0:0:0:0:
424,156,4127,1,8,0:0:0:0:
452,164,4195,1,0,0:0:0:0:
476,180,4263,1,8,0:0:0:0:
448,196,4331,1,0,0:0:0:0:
412,240,4468,1,0,0:0:0:0:
356,228,4604,1,8,0:0:0:0:
308,196,4740,1,0,0:0:0:0:
268,156,4877,1,0,0:0:0:0:
452,144,5013,1,8,0:0:0:0:
396,152,5150,1,0,0:0:0:0:
424,156,5218,1,8,0:0:0:0:
452,164,5286,1,0,0:0:0:0:
476,180,5354,1,8,0:0:0:0:
460,200,5422,1,0,0:0:0:0:
404,132,5559,1,8,0:0:0:0:
460,136,5695,1,8,0:0:0:0:
432,184,5831,1,0,0:0:0:0:
404,232,5968,1,0,0:0:0:0:
364,192,6104,1,8,0:0:0:0:
360,248,6240,1,0,0:0:0:0:
404,232,6309,1,8,0:0:0:0:
424,212,6377,1,0,0:0:0:0:
424,156,6445,1,8,0:0:0:0:
396,148,6513,5,0,0:0:0:0:
340,152,6649,1,0,0:0:0:0:
424,156,6786,1,8,0:0:0:0:
432,212,6922,1,0,0:0:0:0:
440,268,7059,1,0,0:0:0:0:
432,184,7195,1,8,0:0:0:0:
424,156,7331,1,8,0:0:0:0:
424,156,7399,1,8,0:0:0:0:
448,168,7468,1,0,0:0:0:0:
448,168,7536,1,8,0:0:0:0:
396,148,7604,1,0,0:0:0:0:
340,152,7740,1,0,0:0:0:0:
424,156,7877,1,8,0:0:0:0:
432,212,8013,1,0,0:0:0:0:
440,268,8150,1,0,0:0:0:0:
432,184,8286,1,8,0:0:0:0:
424,156,8422,1,0,0:0:0:0:
424,156,8490,1,8,0:0:0:0:
448,168,8559,1,0,0:0:0:0:
448,168,8627,1,8,0:0:0:0:
420,176,8695,1,0,0:0:0:0:
372,204,8831,1,0,0:0:0:0:
424,156,8968,1,8,0:0:0:0:
424,212,9104,1,0,0:0:0:0:
416,268,9240,1,0,0:0:0:0:
400,216,9377,1,8,0:0:0:0:
424,156,9513,1,8,0:0:0:0:
424,156,9581,1,8,0:0:0:0:
432,184,9649,1,0,0:0:0:0:
460,172,9718,1,8,0:0:0:0:
432,184,9786,1,0,0:0:0:0:
376,180,9922,1,0,0:0:0:0:
324,156,10059,1,8,0:0:0:0:
324,156,10195,1,8,0:0:0:0:
380,144,10331,1,0,0:0:0:0:
416,268,10468,1,0,0:0:0:0:
396,288,10536,1,0,0:0:0:0:
400,260,10604,1,8,0:0:0:0:
400,216,10740,1,8,0:0:0:0:
396,148,10877,5,0,0:0:0:0:
340,152,11013,1,8,0:0:0:0:
424,156,11150,1,8,0:0:0:0:
432,212,11286,1,0,0:0:0:0:
440,268,11423,1,0,0:0:0:0:
432,184,11559,1,8,0:0:0:0:
424,156,11695,1,8,0:0:0:0:
424,156,11763,1,8,0:0:0:0:
448,168,11832,1,0,0:0:0:0:
448,168,11900,1,8,0:0:0:0:
396,148,11968,1,0,0:0:0:0:
340,152,12104,1,0,0:0:0:0:
424,156,12241,1,8,0:0:0:0:
432,212,12377,1,0,0:0:0:0:
440,268,12514,1,0,0:0:0:0:
432,184,12650,1,8,0:0:0:0:
424,156,12786,1,0,0:0:0:0:
424,156,12854,1,8,0:0:0:0:
448,168,12923,1,0,0:0:0:0:
448,168,12991,1,8,0:0:0:0:
420,176,13059,1,0,0:0:0:0:
372,204,13195,1,0,0:0:0:0:
424,156,13332,1,8,0:0:0:0:
424,212,13468,1,0,0:0:0:0:
416,268,13604,1,0,0:0:0:0:
400,216,13741,1,8,0:0:0:0:
424,156,13877,1,8,0:0:0:0:
424,156,13945,1,8,0:0:0:0:
432,184,14013,1,0,0:0:0:0:
460,172,14082,1,8,0:0:0:0:
432,176,14149,1,0,0:0:0:0:
376,188,14286,1,0,0:0:0:0:
376,132,14422,1,8,0:0:0:0:
376,188,14559,1,0,0:0:0:0:
360,240,14695,1,0,0:0:0:0:
308,220,14831,1,8,0:0:0:0:
328,272,14968,1,8,0:0:0:0:
340,296,15036,1,8,0:0:0:0:
416,268,15104,1,0,0:0:0:0:
412,296,15172,1,0,0:0:0:0:
412,296,15240,1,0,0:0:0:0:
166,180,17422,5,0,0:0:0:0:
221,188,17559,1,0,0:0:0:0:
276,184,17695,1,8,0:0:0:0:
331,187,17831,1,0,0:0:0:0:
386,194,17968,1,0,0:0:0:0:
438,173,18104,1,8,0:0:0:0:
394,137,18240,1,0,0:0:0:0:
421,144,18309,1,8,0:0:0:0:
447,151,18377,1,0,0:0:0:0:
473,159,18445,1,8,0:0:0:0:
462,185,18513,1,0,0:0:0:0:
428,229,18649,1,0,0:0:0:0:
438,173,18786,1,8,0:0:0:0:
421,226,18922,1,0,0:0:0:0:
407,250,18990,1,0,0:0:0:0:
392,274,19059,1,0,0:0:0:0:
352,234,19195,1,8,0:0:0:0:
299,214,19331,1,0,0:0:0:0:
438,173,19399,1,8,0:0:0:0:
438,173,19468,1,0,0:0:0:0:
465,177,19536,1,8,0:0:0:0:
439,189,19604,1,0,0:0:0:0:
384,196,19740,1,0,0:0:0:0:
424,156,19877,1,8,0:0:0:0:
368,156,20013,1,0,0:0:0:0:
438,173,20149,1,0,0:0:0:0:
488,148,20286,1,8,0:0:0:0:
460,196,20422,1,0,0:0:0:0:
460,196,20490,1,8,0:0:0:0:
465,177,20559,1,0,0:0:0:0:
438,173,20627,1,8,0:0:0:0:
424,196,20695,1,0,0:0:0:0:
400,244,20831,1,8,0:0:0:0:
388,268,20899,1,8,0:0:0:0:
372,292,20968,1,8,0:0:0:0:
316,280,21104,1,0,0:0:0:0:
264,264,21240,1,0,0:0:0:0:
248,232,21377,1,8,0:0:0:0:
292,200,21513,1,0,0:0:0:0:
320,192,21581,1,8,0:0:0:0:
348,184,21649,1,0,0:0:0:0:
368,164,21718,1,8,0:0:0:0:
396,148,21786,5,0,0:0:0:0:
340,152,21922,1,0,0:0:0:0:
424,156,22059,1,8,0:0:0:0:
432,212,22195,1,0,0:0:0:0:
440,268,22332,1,0,0:0:0:0:
432,184,22468,1,8,0:0:0:0:
424,156,22604,1,8,0:0:0:0:
424,156,22672,1,8,0:0:0:0:
448,168,22741,1,0,0:0:0:0:
448,168,22809,1,8,0:0:0:0:
396,148,22877,1,0,0:0:0:0:
340,152,23013,1,0,0:0:0:0:
424,156,23150,1,8,0:0:0:0:
432,212,23286,1,0,0:0:0:0:
404,212,23354,1,0,0:0:0:0:
440,268,23423,1,0,0:0:0:0:
432,184,23559,1,8,0:0:0:0:
424,156,23695,1,0,0:0:0:0:
424,156,23763,1,8,0:0:0:0:
448,168,23832,1,0,0:0:0:0:
448,168,23900,1,8,0:0:0:0:
420,176,23968,1,0,0:0:0:0:
372,204,24104,1,0,0:0:0:0:
424,156,24241,1,8,0:0:0:0:
436,180,24309,1,8,0:0:0:0:
424,212,24377,1,0,0:0:0:0:
416,268,24513,1,0,0:0:0:0:
400,216,24650,1,8,0:0:0:0:
424,156,24786,1,8,0:0:0:0:
424,156,24854,1,8,0:0:0:0:
432,184,24922,1,0,0:0:0:0:
460,172,24991,1,8,0:0:0:0:
432,184,25059,1,0,0:0:0:0:
376,180,25195,1,0,0:0:0:0:
324,156,25332,1,8,0:0:0:0:
328,184,25468,1,8,0:0:0:0:
380,144,25604,1,0,0:0:0:0:
436,180,25672,1,8,0:0:0:0:
416,268,25741,1,0,0:0:0:0:
396,288,25809,1,0,0:0:0:0:
400,260,25877,1,8,0:0:0:0:
400,216,26013,1,8,0:0:0:0:
396,148,26150,5,0,0:0:0:0:
340,152,26286,1,8,0:0:0:0:
424,156,26423,1,8,0:0:0:0:
432,212,26559,1,0,0:0:0:0:
440,268,26696,1,0,0:0:0:0:
432,184,26832,1,8,0:0:0:0:
424,156,26968,1,8,0:0:0:0:
424,156,27036,1,8,0:0:0:0:
448,168,27105,1,0,0:0:0:0:
448,168,27173,1,8,0:0:0:0:
396,148,27241,1,0,0:0:0:0:
340,152,27377,1,0,0:0:0:0:
424,156,27514,1,8,0:0:0:0:
432,212,27650,1,0,0:0:0:0:
408,200,27718,1,0,0:0:0:0:
440,268,27787,1,0,0:0:0:0:
432,184,27923,1,8,0:0:0:0:
424,156,28059,1,0,0:0:0:0:
424,156,28127,1,8,0:0:0:0:
448,168,28196,1,0,0:0:0:0:
448,168,28264,1,8,0:0:0:0:
420,176,28332,1,0,0:0:0:0:
372,204,28468,1,0,0:0:0:0:
424,156,28605,1,8,0:0:0:0:
424,212,28741,1,0,0:0:0:0:
396,220,28809,1,8,0:0:0:0:
416,268,28877,1,0,0:0:0:0:
400,216,29014,1,8,0:0:0:0:
424,156,29150,1,8,0:0:0:0:
424,156,29218,1,8,0:0:0:0:
432,184,29286,1,0,0:0:0:0:
460,172,29355,1,8,0:0:0:0:
432,176,29422,1,0,0:0:0:0:
376,188,29559,1,0,0:0:0:0:
376,132,29695,1,8,0:0:0:0:
376,188,29832,1,0,0:0:0:0:
364,212,29899,1,0,0:0:0:0:
360,240,29968,1,0,0:0:0:0:
308,220,30104,1,8,0:0:0:0:
348,184,30240,1,8,0:0:0:0:
348,156,30309,1,8,0:0:0:0:
368,176,30377,1,0,0:0:0:0:
416,268,30445,1,0,0:0:0:0:
404,292,30513,5,0,0:0:0:0:
303,241,30786,1,0,0:0:0:0:
351,213,30922,1,8,0:0:0:0:
403,234,31059,1,0,0:0:0:0:
371,279,31195,1,0,0:0:0:0:
322,307,31331,1,0,0:0:0:0:
295,314,31399,1,0,0:0:0:0:
295,314,31468,1,0,0:0:0:0:
267,307,31536,1,0,0:0:0:0:
348,156,31604,1,8,0:0:0:0:
398,179,31740,1,0,0:0:0:0:
426,180,31809,1,8,0:0:0:0:
453,181,31877,1,0,0:0:0:0:
426,180,31945,1,8,0:0:0:0:
430,207,32013,1,8,0:0:0:0:
430,207,32149,1,0,0:0:0:0:
457,199,32218,1,8,0:0:0:0:
479,182,32286,1,0,0:0:0:0:
453,181,32354,1,8,0:0:0:0:
436,203,32422,1,8,0:0:0:0:
326,226,32695,5,0,0:0:0:0:
453,181,32831,1,8,0:0:0:0:
453,181,32899,1,8,0:0:0:0:
453,181,32968,1,8,0:0:0:0:
439,126,33104,1,0,0:0:0:0:
453,181,33240,1,8,0:0:0:0:
453,181,33309,1,8,0:0:0:0:
453,181,33377,1,8,0:0:0:0:
397,177,33513,1,0,0:0:0:0:
350,145,33649,1,8,0:0:0:0:
390,183,33786,1,0,0:0:0:0:
336,198,33922,1,0,0:0:0:0:
309,206,33990,1,0,0:0:0:0:
336,198,34059,1,8,0:0:0:0:
367,244,34195,1,0,0:0:0:0:
387,296,34331,1,0,0:0:0:0:
387,296,34399,1,0,0:0:0:0:
397,177,34468,1,8,0:0:0:0:
341,177,34604,1,0,0:0:0:0:
397,177,34740,1,8,0:0:0:0:
406,126,34877,1,0,0:0:0:0:
453,181,35013,1,8,0:0:0:0:
453,181,35081,1,8,0:0:0:0:
453,181,35149,1,8,0:0:0:0:
480,229,35286,1,0,0:0:0:0:
468,174,35422,1,8,0:0:0:0:
453,181,35490,1,8,0:0:0:0:
453,181,35559,1,8,0:0:0:0:
437,165,35695,1,0,0:0:0:0:
453,181,35831,1,8,0:0:0:0:
173,224,35968,1,0,0:0:0:0:
227,210,36104,1,0,0:0:0:0:
254,205,36172,1,0,0:0:0:0:
281,199,36240,1,8,0:0:0:0:
335,210,36377,1,0,0:0:0:0:
386,232,36513,1,0,0:0:0:0:
419,187,36649,1,0,0:0:0:0:
437,165,36718,1,0,0:0:0:0:
461,151,36786,1,8,0:0:0:0:
455,206,36922,1,0,0:0:0:0:
401,189,37059,5,0,0:0:0:0:
346,178,37195,1,0,0:0:0:0:
373,175,37263,1,8,0:0:0:0:
400,172,37331,1,8,0:0:0:0:
419,187,37468,1,0,0:0:0:0:
397,238,37604,1,8,0:0:0:0:
390,265,37672,1,8,0:0:0:0:
390,265,37740,1,8,0:0:0:0:
419,187,37877,1,0,0:0:0:0:
400,172,38013,1,8,0:0:0:0:
345,185,38149,1,0,0:0:0:0:
292,204,38286,1,0,0:0:0:0:
266,215,38354,1,0,0:0:0:0:
293,209,38422,1,8,0:0:0:0:
349,212,38559,1,0,0:0:0:0:
266,215,38695,1,0,0:0:0:0:
266,215,38763,1,0,0:0:0:0:
292,208,38831,1,8,0:0:0:0:
348,196,38968,1,0,0:0:0:0:
400,180,39104,1,8,0:0:0:0:
416,232,39240,1,0,0:0:0:0:
448,188,39377,1,8,0:0:0:0:
448,188,39445,1,8,0:0:0:0:
448,188,39513,1,8,0:0:0:0:
412,144,39649,1,0,0:0:0:0:
432,196,39786,1,8,0:0:0:0:
428,224,39854,1,8,0:0:0:0:
428,224,39922,1,8,0:0:0:0:
396,272,40059,1,0,0:0:0:0:
356,312,40195,1,0,0:0:0:0:
300,300,40331,1,0,0:0:0:0:
300,244,40468,1,0,0:0:0:0:
292,216,40536,1,0,0:0:0:0:
308,192,40604,1,8,0:0:0:0:
360,172,40740,1,0,0:0:0:0:
388,220,40877,1,0,0:0:0:0:
388,220,41013,1,0,0:0:0:0:
388,220,41081,1,0,0:0:0:0:
400,196,41149,1,8,0:0:0:0:
326,226,41422,5,0,0:0:0:0:
453,181,41558,1,8,0:0:0:0:
453,181,41626,1,8,0:0:0:0:
453,181,41695,1,8,0:0:0:0:
439,126,41831,1,0,0:0:0:0:
453,181,41967,1,8,0:0:0:0:
453,181,42036,1,8,0:0:0:0:
453,181,42104,1,8,0:0:0:0:
397,177,42240,1,0,0:0:0:0:
350,145,42376,1,8,0:0:0:0:
390,183,42513,1,0,0:0:0:0:
336,198,42649,1,0,0:0:0:0:
309,206,42717,1,0,0:0:0:0:
336,198,42786,1,8,0:0:0:0:
367,244,42922,1,0,0:0:0:0:
387,296,43058,1,0,0:0:0:0:
387,296,43126,1,0,0:0:0:0:
397,177,43195,1,8,0:0:0:0:
341,177,43331,1,0,0:0:0:0:
397,177,43467,1,8,0:0:0:0:
406,126,43604,1,0,0:0:0:0:
453,181,43740,1,8,0:0:0:0:
453,181,43808,1,8,0:0:0:0:
453,181,43876,1,8,0:0:0:0:
480,229,44013,1,0,0:0:0:0:
468,174,44149,1,8,0:0:0:0:
453,181,44217,1,8,0:0:0:0:
453,181,44286,1,8,0:0:0:0:
437,165,44422,1,0,0:0:0:0:
453,181,44558,1,8,0:0:0:0:
173,224,44695,1,0,0:0:0:0:
227,210,44831,1,0,0:0:0:0:
254,205,44899,1,0,0:0:0:0:
281,199,44967,1,8,0:0:0:0:
335,210,45104,1,0,0:0:0:0:
386,232,45240,1,0,0:0:0:0:
419,187,45376,1,0,0:0:0:0:
437,165,45445,1,0,0:0:0:0:
461,151,45513,1,8,0:0:0:0:
455,206,45649,1,0,0:0:0:0:
401,189,45786,5,0,0:0:0:0:
346,178,45922,1,0,0:0:0:0:
373,175,45990,1,8,0:0:0:0:
400,172,46058,1,8,0:0:0:0:
419,187,46195,1,0,0:0:0:0:
397,238,46331,1,8,0:0:0:0:
390,265,46399,1,8,0:0:0:0:
390,265,46467,1,8,0:0:0:0:
419,187,46604,1,0,0:0:0:0:
400,172,46740,1,8,0:0:0:0:
345,185,46876,1,0,0:0:0:0:
292,204,47013,1,0,0:0:0:0:
266,215,47081,1,0,0:0:0:0:
293,209,47149,1,8,0:0:0:0:
349,212,47286,1,0,0:0:0:0:
266,215,47422,1,0,0:0:0:0:
266,215,47490,1,0,0:0:0:0:
292,208,47558,1,8,0:0:0:0:
348,196,47695,1,0,0:0:0:0:
400,180,47831,1,8,0:0:0:0:
416,232,47967,1,0,0:0:0:0:
448,188,48104,1,8,0:0:0:0:
448,188,48172,1,8,0:0:0:0:
448,188,48240,1,8,0:0:0:0:
412,144,48376,1,0,0:0:0:0:
432,196,48513,1,8,0:0:0:0:
428,224,48581,1,8,0:0:0:0:
428,224,48649,1,8,0:0:0:0:
396,272,48786,1,0,0:0:0:0:
356,312,48922,1,0,0:0:0:0:
300,300,49058,1,0,0:0:0:0:
300,244,49195,1,0,0:0:0:0:
292,216,49263,1,0,0:0:0:0:
308,192,49331,1,8,0:0:0:0:
360,172,49467,1,0,0:0:0:0:
388,220,49604,1,0,0:0:0:0:
388,220,49740,1,0,0:0:0:0:
388,220,49808,1,0,0:0:0:0:
400,196,49876,1,8,0:0:0:0:
288,176,50149,5,0,0:0:0:0:
260,172,50218,1,0,0:0:0:0:
232,168,50286,1,0,0:0:0:0:
288,164,50422,1,8,0:0:0:0:
344,176,50559,1,0,0:0:0:0:
372,180,50627,1,0,0:0:0:0:
400,188,50695,1,0,0:0:0:0:
456,180,50831,1,8,0:0:0:0:
448,236,50968,1,0,0:0:0:0:
416,284,51104,1,8,0:0:0:0:
360,292,51240,1,0,0:0:0:0:
304,292,51377,1,0,0:0:0:0:
276,292,51445,1,0,0:0:0:0:
296,272,51513,1,8,0:0:0:0:
348,252,51649,1,0,0:0:0:0:
297,226,51786,1,0,0:0:0:0:
282,202,51854,1,0,0:0:0:0:
308,194,51922,1,8,0:0:0:0:
456,180,52059,1,0,0:0:0:0:
441,125,52195,1,0,0:0:0:0:
452,150,52263,1,8,0:0:0:0:
433,170,52331,1,0,0:0:0:0:
414,190,52399,1,0,0:0:0:0:
395,211,52468,1,0,0:0:0:0:
414,190,52604,1,8,0:0:0:0:
360,172,52740,1,0,0:0:0:0:
360,172,52809,1,0,0:0:0:0:
332,173,52877,1,0,0:0:0:0:
373,210,53013,1,8,0:0:0:0:
428,213,53149,1,0,0:0:0:0:
403,263,53286,1,8,0:0:0:0:
347,267,53422,1,0,0:0:0:0:
290,270,53559,1,0,0:0:0:0:
262,271,53627,1,0,0:0:0:0:
433,170,53695,1,8,0:0:0:0:
395,211,53831,1,0,0:0:0:0:
339,201,53968,1,12,0:0:0:0:
384,99,54240,1,0,0:0:0:0:
409,112,54309,1,8,0:0:0:0:
433,125,54377,1,0,0:0:0:0:
455,141,54445,1,8,0:0:0:0:
461,168,54513,5,0,0:0:0:0:
447,222,54649,1,0,0:0:0:0:
456,274,54786,1,8,0:0:0:0:
403,292,54922,1,0,0:0:0:0:
376,301,54990,1,0,0:0:0:0:
348,296,55059,1,8,0:0:0:0:
298,271,55195,1,0,0:0:0:0:
271,280,55263,1,0,0:0:0:0:
249,262,55331,1,8,0:0:0:0:
264,207,55468,1,8,0:0:0:0:
319,202,55604,1,0,0:0:0:0:
372,184,55740,1,12,0:0:0:0:
483,175,56013,1,12,0:0:0:0:
428,180,56149,1,0,0:0:0:0:
372,184,56286,1,0,0:0:0:0:
348,132,56422,1,8,0:0:0:0:
376,132,56490,1,8,0:0:0:0:
404,140,56559,1,0,0:0:0:0:
432,148,56627,1,8,0:0:0:0:
460,156,56695,1,0,0:0:0:0:
408,180,56831,1,0,0:0:0:0:
356,204,56968,1,0,0:0:0:0:
332,216,57036,1,0,0:0:0:0:
308,228,57104,1,0,0:0:0:0:
256,248,57240,1,0,0:0:0:0:
228,260,57309,1,0,0:0:0:0:
200,268,57377,1,0,0:0:0:0:
256,276,57513,1,0,0:0:0:0:
284,280,57581,1,0,0:0:0:0:
312,284,57649,1,0,0:0:0:0:
332,232,57786,2,0,B|96:96|96:96|36:260,1,420
288,176,58877,5,0,0:0:0:0:
260,172,58946,1,0,0:0:0:0:
232,168,59014,1,0,0:0:0:0:
288,164,59150,1,8,0:0:0:0:
344,176,59287,1,0,0:0:0:0:
372,180,59355,1,0,0:0:0:0:
400,188,59423,1,0,0:0:0:0:
456,180,59559,1,8,0:0:0:0:
448,236,59696,1,0,0:0:0:0:
416,284,59832,1,8,0:0:0:0:
360,292,59968,1,0,0:0:0:0:
304,292,60105,1,0,0:0:0:0:
276,292,60173,1,0,0:0:0:0:
296,272,60241,1,8,0:0:0:0:
348,252,60377,1,0,0:0:0:0:
297,226,60514,1,0,0:0:0:0:
282,202,60582,1,0,0:0:0:0:
308,194,60650,1,8,0:0:0:0:
456,180,60787,1,0,0:0:0:0:
441,125,60923,1,0,0:0:0:0:
452,150,60991,1,8,0:0:0:0:
433,170,61059,1,0,0:0:0:0:
414,190,61127,1,0,0:0:0:0:
395,211,61196,1,0,0:0:0:0:
414,190,61332,1,8,0:0:0:0:
360,172,61468,1,0,0:0:0:0:
360,172,61537,1,0,0:0:0:0:
332,173,61605,1,0,0:0:0:0:
373,210,61741,1,8,0:0:0:0:
428,213,61877,1,0,0:0:0:0:
403,263,62014,1,8,0:0:0:0:
347,267,62150,1,0,0:0:0:0:
290,270,62287,1,0,0:0:0:0:
262,271,62355,1,0,0:0:0:0:
433,170,62423,1,8,0:0:0:0:
395,211,62559,1,0,0:0:0:0:
339,201,62696,1,12,0:0:0:0:
384,99,62968,1,0,0:0:0:0:
409,112,63037,1,8,0:0:0:0:
433,125,63105,1,0,0:0:0:0:
455,141,63173,1,8,0:0:0:0:
461,168,63241,5,0,0:0:0:0:
447,222,63377,1,0,0:0:0:0:
456,274,63514,1,8,0:0:0:0:
403,292,63650,1,0,0:0:0:0:
376,301,63718,1,0,0:0:0:0:
348,296,63787,1,8,0:0:0:0:
298,271,63923,1,0,0:0:0:0:
271,280,63991,1,0,0:0:0:0:
249,262,64059,1,8,0:0:0:0:
264,207,64196,1,8,0:0:0:0:
319,202,64332,1,0,0:0:0:0:
372,184,64468,1,12,0:0:0:0:
392,76,64740,1,12,0:0:0:0:
447,222,64877,1,0,0:0:0:0:
412,264,65013,1,0,0:0:0:0:
404,208,65149,1,8,0:0:0:0:
396,180,65218,1,8,0:0:0:0:
396,180,65286,1,8,0:0:0:0:
452,176,65422,1,0,0:0:0:0:
452,176,65559,1,0,0:0:0:0:
508,164,65695,1,8,0:0:0:0:
480,168,65763,1,8,0:0:0:0:
480,168,65831,1,8,0:0:0:0:
440,204,65968,1,0,0:0:0:0:
384,192,66104,1,12,0:0:0:0:
328,200,66240,1,0,0:0:0:0:
356,208,66309,1,8,0:0:0:0:
384,216,66377,1,0,0:0:0:0:
440,204,66445,1,8,0:0:0:0:
440,232,66513,1,0,0:0:0:0:
160,216,67604,5,0,0:0:0:0:
204,180,67740,1,0,0:0:0:0:
260,176,67877,1,8,0:0:0:0:
316,180,68013,1,0,0:0:0:0:
360,216,68149,1,0,0:0:0:0:
388,168,68286,1,8,0:0:0:0:
444,164,68422,1,0,0:0:0:0:
468,176,68490,1,8,0:0:0:0:
476,204,68559,1,0,0:0:0:0:
468,176,68627,1,8,0:0:0:0:
456,200,68695,1,0,0:0:0:0:
416,240,68831,1,0,0:0:0:0:
372,276,68968,1,8,0:0:0:0:
400,228,69104,1,0,0:0:0:0:
388,168,69240,1,8,0:0:0:0:
384,224,69377,1,0,0:0:0:0:
372,280,69513,1,0,0:0:0:0:
384,256,69581,1,8,0:0:0:0:
400,236,69649,1,0,0:0:0:0:
444,164,69718,1,8,0:0:0:0:
416,164,69786,1,8,0:0:0:0:
384,210,69922,1,0,0:0:0:0:
336,180,70059,1,8,0:0:0:0:
387,158,70195,1,0,0:0:0:0:
348,198,70331,1,0,0:0:0:0:
388,168,70468,1,8,0:0:0:0:
402,221,70604,1,8,0:0:0:0:
410,247,70672,1,8,0:0:0:0:
434,233,70740,1,0,0:0:0:0:
441,205,70809,1,8,0:0:0:0:
413,199,70877,1,0,0:0:0:0:
361,221,71013,1,0,0:0:0:0:
416,164,71149,1,8,0:0:0:0:
416,164,71286,1,0,0:0:0:0:
441,205,71422,1,0,0:0:0:0:
459,151,71559,1,8,0:0:0:0:
410,179,71695,1,0,0:0:0:0:
437,173,71763,1,8,0:0:0:0:
459,151,71831,1,0,0:0:0:0:
459,151,71899,1,8,0:0:0:0:
469,177,71968,5,0,0:0:0:0:
413,182,72104,1,0,0:0:0:0:
386,231,72240,1,8,0:0:0:0:
330,224,72377,1,0,0:0:0:0:
302,221,72445,1,0,0:0:0:0:
274,218,72513,1,0,0:0:0:0:
322,189,72649,1,8,0:0:0:0:
376,173,72786,1,0,0:0:0:0:
437,173,72854,1,8,0:0:0:0:
437,173,72922,1,0,0:0:0:0:
469,177,72990,1,8,0:0:0:0:
451,199,73059,1,0,0:0:0:0:
395,190,73195,1,0,0:0:0:0:
376,173,73331,1,8,0:0:0:0:
354,225,73468,1,0,0:0:0:0:
413,182,73604,1,8,0:0:0:0:
387,231,73740,1,0,0:0:0:0:
337,257,73877,1,0,0:0:0:0:
363,248,73945,1,8,0:0:0:0:
451,199,74013,1,0,0:0:0:0:
426,211,74081,1,8,0:0:0:0:
409,233,74149,1,8,0:0:0:0:
368,193,74286,1,0,0:0:0:0:
437,173,74422,1,8,0:0:0:0:
437,173,74490,1,8,0:0:0:0:
437,173,74559,1,0,0:0:0:0:
410,222,74695,1,0,0:0:0:0:
394,275,74831,1,8,0:0:0:0:
368,193,74968,1,8,0:0:0:0:
368,193,75036,1,8,0:0:0:0:
437,173,75104,1,0,0:0:0:0:
368,193,75172,1,8,0:0:0:0:
409,233,75240,1,0,0:0:0:0:
354,220,75377,1,0,0:0:0:0:
332,168,75513,1,8,0:0:0:0:
276,160,75649,1,8,0:0:0:0:
332,164,75786,1,0,0:0:0:0:
360,164,75854,1,8,0:0:0:0:
388,164,75922,1,0,0:0:0:0:
416,168,75990,1,0,0:0:0:0:
444,168,76059,1,8,0:0:0:0:
428,220,76195,1,8,0:0:0:0:
478,144,76331,5,0,0:0:0:0:
423,156,76468,1,0,0:0:0:0:
444,197,76604,1,8,0:0:0:0:
409,233,76740,1,0,0:0:0:0:
391,255,76809,1,0,0:0:0:0:
361,262,76877,1,0,0:0:0:0:
336,212,77013,1,8,0:0:0:0:
331,156,77149,1,0,0:0:0:0:
399,160,77218,1,8,0:0:0:0:
422,144,77286,1,0,0:0:0:0:
449,138,77354,1,8,0:0:0:0:
450,165,77422,1,0,0:0:0:0:
395,190,77559,1,0,0:0:0:0:
376,173,77695,1,8,0:0:0:0:
354,225,77832,1,0,0:0:0:0:
326,229,77899,1,0,0:0:0:0:
413,182,77968,1,8,0:0:0:0:
387,231,78104,1,0,0:0:0:0:
337,257,78241,1,0,0:0:0:0:
363,248,78309,1,8,0:0:0:0:
451,199,78377,1,0,0:0:0:0:
426,211,78445,1,8,0:0:0:0:
409,233,78513,1,8,0:0:0:0:
368,193,78650,1,0,0:0:0:0:
437,173,78786,1,8,0:0:0:0:
437,173,78854,1,8,0:0:0:0:
437,173,78923,1,0,0:0:0:0:
410,222,79059,1,0,0:0:0:0:
394,275,79195,1,8,0:0:0:0:
368,193,79332,1,8,0:0:0:0:
368,193,79400,1,8,0:0:0:0:
437,173,79468,1,0,0:0:0:0:
368,193,79536,1,8,0:0:0:0:
409,233,79604,1,0,0:0:0:0:
354,220,79741,1,0,0:0:0:0:
392,179,79877,1,8,0:0:0:0:
444,197,80013,1,0,0:0:0:0:
422,215,80081,1,0,0:0:0:0:
415,245,80150,1,0,0:0:0:0:
443,196,80286,1,8,0:0:0:0:
444,197,80422,1,8,0:0:0:0:
444,197,80490,1,8,0:0:0:0:
422,215,80559,1,0,0:0:0:0:
400,233,80627,1,0,0:0:0:0:
377,249,80695,5,0,0:0:0:0:
396,26,81240,1,8,0:0:0:0:
362,71,81377,1,0,0:0:0:0:
379,92,81445,1,8,0:0:0:0:
398,111,81513,1,0,0:0:0:0:
414,163,81649,1,8,0:0:0:0:
412,219,81786,1,0,0:0:0:0:
430,198,81854,1,8,0:0:0:0:
446,175,81922,1,0,0:0:0:0:
414,163,81990,1,8,0:0:0:0:
444,197,82059,1,0,0:0:0:0:
411,242,82195,1,8,0:0:0:0:
315,300,82331,1,0,0:0:0:0:
339,286,82399,1,0,0:0:0:0:
311,279,82468,1,8,0:0:0:0:
304,223,82604,1,4,0:0:0:0:
324,112,82877,5,4,0:0:0:0:
414,163,83013,1,8,0:0:0:0:
414,163,83081,1,8,0:0:0:0:
414,163,83149,1,8,0:0:0:0:
360,156,83286,1,4,0:0:0:0:
368,212,83422,1,8,0:0:0:0:
372,240,83490,1,8,0:0:0:0:
372,240,83559,1,8,0:0:0:0:
428,244,83695,1,0,0:0:0:0:
424,300,83831,1,0,0:0:0:0:
372,316,83968,1,4,0:0:0:0:
320,296,84104,1,0,0:0:0:0:
292,288,84172,1,0,0:0:0:0:
292,260,84240,1,8,0:0:0:0:
320,212,84377,1,0,0:0:0:0:
364,176,84513,1,4,0:0:0:0:
414,163,84649,1,0,0:0:0:0:
414,163,84718,1,0,0:0:0:0:
440,164,84786,1,8,0:0:0:0:
428,244,84922,1,0,0:0:0:0:
324,112,85059,1,4,0:0:0:0:
414,163,85195,1,8,0:0:0:0:
414,163,85263,1,8,0:0:0:0:
414,163,85331,1,8,0:0:0:0:
360,156,85468,1,4,0:0:0:0:
368,212,85604,1,8,0:0:0:0:
372,240,85672,1,8,0:0:0:0:
372,240,85741,1,8,0:0:0:0:
428,244,85877,1,0,0:0:0:0:
424,300,86013,1,0,0:0:0:0:
380,176,86149,1,4,0:0:0:0:
324,180,86286,1,0,0:0:0:0:
296,188,86354,1,0,0:0:0:0:
400,196,86422,1,8,0:0:0:0:
456,212,86559,1,0,0:0:0:0:
408,116,86695,1,4,0:0:0:0:
428,168,86831,1,0,0:0:0:0:
456,212,86899,1,8,0:0:0:0:
400,196,86968,1,8,0:0:0:0:
428,244,87104,1,8,0:0:0:0:
324,112,87240,5,4,0:0:0:0:
414,163,87376,1,8,0:0:0:0:
414,163,87444,1,8,0:0:0:0:
414,163,87512,1,8,0:0:0:0:
360,156,87649,1,4,0:0:0:0:
368,212,87785,1,8,0:0:0:0:
372,240,87853,1,8,0:0:0:0:
372,240,87922,1,8,0:0:0:0:
428,244,88058,1,0,0:0:0:0:
424,300,88194,1,0,0:0:0:0:
372,316,88331,1,4,0:0:0:0:
320,296,88467,1,0,0:0:0:0:
292,288,88535,1,0,0:0:0:0:
292,260,88603,1,8,0:0:0:0:
320,212,88740,1,0,0:0:0:0:
364,176,88876,1,4,0:0:0:0:
414,163,89012,1,0,0:0:0:0:
414,163,89081,1,0,0:0:0:0:
440,164,89149,1,8,0:0:0:0:
428,244,89285,1,0,0:0:0:0:
403,193,89422,1,12,0:0:0:0:
409,137,89559,1,0,0:0:0:0:
431,153,89627,1,8,0:0:0:0:
453,169,89695,1,8,0:0:0:0:
409,137,89831,1,12,0:0:0:0:
371,178,89968,1,0,0:0:0:0:
440,164,90036,1,8,0:0:0:0:
440,164,90104,1,8,0:0:0:0:
404,207,90240,1,0,0:0:0:0:
367,249,90377,1,0,0:0:0:0:
380,176,90513,1,4,0:0:0:0:
324,180,90650,1,0,0:0:0:0:
296,188,90718,1,0,0:0:0:0:
400,196,90786,1,8,0:0:0:0:
456,212,90923,1,0,0:0:0:0:
408,116,91059,1,4,0:0:0:0:
354,131,91195,1,0,0:0:0:0:
327,138,91263,1,0,0:0:0:0:
354,142,91331,1,8,0:0:0:0:
440,164,91399,1,8,0:0:0:0:
416,180,91468,1,8,0:0:0:0:
324,112,91604,5,4,0:0:0:0:
414,163,91740,1,8,0:0:0:0:
414,163,91808,1,8,0:0:0:0:
414,163,91876,1,8,0:0:0:0:
360,156,92013,1,4,0:0:0:0:
368,212,92149,1,8,0:0:0:0:
372,240,92217,1,8,0:0:0:0:
372,240,92286,1,8,0:0:0:0:
428,244,92422,1,0,0:0:0:0:
400,242,92490,1,0,0:0:0:0:
424,300,92558,1,0,0:0:0:0:
372,316,92695,1,4,0:0:0:0:
320,296,92831,1,0,0:0:0:0:
292,288,92899,1,0,0:0:0:0:
292,260,92967,1,8,0:0:0:0:
320,212,93104,1,0,0:0:0:0:
364,176,93240,1,4,0:0:0:0:
414,163,93376,1,0,0:0:0:0:
414,163,93445,1,0,0:0:0:0:
440,164,93513,1,8,0:0:0:0:
428,244,93649,1,0,0:0:0:0:
403,193,93786,1,12,0:0:0:0:
409,137,93923,1,0,0:0:0:0:
431,153,93991,1,8,0:0:0:0:
453,169,94059,1,8,0:0:0:0:
409,137,94195,1,12,0:0:0:0:
371,178,94332,1,0,0:0:0:0:
440,164,94400,1,8,0:0:0:0:
440,164,94468,1,8,0:0:0:0:
404,207,94604,1,0,0:0:0:0:
392,232,94672,1,0,0:0:0:0:
367,249,94741,1,0,0:0:0:0:
380,176,94877,1,4,0:0:0:0:
335,209,95013,1,0,0:0:0:0:
312,225,95081,1,0,0:0:0:0:
308,197,95149,1,8,0:0:0:0:
340,151,95286,1,0,0:0:0:0:
391,129,95422,1,4,0:0:0:0:
384,184,95559,1,0,0:0:0:0:
411,232,95695,1,8,0:0:0:0:
438,230,95763,1,8,0:0:0:0:
457,209,95831,1,0,0:0:0:0:
457,209,95899,1,0,0:0:0:0:
460,180,95968,5,0,0:0:0:0:
350,203,96240,1,0,0:0:0:0:
400,178,96377,1,8,0:0:0:0:
438,230,96513,1,0,0:0:0:0:
380,291,96649,1,0,0:0:0:0:
324,283,96786,1,0,0:0:0:0:
296,279,96854,1,0,0:0:0:0:
268,275,96922,1,0,0:0:0:0:
241,265,96990,1,0,0:0:0:0:
400,178,97059,1,8,0:0:0:0:
361,137,97195,1,8,0:0:0:0:
305,135,97331,1,8,0:0:0:0:
248,135,97468,1,8,0:0:0:0:
195,152,97604,1,8,0:0:0:0:
168,161,97672,1,8,0:0:0:0:
168,161,97740,1,8,0:0:0:0:
361,137,97877,1,4,0:0:0:0:
416,143,98013,1,4,0:0:0:0:
440,193,98149,5,8,0:0:0:0:
435,249,98286,1,8,0:0:0:0:
459,198,98422,1,0,0:0:0:0:
405,215,98559,1,8,0:0:0:0:
361,250,98695,1,8,0:0:0:0:
394,205,98831,1,0,0:0:0:0:
382,149,98968,1,8,0:0:0:0:
440,193,99104,1,0,0:0:0:0:
405,215,99240,1,8,0:0:0:0:
408,271,99377,1,8,0:0:0:0:
401,215,99513,1,0,0:0:0:0:
394,159,99649,1,8,0:0:0:0:
449,152,99786,1,8,0:0:0:0:
481,197,99922,1,0,0:0:0:0:
441,157,100059,1,8,0:0:0:0:
421,209,100195,1,0,0:0:0:0:
431,154,100331,1,8,0:0:0:0:
441,209,100468,1,0,0:0:0:0:
392,237,100604,1,0,0:0:0:0:
441,157,100740,1,8,0:0:0:0:
426,211,100877,1,0,0:0:0:0:
392,237,101013,1,0,0:0:0:0:
407,183,101149,1,8,0:0:0:0:
460,200,101286,1,0,0:0:0:0:
441,157,101422,1,8,0:0:0:0:
441,209,101559,1,0,0:0:0:0:
392,237,101695,1,0,0:0:0:0:
407,183,101831,1,8,0:0:0:0:
441,209,101968,1,0,0:0:0:0:
385,209,102104,1,0,0:0:0:0:
441,157,102240,1,8,0:0:0:0:
400,196,102377,1,0,0:0:0:0:
394,140,102513,5,8,0:0:0:0:
407,183,102649,1,0,0:0:0:0:
415,238,102786,1,8,0:0:0:0:
425,183,102922,1,8,0:0:0:0:
423,239,103059,1,0,0:0:0:0:
368,226,103195,1,8,0:0:0:0:
425,183,103331,1,8,0:0:0:0:
429,239,103468,1,0,0:0:0:0:
394,140,103604,1,8,0:0:0:0:
407,183,103740,1,0,0:0:0:0:
415,238,103877,1,8,0:0:0:0:
425,183,104013,1,8,0:0:0:0:
423,239,104150,1,0,0:0:0:0:
368,226,104286,1,8,0:0:0:0:
425,183,104422,1,8,0:0:0:0:
429,239,104559,1,0,0:0:0:0:
415,184,104695,1,8,0:0:0:0:
394,235,104831,1,0,0:0:0:0:
394,235,104968,1,0,0:0:0:0:
437,200,105104,1,8,0:0:0:0:
394,235,105240,1,0,0:0:0:0:
394,235,105377,1,0,0:0:0:0:
433,195,105513,1,8,0:0:0:0:
381,217,105649,1,0,0:0:0:0:
415,184,105786,1,8,0:0:0:0:
394,235,105922,1,0,0:0:0:0:
394,235,106059,1,0,0:0:0:0:
437,200,106195,1,8,0:0:0:0:
394,235,106331,1,0,0:0:0:0:
338,229,106468,1,0,0:0:0:0:
310,229,106536,1,0,0:0:0:0:
394,205,106604,1,8,0:0:0:0:
381,217,106740,1,8,0:0:0:0:
440,193,106877,5,8,0:0:0:0:
435,249,107014,1,8,0:0:0:0:
394,235,107081,1,8,0:0:0:0:
459,198,107150,1,0,0:0:0:0:
405,215,107287,1,8,0:0:0:0:
361,250,107423,1,8,0:0:0:0:
361,277,107490,1,8,0:0:0:0:
394,205,107559,1,0,0:0:0:0:
382,149,107696,1,8,0:0:0:0:
440,193,107832,1,0,0:0:0:0:
405,215,107968,1,8,0:0:0:0:
408,271,108105,1,8,0:0:0:0:
382,282,108172,1,8,0:0:0:0:
401,215,108241,1,0,0:0:0:0:
394,159,108377,1,8,0:0:0:0:
449,152,108514,1,8,0:0:0:0:
432,174,108581,1,8,0:0:0:0:
481,197,108650,1,0,0:0:0:0:
441,157,108787,1,8,0:0:0:0:
421,209,108923,1,0,0:0:0:0:
431,154,109059,1,8,0:0:0:0:
441,209,109196,1,0,0:0:0:0:
422,229,109263,1,0,0:0:0:0:
392,237,109332,1,0,0:0:0:0:
441,157,109468,1,8,0:0:0:0:
426,211,109605,1,0,0:0:0:0:
411,234,109672,1,0,0:0:0:0:
392,237,109741,1,0,0:0:0:0:
407,183,109877,1,8,0:0:0:0:
460,200,110014,1,0,0:0:0:0:
441,157,110150,1,8,0:0:0:0:
441,209,110287,1,0,0:0:0:0:
425,231,110354,1,0,0:0:0:0:
392,237,110423,1,0,0:0:0:0:
407,183,110559,1,8,0:0:0:0:
441,209,110696,1,0,0:0:0:0:
424,231,110763,1,0,0:0:0:0:
385,209,110832,1,0,0:0:0:0:
441,157,110968,1,8,0:0:0:0:
400,196,111105,1,0,0:0:0:0:
394,140,111241,5,8,0:0:0:0:
407,183,111377,1,0,0:0:0:0:
395,208,111445,1,0,0:0:0:0:
415,238,111514,1,8,0:0:0:0:
425,183,111650,1,8,0:0:0:0:
423,239,111787,1,0,0:0:0:0:
399,253,111854,1,0,0:0:0:0:
368,226,111923,1,8,0:0:0:0:
425,183,112059,1,8,0:0:0:0:
429,239,112196,1,0,0:0:0:0:
394,140,112332,1,8,0:0:0:0:
407,183,112468,1,0,0:0:0:0:
398,209,112536,1,0,0:0:0:0:
415,238,112605,1,8,0:0:0:0:
425,183,112741,1,8,0:0:0:0:
423,239,112878,1,0,0:0:0:0:
406,261,112945,1,0,0:0:0:0:
368,226,113014,1,8,0:0:0:0:
425,183,113150,1,8,0:0:0:0:
429,239,113287,1,0,0:0:0:0:
415,184,113423,1,8,0:0:0:0:
394,235,113559,1,0,0:0:0:0:
386,261,113627,1,0,0:0:0:0:
394,235,113696,1,0,0:0:0:0:
437,200,113832,1,8,0:0:0:0:
394,235,113968,1,0,0:0:0:0:
385,261,114036,1,0,0:0:0:0:
394,235,114105,1,0,0:0:0:0:
433,195,114241,1,8,0:0:0:0:
381,217,114377,1,0,0:0:0:0:
415,184,114514,1,8,0:0:0:0:
394,235,114650,1,0,0:0:0:0:
386,261,114718,1,0,0:0:0:0:
394,235,114787,1,0,0:0:0:0:
437,200,114923,1,8,0:0:0:0:
394,235,115059,1,0,0:0:0:0:
394,235,115196,1,0,0:0:0:0:
370,220,115263,1,0,0:0:0:0:
380,194,115331,1,8,0:0:0:0:
388,167,115399,1,8,0:0:0:0:
388,167,115468,1,8,0:0:0:0:
354,144,115603,5,8,0:0:0:0:
406,165,115740,1,0,0:0:0:0:
431,175,115808,1,0,0:0:0:0:
457,184,115876,1,8,0:0:0:0:
406,165,116012,1,0,0:0:0:0:
431,175,116080,1,0,0:0:0:0:
457,184,116148,1,8,0:0:0:0:
406,165,116285,1,0,0:0:0:0:
431,175,116353,1,0,0:0:0:0:
457,184,116421,1,8,0:0:0:0:
406,165,116558,1,0,0:0:0:0:
431,175,116626,1,0,0:0:0:0:
457,184,116694,1,8,0:0:0:0:
406,165,116831,1,0,0:0:0:0:
431,175,116899,1,0,0:0:0:0:
457,184,116967,1,8,0:0:0:0:
406,165,117103,1,0,0:0:0:0:
431,175,117171,1,0,0:0:0:0:
457,184,117239,1,8,0:0:0:0:
406,165,117376,1,0,0:0:0:0:
431,175,117444,1,0,0:0:0:0:
457,184,117512,1,8,0:0:0:0:
406,165,117649,1,0,0:0:0:0:
431,175,117717,1,0,0:0:0:0:
457,184,117785,1,8,0:0:0:0:
400,192,117921,1,0,0:0:0:0:
372,196,117990,1,0,0:0:0:0:
344,200,118058,1,0,0:0:0:0:
316,200,118126,1,0,0:0:0:0:
356,144,118194,1,8,0:0:0:0:
356,200,118331,1,0,0:0:0:0:
348,228,118399,1,0,0:0:0:0:
336,252,118467,1,0,0:0:0:0:
431,175,118535,1,0,0:0:0:0:
360,200,118603,1,8,0:0:0:0:
400,192,118740,1,0,0:0:0:0:
392,220,118808,1,0,0:0:0:0:
388,192,118876,1,8,0:0:0:0:
360,240,119012,1,0,0:0:0:0:
348,228,119081,1,0,0:0:0:0:
336,252,119149,1,0,0:0:0:0:
348,276,119217,1,0,0:0:0:0:
364,204,119285,1,8,0:0:0:0:
416,228,119421,1,0,0:0:0:0:
396,248,119490,1,0,0:0:0:0:
372,260,119558,1,0,0:0:0:0:
348,244,119626,1,0,0:0:0:0:
388,208,119694,1,8,0:0:0:0:
416,228,119831,1,0,0:0:0:0:
388,228,119899,1,0,0:0:0:0:
354,144,119967,1,8,0:0:0:0:
406,165,120104,1,0,0:0:0:0:
431,175,120172,1,0,0:0:0:0:
457,184,120240,1,8,0:0:0:0:
406,165,120376,1,0,0:0:0:0:
431,175,120444,1,0,0:0:0:0:
457,184,120512,1,8,0:0:0:0:
406,165,120649,1,0,0:0:0:0:
431,175,120717,1,0,0:0:0:0:
457,184,120785,1,8,0:0:0:0:
406,165,120922,1,0,0:0:0:0:
431,175,120990,1,0,0:0:0:0:
457,184,121058,1,8,0:0:0:0:
406,165,121195,1,0,0:0:0:0:
431,175,121263,1,0,0:0:0:0:
457,184,121331,1,8,0:0:0:0:
406,165,121467,1,0,0:0:0:0:
431,175,121535,1,0,0:0:0:0:
457,184,121603,1,8,0:0:0:0:
406,165,121740,1,0,0:0:0:0:
431,175,121808,1,0,0:0:0:0:
457,184,121876,1,8,0:0:0:0:
406,165,122013,1,0,0:0:0:0:
431,175,122081,1,0,0:0:0:0:
457,184,122149,1,8,0:0:0:0:
400,184,122285,1,0,0:0:0:0:
372,184,122353,1,0,0:0:0:0:
344,184,122421,1,0,0:0:0:0:
316,192,122490,1,0,0:0:0:0:
380,140,122558,1,8,0:0:0:0:
388,196,122694,1,0,0:0:0:0:
380,224,122762,1,0,0:0:0:0:
368,248,122831,1,0,0:0:0:0:
392,264,122899,1,0,0:0:0:0:
406,165,122967,1,8,0:0:0:0:
368,208,123103,1,0,0:0:0:0:
340,204,123172,1,0,0:0:0:0:
364,192,123240,1,8,0:0:0:0:
420,204,123377,1,0,0:0:0:0:
444,216,123445,1,0,0:0:0:0:
444,216,123513,1,0,0:0:0:0:
420,204,123581,1,0,0:0:0:0:
424,176,123649,1,8,0:0:0:0:
388,196,123786,1,0,0:0:0:0:
388,196,123854,1,0,0:0:0:0:
388,196,123922,1,0,0:0:0:0:
388,196,123990,1,0,0:0:0:0:
408,176,124059,1,8,0:0:0:0:
420,204,124195,1,0,0:0:0:0:
440,193,124331,5,12,0:0:0:0:
435,249,124468,1,8,0:0:0:0:
459,198,124604,1,4,0:0:0:0:
405,215,124741,1,8,0:0:0:0:
361,250,124877,1,12,0:0:0:0:
394,205,125013,1,0,0:0:0:0:
382,149,125150,1,12,0:0:0:0:
440,193,125286,1,0,0:0:0:0:
405,215,125422,1,12,0:0:0:0:
408,271,125559,1,8,0:0:0:0:
401,215,125695,1,4,0:0:0:0:
394,159,125831,1,8,0:0:0:0:
449,152,125968,1,12,0:0:0:0:
481,197,126104,1,0,0:0:0:0:
441,157,126241,1,12,0:0:0:0:
421,209,126377,1,0,0:0:0:0:
431,154,126513,1,12,0:0:0:0:
441,209,126650,1,0,0:0:0:0:
392,237,126786,1,4,0:0:0:0:
441,157,126922,1,8,0:0:0:0:
426,211,127059,1,4,0:0:0:0:
392,237,127195,1,0,0:0:0:0:
407,183,127331,1,12,0:0:0:0:
460,200,127468,1,0,0:0:0:0:
441,157,127604,1,12,0:0:0:0:
441,209,127741,1,0,0:0:0:0:
392,237,127877,1,4,0:0:0:0:
407,183,128013,1,8,0:0:0:0:
441,209,128150,1,4,0:0:0:0:
385,209,128286,1,0,0:0:0:0:
441,157,128422,1,12,0:0:0:0:
400,196,128559,1,0,0:0:0:0:
394,140,128695,5,12,0:0:0:0:
407,183,128831,1,0,0:0:0:0:
415,238,128968,1,12,0:0:0:0:
425,183,129104,1,8,0:0:0:0:
423,239,129241,1,4,0:0:0:0:
368,226,129377,1,8,0:0:0:0:
425,183,129513,1,12,0:0:0:0:
429,239,129650,1,0,0:0:0:0:
394,140,129786,1,12,0:0:0:0:
407,183,129922,1,0,0:0:0:0:
415,238,130059,1,12,0:0:0:0:
425,183,130195,1,8,0:0:0:0:
423,239,130332,1,4,0:0:0:0:
368,226,130468,1,8,0:0:0:0:
425,183,130604,1,12,0:0:0:0:
429,239,130741,1,0,0:0:0:0:
415,184,130877,1,12,0:0:0:0:
394,235,131013,1,0,0:0:0:0:
394,235,131150,1,4,0:0:0:0:
437,200,131286,1,8,0:0:0:0:
394,235,131422,1,4,0:0:0:0:
394,235,131559,1,0,0:0:0:0:
433,195,131695,1,12,0:0:0:0:
376,196,131831,1,0,0:0:0:0:
320,184,131968,5,4,0:0:0:0:
392,164,133059,5,12,0:0:0:0:
176,260,133877,1,0,0:0:0:0:
388,332,134422,1,0,0:0:0:0:
512,288,134695,1,0,0:0:0:0:
288,284,135240,1,0,0:0:0:0:
360,304,136059,1,0,0:0:0:0:
308,84,136604,1,0,0:0:0:0:
320,140,136740,1,0,0:0:0:0:
332,196,136877,1,0,0:0:0:0:
232,248,137149,1,0,0:0:0:0:
144,180,137422,5,0,0:0:0:0:
436,348,138240,1,0,0:0:0:0:
324,152,138786,1,0,0:0:0:0:
332,264,139059,1,0,0:0:0:0:
328,320,139195,1,0,0:0:0:0:
316,264,139331,1,0,0:0:0:0:
228,196,139604,1,0,0:0:0:0:
384,268,140013,1,0,0:0:0:0:
384,268,140422,1,0,0:0:0:0:
312,352,140695,1,0,0:0:0:0:
272,276,140968,1,0,0:0:0:0:
488,328,141240,1,0,0:0:0:0:
440,300,141377,1,0,0:0:0:0:
388,276,141513,1,0,0:0:0:0:
348,152,141786,5,0,0:0:0:0:
384,300,142604,1,0,0:0:0:0:
192,188,143149,1,0,0:0:0:0:
304,208,143422,1,0,0:0:0:0:
304,208,143695,1,0,0:0:0:0:
300,320,143968,1,0,0:0:0:0:
488,40,144786,1,0,0:0:0:0:
364,228,145331,1,0,0:0:0:0:
332,276,145468,1,0,0:0:0:0:
300,320,145604,1,0,0:0:0:0:
332,276,145877,1,0,0:0:0:0:
232,224,146149,5,0,0:0:0:0:
176,192,146968,1,0,0:0:0:0:
388,268,147513,1,0,0:0:0:0:
280,236,147786,1,0,0:0:0:0:
332,252,147922,1,0,0:0:0:0:
388,268,148059,1,0,0:0:0:0:
364,316,148195,1,0,0:0:0:0:
380,264,148331,1,0,0:0:0:0:
431,86,150513,6,4,B|42:269|42:269|412:318|140:51|140:51|238:113,1,980
256,192,152695,12,0,154740,0:0:0:0:
431,86,154877,6,4,B|42:269|42:269|412:318|216:142|216:142|184:97,1,840
308,186,157059,1,4,0:0:0:0:
465,245,157468,1,4,0:0:0:0:
306,301,157877,1,4,0:0:0:0:
367,207,158149,1,12,0:0:0:0:
415,164,158695,1,4,0:0:0:0:
358,260,158968,1,12,0:0:0:0:
431,86,159240,6,4,B|42:269|42:269|412:318|140:51|140:51|238:113,1,980
256,192,161422,12,0,163468,0:0:0:0:
431,86,163604,6,4,B|42:269|42:269|412:318|216:142|216:142|184:97,1,840
308,186,165786,1,4,0:0:0:0:
465,245,166195,1,4,0:0:0:0:
306,301,166604,1,4,0:0:0:0:
367,207,166876,1,12,0:0:0:0:
415,164,167422,1,12,0:0:0:0:
358,260,167695,1,12,0:0:0:0:
431,86,167968,6,4,B|42:269|42:269|412:318|140:51|140:51|238:113,1,980
256,192,170150,12,0,172195,0:0:0:0:
431,86,172332,6,4,B|42:269|42:269|412:318|216:142|216:142|184:97,1,840
308,186,174514,1,4,0:0:0:0:
465,245,174923,1,4,0:0:0:0:
306,301,175332,1,4,0:0:0:0:
367,207,175604,1,12,0:0:0:0:
415,164,176150,1,4,0:0:0:0:
358,260,176423,1,12,0:0:0:0:
431,86,176695,6,4,B|42:269|42:269|412:318|140:51|140:51|238:113,1,980
256,192,178877,12,0,180922,0:0:0:0:
431,86,181059,6,4,B|42:269|42:269|412:318|216:142|216:142|184:97,1,840
303,149,182968,1,4,0:0:0:0:
308,186,183241,1,4,0:0:0:0:
465,245,183650,1,4,0:0:0:0:
306,301,184059,1,4,0:0:0:0:
367,207,184331,1,12,0:0:0:0:
415,164,184877,1,12,0:0:0:0:
298,165,185422,5,4,0:0:0:0:
185,224,186786,1,0,0:0:0:0:
351,198,187195,1,0,0:0:0:0:
404,215,187331,1,0,0:0:0:0:
377,264,187468,1,0,0:0:0:0:
386,219,187604,1,8,0:0:0:0:
323,312,188149,1,8,0:0:0:0:
414,107,188695,1,0,0:0:0:0:
418,162,188831,1,8,0:0:0:0:
379,325,189240,1,0,0:0:0:0:
369,269,189513,1,8,0:0:0:0:
261,153,189786,5,0,0:0:0:0:
350,358,190331,1,0,0:0:0:0:
267,211,190740,1,0,0:0:0:0:
405,288,191149,1,0,0:0:0:0:
245,233,191559,1,0,0:0:0:0:
297,251,191695,1,0,0:0:0:0:
350,236,191831,1,0,0:0:0:0:
389,195,191968,1,8,0:0:0:0:
165,199,192513,1,8,0:0:0:0:
387,167,193059,1,0,0:0:0:0:
442,169,193195,1,8,0:0:0:0:
319,54,193604,1,0,0:0:0:0:
442,169,193877,1,8,0:0:0:0:
337,208,194149,5,0,0:0:0:0:
315,348,194695,1,0,0:0:0:0:
476,301,195104,1,0,0:0:0:0:
365,284,195377,1,0,0:0:0:0:
314,254,195513,1,0,0:0:0:0:
389,104,195922,1,8,0:0:0:0:
407,157,196059,1,0,0:0:0:0:
433,206,196195,1,0,0:0:0:0:
377,203,196331,1,8,0:0:0:0:
342,331,196877,1,8,0:0:0:0:
403,115,197422,1,0,0:0:0:0:
433,206,197559,1,8,0:0:0:0:
275,263,197968,1,8,0:0:0:0:
256,192,198649,12,0,202877,0:0:0:0:
