osu file format v12

[General]
AudioFilename: LapFox Trax - This Place Will Grow EP - 05 Why Am I So Angry.mp3
AudioLeadIn: 1500
PreviewTime: 66513
Countdown: 0
SampleSet: Normal
StackLeniency: 0.7
Mode: 0
LetterboxInBreaks: 1

[Editor]
Bookmarks: 98149,115604,131968,150513,151331,175059
DistanceSpacing: 1
BeatDivisor: 4
GridSize: 4

[Metadata]
Title:Why Am I So Angry
TitleUnicode:Why Am I So Angry
Artist:Renard
ArtistUnicode:Renard
Creator:Blue Dragon
Version:Normal
Source:
Tags:this place will grow lapfox trax queenston raggacore
BeatmapID:141599
BeatmapSetID:31133

[Difficulty]
HPDrainRate:1
CircleSize:3
OverallDifficulty:3
ApproachRate:4
SliderMultiplier:0.9
SliderTickRate:1

[Events]
//Background and Video events
0,0,"renard_thisplace.png",0,0
//Break Periods
2,133059,138284
//Storyboard Layer 0 (Background)
//Storyboard Layer 1 (Fail)
//Storyboard Layer 2 (Pass)
//Storyboard Layer 3 (Foreground)
//Storyboard Sound Samples
//Background Colour Transformations
3,100,255,255,255

[TimingPoints]
1059,272.727272727273,4,1,0,65,1,0
16877,-100,4,2,0,5,0,0
17422,-100,4,1,0,65,0,0
139604,-200,4,1,0,65,0,0
150513,-100,4,1,0,65,0,1
185422,-100,4,1,0,65,0,0

[Colours]
Combo1 : 119,0,0
Combo2 : 255,128,128
Combo3 : 213,47,47

[HitObjects]
256,192,1059,12,4,2149,0:0:0:0:
444,48,2695,5,8,0:0:0:0:
372,104,2968,1,0,0:0:0:0:
288,72,3240,2,0,B|199:39|199:104|111:72,2,180,0|0|2,0:0|0:0|0:0,0:0:0:0:
288,72,4877,1,0,0:0:0:0:
356,240,5422,6,0,B|356:281|395:323|445:319,2,135
444,228,6513,2,0,B|444:48,1,180,4|0,0:0|0:0,0:0:0:0:
356,36,7331,1,0,0:0:0:0:
292,99,7604,2,0,B|248:79|204:98,1,90,2|0,0:0|0:0,0:0:0:0:
164,180,8149,2,0,B|207:199|251:180,1,90,8|0,0:0|0:0,0:0:0:0:
340,172,8695,1,4,0:0:0:0:
340,172,9240,1,4,0:0:0:0:
427,327,9786,6,0,B|384:312|344:344,1,90,2|0,0:0|0:0,0:0:0:0:
280,280,10331,2,0,B|239:312|195:296,1,90,8|0,0:0|0:0,0:0:0:0:
131,360,10877,2,0,B|27:320|-41:180|18:58,1,360
104,28,12240,1,0,0:0:0:0:
176,84,12513,2,0,B|212:48|260:56,1,90,8|0,0:0|0:0,0:0:0:0:
244,144,13059,1,4,0:0:0:0:
244,144,13604,1,4,0:0:0:0:
192,316,14149,6,0,B|256:352|320:316,2,135,2|0|0,0:0|0:0|0:0,0:0:0:0:
128,252,15240,1,4,0:0:0:0:
256,192,15377,12,0,16877,0:0:0:0:
280,48,17422,6,0,B|344:120|448:100,1,180,4|0,0:0|0:0,0:0:0:0:
500,172,18240,1,0,0:0:0:0:
460,252,18513,2,0,B|464:304|504:328,2,90,0|0|8,0:0|0:0|0:0,0:0:0:0:
368,256,19331,1,0,0:0:0:0:
288,296,19604,2,0,B|188:276|124:348,1,180,2|0,0:0|0:0,0:0:0:0:
40,324,20422,1,0,0:0:0:0:
16,236,20695,2,0,B|16:92,2,135,2|8|0,0:0|0:0|0:0,0:0:0:0:
104,216,21786,5,4,0:0:0:0:
160,44,22331,2,0,B|204:56|248:44,1,90,2|0,0:0|0:0,0:0:0:0:
312,107,22877,2,0,B|356:95|400:107,1,90,0|0,0:0|0:0,0:0:0:0:
464,170,23422,2,0,B|484:270|412:334,1,180,2|4,0:0|0:0,0:0:0:0:
412,333,24513,1,0,0:0:0:0:
231,312,25059,6,0,B|180:312|165:361,1,90,2|0,0:0|0:0,0:0:0:0:
76,372,25604,1,8,0:0:0:0:
16,308,25877,1,0,0:0:0:0:
60,232,26149,2,4,B|80:132|171:101,1,180,4|0,0:0|0:0,0:0:0:0:
260,112,26968,1,0,0:0:0:0:
340,68,27240,2,0,B|368:25|417:41,1,90,2|0,0:0|0:0,0:0:0:0:
480,108,27786,2,0,B|451:150|402:134,2,90,8|0|2,0:0|0:0|0:0,0:0:0:0:
324,196,28877,5,0,0:0:0:0:
300,284,29149,1,0,0:0:0:0:
348,360,29422,2,0,B|484:360,2,135
257,360,30513,1,4,0:0:0:0:
196,192,31059,1,8,0:0:0:0:
257,24,31604,2,0,B|352:24,1,90,2|0,0:0|0:0,0:0:0:0:
410,87,32149,2,0,B|500:87,1,90
504,176,32695,6,0,P|472:240|364:244,1,180,4|0,0:0|0:0,0:0:0:0:
333,168,33513,1,0,0:0:0:0:
269,104,33786,2,0,P|192:156|208:240,1,180,2|8,0:0|0:0,0:0:0:0:
256,312,34604,5,0,0:0:0:0:
172,348,34877,2,0,B|28:348,2,135,8|0|0,0:0|0:0|0:0,0:0:0:0:
172,257,35968,2,0,B|28:257,2,135,8|0|0,0:0|0:0|0:0,0:0:0:0:
144,172,37059,6,0,B|105:107|130:45|189:25,1,180,2|8,0:0|0:0,0:0:0:0:
256,88,37877,1,0,0:0:0:0:
321,25,38149,2,0,B|381:45|406:107|368:172,1,180,0|8,0:0|0:0,0:0:0:0:
340,260,38968,1,0,0:0:0:0:
256,224,39240,2,0,B|231:289|279:289|256:354,2,135,2|0|0,0:0|0:0|0:0,0:0:0:0:
192,160,40331,2,0,B|104:127|104:191|17:160,1,180,2|8,0:0|0:0,0:0:0:0:
168,60,41422,6,0,B|256:28|344:60,1,180,4|0,0:0|0:0,0:0:0:0:
372,144,42240,1,0,0:0:0:0:
296,192,42513,2,0,B|332:232|296:272,1,90,2|0,0:0|0:0,0:0:0:0:
216,316,43059,2,0,B|179:275|215:235,1,90,8|0,0:0|0:0,0:0:0:0:
216,144,43604,6,0,B|156:148|108:204|108:268,1,180,2|0,0:0|0:0,0:0:0:0:
144,352,44422,1,0,0:0:0:0:
232,376,44695,2,0,B|292:372|340:316|340:252,1,180,8|0,0:0|0:0,0:0:0:0:
304,172,45513,1,0,0:0:0:0:
367,108,45786,6,0,B|432:83|432:131|497:108,2,135,2|0|0,0:0|0:0|0:0,0:0:0:0:
344,20,46877,2,0,B|256:52|168:20,1,180,8|0,0:0|0:0,0:0:0:0:
88,64,47695,1,0,0:0:0:0:
40,140,47968,2,0,B|29:208|76:198|67:267,2,135,2|0|0,0:0|0:0|0:0,0:0:0:0:
128,160,49059,1,8,0:0:0:0:
216,148,49331,1,0,0:0:0:0:
288,92,49604,2,0,B|344:20,1,90,8|0,0:0|0:0,0:0:0:0:
432,32,50149,6,0,B|412:132|504:188,1,180,4|0,0:0|0:0,0:0:0:0:
468,272,50968,1,0,0:0:0:0:
388,312,51240,2,0,B|344:328|300:312,1,90,2|0,0:0|0:0,0:0:0:0:
212,312,51786,2,0,B|168:328|124:312,1,90,8|0,0:0|0:0,0:0:0:0:
100,224,52331,6,0,B|37:183|54:107,1,135,2|0,0:0|0:0,0:0:0:0:
182,64,53149,1,0,0:0:0:0:
182,64,53422,2,0,B|265:117|242:220,1,180,2|8,0:0|0:0,0:0:0:0:
220,308,54240,1,0,0:0:0:0:
308,288,54513,2,2,B|352:304|396:288,1,90
396,197,55059,2,0,B|440:181|484:197,1,90,8|0,0:0|0:0,0:0:0:0:
484,287,55604,6,0,B|484:99,1,180,4|0,0:0|0:0,0:0:0:0:
412,52,56422,1,0,0:0:0:0:
344,112,56695,2,0,B|300:128|256:112,1,90,2|0,0:0|0:0,0:0:0:0:
192,48,57240,2,0,B|148:32|104:48,1,90,8|0,0:0|0:0,0:0:0:0:
39,111,57786,2,0,B|39:299,1,180,4|0,0:0|0:0,0:0:0:0:
120,332,58604,1,0,0:0:0:0:
168,256,58877,6,0,B|256:224|344:256,1,180,2|8,0:0|0:0,0:0:0:0:
436,252,59695,1,0,0:0:0:0:
452,164,59968,2,0,B|483:124|468:79,1,90,2|0,0:0|0:0,0:0:0:0:
392,32,60513,1,8,0:0:0:0:
304,24,60786,1,0,0:0:0:0:
215,40,61059,2,0,B|176:100|106:111,2,135,2|0|0,0:0|0:0|0:0,0:0:0:0:
276,108,62149,2,0,B|355:161|371:253,1,180,8|8,0:0|0:0,0:0:0:0:
356,344,62968,1,0,0:0:0:0:
276,308,63240,6,4,B|96:308,1,180,4|0,0:0|0:0,0:0:0:0:
28,252,64059,1,0,0:0:0:0:
80,180,64331,2,0,B|139:144|132:64,2,135,2|0|2,0:0|0:0|0:0,0:0:0:0:
143,243,65422,2,0,B|191:162|298:173,1,180
360,236,66240,1,0,0:0:0:0:
423,299,66513,1,4,0:0:0:0:
52,44,67604,6,0,B|72:92|125:81,1,90,2|0,0:0|0:0,0:0:0:0:
208,44,68149,1,0,0:0:0:0:
296,24,68422,1,0,0:0:0:0:
384,44,68695,2,0,B|464:91|454:198,1,180,8|0,0:0|0:0,0:0:0:0:
376,244,69513,1,0,0:0:0:0:
312,307,69786,2,0,B|225:340|225:275|136:306,1,180,4|0,0:0|0:0,0:0:0:0:
56,268,70604,1,0,0:0:0:0:
56,177,70877,6,0,B|123:152|190:177,2,135,2|8|0,0:0|0:0|0:0,0:0:0:0:
20,96,71968,1,4,0:0:0:0:
76,24,72240,1,0,0:0:0:0:
168,28,72513,6,0,B|212:44|256:28,1,90
319,92,73059,2,0,B|407:58|496:92,2,180,2|0|2,0:0|0:0|0:0,0:0:0:0:
276,172,74422,1,0,0:0:0:0:
324,248,74695,1,2,0:0:0:0:
412,264,74968,1,0,0:0:0:0:
472,332,75240,6,0,B|393:382|380:318|299:367,1,180
256,288,76059,1,0,0:0:0:0:
211,367,76331,2,0,B|131:318|118:382|40:332,1,180,4|8,0:0|0:0,0:0:0:0:
100,264,77149,6,0,B|116:219|100:175,2,90
20,220,77968,2,0,B|-12:132|20:44,1,180,8|2,0:0|0:0,0:0:0:0:
110,44,78786,1,2,0:0:0:0:
200,44,79059,1,2,0:0:0:0:
289,44,79331,6,0,B|331:63|351:106,1,90
432,148,79877,2,0,B|472:176,2,45,0|0|2,0:0|0:0|0:0,0:0:0:0:
368,211,80422,2,0,B|321:204|281:229,1,90,0|4,0:0|0:0,0:0:0:0:
154,356,81240,6,8,B|110:338|110:338|74:356|74:356|30:338,2,135
228,304,82331,1,0,0:0:0:0:
228,212,82604,1,0,0:0:0:0:
156,160,82877,6,0,P|180:72|352:48,1,270,4|0,0:0|0:0,0:0:0:0:
380,120,83968,2,0,P|432:148|468:148,1,90,2|0,0:0|0:0,0:0:0:0:
461,235,84513,2,0,P|432:236|380:264,1,90,8|0,0:0|0:0,0:0:0:0:
332,340,85059,5,2,0:0:0:0:
164,120,85604,5,0,0:0:0:0:
80,152,85877,1,0,0:0:0:0:
88,64,86149,2,0,P|164:23|240:64,1,180,2|8,0:0|0:0,0:0:0:0:
256,152,86968,1,0,0:0:0:0:
268,240,87240,6,0,P|344:280|420:240,1,180,4|8,0:0|0:0,0:0:0:0:
345,190,88059,1,0,0:0:0:0:
408,124,88331,2,0,L|452:40,2,90
256,28,89422,6,2,P|164:84|88:88,1,180,2|2,0:0|0:0,0:0:0:0:
16,40,90240,1,0,0:0:0:0:
12,128,90513,2,0,L|44:260,2,135
16,40,91604,6,0,P|124:68|200:200,1,270,4|0,0:0|0:0,0:0:0:0:
140,268,92695,2,0,L|220:332,1,90,2|0,0:0|0:0,0:0:0:0:
301,324,93240,2,0,L|372:268,1,90,8|0,0:0|0:0,0:0:0:0:
312,198,93786,2,2,P|388:68|496:40,1,270,2|0,0:0|0:0,0:0:0:0:
476,128,94877,5,0,0:0:0:0:
500,308,95422,1,0,0:0:0:0:
336,236,95968,6,0,P|296:236|184:320,1,180
112,364,96786,1,0,0:0:0:0:
48,300,97059,2,8,L|24:212,1,90
88,149,97604,2,8,L|64:61,1,90,8|2,0:0|0:0,0:0:0:0:
156,60,98149,6,0,P|208:104|272:100,2,135
236,16,99240,2,0,L|164:184,1,180,2|8,0:0|0:0,0:0:0:0:
96,240,100059,1,0,0:0:0:0:
128,324,100331,6,0,P|168:340|212:324,1,90,8|0,0:0|0:0,0:0:0:0:
301,325,100877,2,0,P|344:340|384:324,1,90,8|0,0:0|0:0,0:0:0:0:
340,244,101422,2,0,P|256:216|172:244,1,180,2|0,0:0|0:0,0:0:0:0:
112,176,102240,1,0,0:0:0:0:
176,112,102513,6,0,L|76:20,2,135
256,55,103604,2,0,B|308:192|203:192|256:319,1,270,2|0,0:0|0:0,0:0:0:0:
336,272,104695,6,0,L|436:364,2,135,2|0|0,0:0|0:0|0:0,0:0:0:0:
256,316,105786,2,0,B|212:333|212:333|168:316,1,90,2|0,0:0|0:0,0:0:0:0:
108,254,106331,2,0,B|64:236|64:236|20:254,1,90,8|0,0:0|0:0,0:0:0:0:
64,336,106877,6,0,L|64:52,1,270,4|0,0:0|0:0,0:0:0:0:
152,52,107968,1,2,0:0:0:0:
360,52,108513,1,8,0:0:0:0:
448,64,108786,1,0,0:0:0:0:
392,136,109059,6,0,P|376:204|440:284,1,180,2|8,0:0|0:0,0:0:0:0:
472,192,109877,1,0,0:0:0:0:
472,192,110149,2,0,L|300:256,1,180,8|0,0:0|0:0,0:0:0:0:
256,332,110968,1,0,0:0:0:0:
208,254,111240,6,0,L|40:192,2,180,8|0|2,0:0|0:0|0:0,0:0:0:0:
256,180,112604,1,0,0:0:0:0:
176,136,112877,2,0,P|176:92|212:64,1,90,8|0,0:0|0:0,0:0:0:0:
304,64,113422,6,0,P|324:128|504:144,1,270,2|0,0:0|0:0,0:0:0:0:
456,68,114513,2,0,P|384:148|400:308,1,270,8|0,0:0|0:0,0:0:0:0:
464,360,115604,6,0,L|192:360,1,270,4|0,0:0|0:0,0:0:0:0:
108,340,116695,2,0,L|56:264,1,90,8|0,0:0|0:0,0:0:0:0:
120,202,117240,2,0,L|68:126,1,90,8|0,0:0|0:0,0:0:0:0:
80,36,117786,5,0,0:0:0:0:
168,64,118059,1,0,0:0:0:0:
252,36,118331,2,0,L|344:36,1,90,8|0,0:0|0:0,0:0:0:0:
412,92,118877,2,0,P|376:200|488:288,1,270,8|0,0:0|0:0,0:0:0:0:
480,196,119968,6,0,L|352:336,1,180,2|0,0:0|0:0,0:0:0:0:
292,268,120786,1,0,0:0:0:0:
204,244,121059,2,0,P|144:236|108:244,1,90,2|0,0:0|0:0,0:0:0:0:
76,324,121604,2,0,P|136:332|172:324,1,90,8|0,0:0|0:0,0:0:0:0:
204,244,122149,5,2,0:0:0:0:
216,156,122422,1,0,0:0:0:0:
136,116,122695,2,0,L|188:32,1,90,8|0,0:0|0:0,0:0:0:0:
272,28,123240,6,0,P|332:92|512:100,1,270,2|0,0:0|0:0,0:0:0:0:
440,40,124331,5,4,0:0:0:0:
384,212,124877,1,2,0:0:0:0:
432,288,125149,1,0,0:0:0:0:
340,288,125422,1,8,0:0:0:0:
172,96,125968,1,0,0:0:0:0:
72,344,126513,5,4,0:0:0:0:
128,172,127059,1,2,0:0:0:0:
80,96,127331,1,0,0:0:0:0:
172,96,127604,1,8,0:0:0:0:
340,288,128149,1,0,0:0:0:0:
370,98,128695,6,0,P|256:36|142:98,1,270,2|0,0:0|0:0,0:0:0:0:
142,188,129786,2,0,P|255:249|369:188,1,270,2|0,0:0|0:0,0:0:0:0:
371,99,130877,2,0,L|299:35,1,90,2|0,0:0|0:0,0:0:0:0:
208,39,131422,2,0,L|141:99,1,90,8|0,0:0|0:0,0:0:0:0:
192,52,139604,6,0,L|328:52,1,135,2|0,0:0|0:0,0:0:0:0:
356,88,140695,2,0,P|376:132|368:172,1,90,2|0,0:0|0:0,0:0:0:0:
304,235,141786,5,4,0:0:0:0:
192,312,142604,2,0,L|64:272,1,135
20,192,143968,6,0,P|32:88|56:68,2,135,2|0|0,0:0|0:0|0:0,0:0:0:0:
96,240,146149,2,0,P|84:344|60:364,2,135,2|0|0,0:0|0:0|0:0,0:0:0:0:
256,192,148331,12,0,149968,0:0:0:0:
140,284,150513,6,4,P|252:91|364:284,1,540,4|0,0:0|0:0,0:0:0:0:
104,368,152695,6,0,P|44:184|208:16,1,450,4|0,0:0|0:0,0:0:0:0:
256,92,154331,1,0,0:0:0:0:
408,16,154877,6,0,P|468:200|304:368,1,450,4|0,0:0|0:0,0:0:0:0:
256,292,156513,1,0,0:0:0:0:
200,120,157059,6,0,P|256:88|312:120,2,135,2|0|0,0:0|0:0|0:0,0:0:0:0:
260,188,158149,2,0,P|340:200|396:128,1,180
256,16,159240,6,0,B|184:36|120:16|120:16|88:60|120:96|120:96|176:160|184:264|76:324|-8:284,1,540,4|0,0:0|0:0,0:0:0:0:
0,108,161422,6,0,P|57:224|272:240,1,360,2|0,0:0|0:0,0:0:0:0:
364,372,163059,1,8,0:0:0:0:
512,276,163604,2,0,P|454:159|240:144,1,360,2|0,0:0|0:0,0:0:0:0:
256,320,165240,1,8,0:0:0:0:
116,208,165786,6,0,L|64:80,2,135,2|0|0,0:0|0:0|0:0,0:0:0:0:
72,288,166877,2,0,B|159:318|159:257|246:288,1,180,2|0,0:0|0:0,0:0:0:0:
311,224,167695,2,0,B|398:254|398:193|485:224,1,180,2|0,0:0|0:0,0:0:0:0:
444,304,168513,2,0,P|412:168|472:56,1,270,8|0,0:0|0:0,0:0:0:0:
388,24,169604,1,2,0:0:0:0:
124,24,170149,6,0,P|72:72|60:188,1,180,4|0,0:0|0:0,0:0:0:0:
84,260,170968,2,0,P|132:312|248:324,1,180,4|0,0:0|0:0,0:0:0:0:
256,240,171786,1,4,0:0:0:0:
388,360,172331,6,0,P|440:312|452:196,1,180,4|0,0:0|0:0,0:0:0:0:
428,124,173150,2,0,P|380:72|264:60,1,180,4|0,0:0|0:0,0:0:0:0:
256,144,173968,1,4,0:0:0:0:
156,292,174513,6,0,P|84:268|76:168,2,180
228,236,175877,1,0,0:0:0:0:
264,316,176149,2,0,P|344:316|436:352,1,180,2|4,0:0|0:0,0:0:0:0:
436,172,177240,5,0,0:0:0:0:
356,132,177513,1,4,0:0:0:0:
228,259,178059,5,0,0:0:0:0:
148,219,178332,1,4,0:0:0:0:
72,56,178877,6,0,P|132:52|188:148,1,180
216,228,179695,2,0,P|156:232|100:136,1,180,4|0,0:0|0:0,0:0:0:0:
188,144,180513,2,0,L|280:120,1,90,2|0,0:0|0:0,0:0:0:0:
308,204,181059,6,0,P|368:200|424:296,1,180
452,376,181877,2,0,P|392:380|336:284,1,180,4|0,0:0|0:0,0:0:0:0:
424,292,182695,2,0,L|516:268,1,90,2|0,0:0|0:0,0:0:0:0:
256,192,183240,12,4,185422,0:0:0:0:
