osu file format v13

[General]
AudioFilename: LapFox Trax - This Place Will Grow EP - 05 Why Am I So Angry.mp3
AudioLeadIn: 1500
PreviewTime: 66513
Countdown: 0
SampleSet: Normal
StackLeniency: 0.7
Mode: 0
LetterboxInBreaks: 1
WidescreenStoryboard: 0

[Editor]
Bookmarks: 24513,98149,115604,131968,150513,151331,175059
DistanceSpacing: 1.2
BeatDivisor: 4
GridSize: 4
TimelineZoom: 1

[Metadata]
Title:Why Am I So Angry
TitleUnicode:Why Am I So Angry
Artist:Renard
ArtistUnicode:Renard
Creator:Blue Dragon
Version:Hard
Source:
Tags:this place will grow lapfox trax queenston raggacore
BeatmapID:229815
BeatmapSetID:31133

[Difficulty]
HPDrainRate:5
CircleSize:4
OverallDifficulty:6.3
ApproachRate:8.3
SliderMultiplier:1.4
SliderTickRate:1

[Events]
//Background and Video events
0,0,"renard_thisplace.png",0,0
//Break Periods
//Storyboard Layer 0 (Background)
//Storyboard Layer 1 (Fail)
//Storyboard Layer 2 (Pass)
//Storyboard Layer 3 (Foreground)
//Storyboard Sound Samples
//Background Colour Transformations
3,100,255,255,255

[TimingPoints]
1059,272.727272727273,4,1,0,65,1,0
16877,-100,4,2,0,5,0,0
17422,-100,4,1,0,65,0,0
139604,-200,4,1,0,65,0,0
150513,-100,4,1,0,65,0,1
185422,-100,4,1,0,65,0,0

[Colours]
Combo1 : 119,0,0
Combo2 : 255,128,128
Combo3 : 213,47,47

[HitObjects]
256,192,1059,12,0,2149,0:0:0:0:
412,64,2422,5,0,0:0:0:0:
412,64,2559,1,0,0:0:0:0:
412,64,2695,2,0,P|424:136|384:188,1,140
348,114,3104,1,0,0:0:0:0:
348,114,3240,2,0,B|276:98|276:130|208:114,1,140
244,36,3649,2,0,B|172:20|172:52|104:36,1,140
28,76,4059,1,0,0:0:0:0:
68,240,4331,6,0,P|140:240|192:292,1,140
200,368,4740,1,0,0:0:0:0:
120,340,4877,2,0,L|264:316,1,140
424,284,5422,6,0,P|432:236|384:160,1,140
304,180,5831,2,0,L|404:80,1,140
464,24,6240,1,0,0:0:0:0:
364,228,6513,6,0,P|294:255|232:156,1,210
284,96,7059,2,0,P|228:36|152:32,1,140
92,48,7468,1,0,0:0:0:0:
56,124,7604,2,0,P|52:176|56:196,2,70,0|0|0,0:0|0:0|0:0,0:0:0:0:
284,96,8149,5,0,0:0:0:0:
200,280,8422,1,0,0:0:0:0:
56,124,8695,2,0,P|88:60|232:48,2,210,0|0|0,0:0|0:0|0:0,0:0:0:0:
20,200,9649,1,0,0:0:0:0:
60,272,9786,6,0,L|208:232,1,140
254,295,10195,2,0,L|402:255,1,140
456,308,10604,1,0,0:0:0:0:
340,184,10877,6,0,P|332:112|372:48,1,140
440,16,11286,1,0,0:0:0:0:
436,100,11422,1,0,0:0:0:0:
296,4,11695,1,0,0:0:0:0:
248,164,11968,2,0,L|104:136,1,140
68,64,12377,1,0,0:0:0:0:
68,64,12513,2,0,L|212:36,1,140
336,228,13059,6,0,P|352:264|312:360,1,140
175,228,13604,2,0,P|158:294|191:354,1,140
256,300,14013,1,0,0:0:0:0:
256,216,14149,2,0,B|248:176|256:152|256:152|212:88,1,140
128,94,14559,2,0,B|172:74|212:90|212:90|280:100|308:32,1,210
229,10,15104,1,0,0:0:0:0:
229,10,15240,1,0,0:0:0:0:
256,192,15377,12,0,16877,0:0:0:0:
64,56,17422,6,0,P|60:120|112:172,1,140
172,228,17831,2,0,B|216:229|240:216|240:216|308:264,1,140
364,312,18240,1,0,0:0:0:0:
200,344,18513,1,0,0:0:0:0:
84,224,18786,1,0,0:0:0:0:
64,56,19059,2,0,P|120:24|196:36,1,140
248,100,19468,1,0,0:0:0:0:
248,100,19604,2,0,B|296:100|324:120|324:120|392:92,1,140
416,20,20013,2,0,P|408:80|456:156,1,140
488,220,20422,1,0,0:0:0:0:
476,304,20559,1,0,0:0:0:0:
416,364,20695,6,0,L|276:320,1,140
200,300,21104,2,0,L|340:256,1,140
416,232,21513,1,0,0:0:0:0:
324,92,21786,6,0,P|240:56|184:64,1,140
116,92,22195,1,0,0:0:0:0:
76,164,22331,2,0,P|74:233|107:294,1,140,0|0,0:0|0:0,0:0:0:0:
72,372,22740,2,0,L|200:296,1,140
268,260,23149,2,0,P|337:258|398:291,1,140
472,140,23695,1,0,0:0:0:0:
484,56,23831,1,0,0:0:0:0:
412,8,23968,6,0,B|340:0|340:0|280:40,1,140
224,100,24377,1,0,0:0:0:0:
224,100,24513,2,0,B|152:108|152:108|92:68,1,140
36,12,24922,2,0,P|60:112|48:152,1,140
8,216,25331,1,0,0:0:0:0:
132,328,25604,2,0,P|200:316|256:256,1,140
224,100,26149,6,0,L|376:68,1,140
424,12,26559,1,0,0:0:0:0:
424,12,26695,2,0,P|352:92|368:192,1,210
440,228,27240,2,0,B|372:220|372:220|304:256,1,140
236,296,27649,1,0,0:0:0:0:
164,340,27786,2,0,B|96:348|96:348|28:312,1,140
4,236,28195,1,0,0:0:0:0:
0,152,28331,2,0,P|12:108|160:88,1,210
208,148,28877,5,0,0:0:0:0:
212,232,29013,1,0,0:0:0:0:
172,304,29149,2,0,L|216:368,1,70
296,376,29422,2,0,P|352:332|436:340,1,140
484,176,29968,2,0,P|428:220|344:212,1,140
300,164,30377,1,0,0:0:0:0:
316,80,30513,1,0,0:0:0:0:
256,192,30649,12,0,32695,0:0:0:0:
