osu file format v13

[General]
AudioFilename: LapFox Trax - This Place Will Grow EP - 05 Why Am I So Angry.mp3
AudioLeadIn: 1500
PreviewTime: 66513
Countdown: 0
SampleSet: Normal
StackLeniency: 0.7
Mode: 0
LetterboxInBreaks: 1
WidescreenStoryboard: 0

[Editor]
Bookmarks: 115604,131968,150513,151331,175059
DistanceSpacing: 1
BeatDivisor: 4
GridSize: 4
TimelineZoom: 1

[Metadata]
Title:Why Am I So Angry
TitleUnicode:Why Am I So Angry
Artist:Renard
ArtistUnicode:Renard
Creator:Blue Dragon
Version:Extra '11
Source:
Tags:this place will grow lapfox trax queenston raggacore
BeatmapID:102458
BeatmapSetID:31133

[Difficulty]
HPDrainRate:6
CircleSize:4
OverallDifficulty:8
ApproachRate:9
SliderMultiplier:2.1
SliderTickRate:1

[Events]
//Background and Video events
0,0,"renard_thisplace.png",0,0
//Break Periods
2,133059,139004
//Storyboard Layer 0 (Background)
//Storyboard Layer 1 (Fail)
//Storyboard Layer 2 (Pass)
//Storyboard Layer 3 (Foreground)
//Storyboard Sound Samples
//Background Colour Transformations

[TimingPoints]
1059,272.727272727273,4,1,0,65,1,0
16877,-100,4,2,0,5,0,0
17422,-100,4,1,0,65,0,0
139604,-200,4,1,0,65,0,0
150513,-66.6666666666667,4,1,0,65,0,1
185422,-66.6666666666667,4,1,0,65,0,0

[Colours]
Combo1 : 119,0,0
Combo2 : 255,128,128
Combo3 : 213,47,47

[HitObjects]
256,192,1059,12,4,2150,0:0:0:0:
332,64,2422,5,0,0:0:0:0:
388,128,2559,1,0,0:0:0:0:
468,152,2695,2,8,B|480:204|452:256,1,105,8|0,0:0|0:0,0:0:0:0:
368,264,2968,1,0,0:0:0:0:
344,344,3104,1,0,0:0:0:0:
263,319,3240,2,0,B|184:236|72:287,1,210,2|0,0:0|0:0,0:0:0:0:
124,352,3650,2,0,B|207:272|156:160,1,210,2|0,0:0|0:0,0:0:0:0:
72,144,4059,1,0,0:0:0:0:
88,104,4127,1,0,0:0:0:0:
104,64,4195,1,0,0:0:0:0:
172,16,4331,6,8,B|280:8|267:66|374:62,1,210,8|0,0:0|0:0,0:0:0:0:
448,24,4740,1,0,0:0:0:0:
492,96,4877,2,8,B|472:144|484:208,1,105,8|0,0:0|0:0,0:0:0:0:
400,204,5150,2,8,B|420:252|408:316,1,105,0|0,0:0|0:0,0:0:0:0:
340,356,5422,6,2,B|248:376|176:324|172:264,1,210,2|0,0:0|0:0,0:0:0:0:
256,264,5831,2,2,B|240:192|176:188|176:188|115:188|96:244,1,210,2|0,0:0|0:0,0:0:0:0:
28,272,6240,1,0,0:0:0:0:
24,240,6309,1,0,0:0:0:0:
20,208,6377,1,0,0:0:0:0:
16,176,6445,1,0,0:0:0:0:
12,144,6513,5,0,0:0:0:0:
48,68,6650,1,0,0:0:0:0:
132,52,6786,2,0,B|188:68|192:128,2,105,2|0|0,0:0|0:0|0:0,0:0:0:0:
108,132,7195,2,0,B|148:236,1,105,0|8,0:0|0:0,0:0:0:0:
108,304,7468,1,0,0:0:0:0:
180,348,7604,1,0,0:0:0:0:
252,304,7740,2,0,B|312:304|336:360,2,105,8|0|0,0:0|0:0|0:0,0:0:0:0:
280,224,8150,1,8,0:0:0:0:
356,264,8286,1,0,0:0:0:0:
352,180,8422,1,8,0:0:0:0:
392,104,8559,1,0,0:0:0:0:
360,28,8695,6,2,B|283:24|276:170|352:180,1,210
392,104,9104,2,2,B|308:80|256:164|176:124,1,210
144,60,9513,1,0,0:0:0:0:
108,84,9581,1,0,0:0:0:0:
80,116,9650,1,0,0:0:0:0:
128,184,9786,6,2,B|140:276|72:332|20:340,1,210,2|0,0:0|0:0,0:0:0:0:
8,256,10195,2,8,B|112:276,1,105,8|0,0:0|0:0,0:0:0:0:
152,284,10400,1,0,0:0:0:0:
192,292,10468,1,0,0:0:0:0:
172,372,10604,1,0,0:0:0:0:
212,364,10672,1,0,0:0:0:0:
252,355,10741,2,8,B|355:335,1,105,0|0,0:0|0:0,0:0:0:0:
328,256,11013,1,0,0:0:0:0:
412,272,11150,2,8,B|472:240|492:156|432:92,1,210,8|0,0:0|0:0,0:0:0:0:
348,76,11559,2,8,B|288:108|268:192|328:256,1,210,8|0,0:0|0:0,0:0:0:0:
328,256,11900,1,0,0:0:0:0:
328,256,11968,5,0,0:0:0:0:
252,288,12104,1,0,0:0:0:0:
210,364,12240,2,2,B|128:388|76:315|6:339,1,210,2|0,0:0|0:0,0:0:0:0:
28,256,12650,2,2,B|97:231|149:304|231:280,1,210,2|0,0:0|0:0,0:0:0:0:
236,240,12990,1,0,0:0:0:0:
244,200,13059,2,0,B|204:156|144:168,1,105
68,180,13331,1,8,0:0:0:0:
96,100,13468,1,0,0:0:0:0:
96,100,13536,1,0,0:0:0:0:
96,100,13604,1,0,0:0:0:0:
104,16,13740,5,8,0:0:0:0:
148,20,13809,1,0,0:0:0:0:
188,24,13877,1,0,0:0:0:0:
228,28,13945,1,0,0:0:0:0:
268,32,14013,1,0,0:0:0:0:
308,36,14081,1,0,0:0:0:0:
352,40,14150,6,2,B|460:80|488:200,1,210,2|0,0:0|0:0,0:0:0:0:
324,332,14559,2,2,B|216:292|188:172,1,210,2|0,0:0|0:0,0:0:0:0:
340,116,14968,2,0,B|390:140|408:192,1,105,2|0,0:0|0:0,0:0:0:0:
268,180,15240,1,4,0:0:0:0:
256,192,15309,12,0,16877,0:0:0:0:
428,40,17422,6,2,B|376:64|372:124,1,105,2|0,0:0|0:0,0:0:0:0:
444,168,17695,2,0,B|476:176|500:196,2,52.5
380,224,17968,1,0,0:0:0:0:
424,296,18104,1,0,0:0:0:0:
352,336,18240,1,0,0:0:0:0:
308,340,18309,1,0,0:0:0:0:
268,328,18377,1,0,0:0:0:0:
236,304,18445,1,0,0:0:0:0:
212,268,18513,2,0,B|160:232|108:260,1,105
152,332,18786,5,8,0:0:0:0:
112,340,18854,1,0,0:0:0:0:
72,328,18922,1,0,0:0:0:0:
24,260,19059,2,0,B|36:204|4:160,1,105,0|8,0:0|0:0,0:0:0:0:
80,124,19331,2,0,B|76:72,2,52.5
152,168,19604,6,0,B|264:140|296:28,1,210,8|0,0:0|0:0,0:0:0:0:
387,82,20013,2,0,B|316:173|360:280,1,210,8|0,0:0|0:0,0:0:0:0:
284,316,20422,1,2,0:0:0:0:
244,332,20490,1,0,0:0:0:0:
212,304,20559,1,0,0:0:0:0:
136,336,20695,6,2,B|56:344|4:280|24:200,1,210,2|0,0:0|0:0,0:0:0:0:
88,144,21104,2,2,B|168:136|220:200|200:280,1,210,2|0,0:0|0:0,0:0:0:0:
284,276,21513,2,2,B|304:168|228:59|100:64,1,315
88,144,22059,1,0,0:0:0:0:
12,180,22195,1,0,0:0:0:0:
64,244,22331,5,8,0:0:0:0:
56,284,22400,1,0,0:0:0:0:
72,324,22468,1,0,0:0:0:0:
140,276,22604,1,0,0:0:0:0:
216,308,22740,5,8,0:0:0:0:
224,268,22809,1,0,0:0:0:0:
208,228,22877,1,0,0:0:0:0:
176,152,23013,1,0,0:0:0:0:
228,84,23150,2,8,B|316:32|436:60,1,210
484,124,23559,1,0,0:0:0:0:
460,204,23695,2,8,B|440:264|460:320,1,105
380,344,23968,6,2,B|352:288|356:184|400:136,1,210,2|0,0:0|0:0,0:0:0:0:
320,104,24377,2,2,B|284:144|224:144,1,105,2|0,0:0|0:0,0:0:0:0:
156,100,24650,2,2,B|98:99|62:139,1,105,2|0,0:0|0:0,0:0:0:0:
72,224,24922,1,0,0:0:0:0:
60,264,24990,1,0,0:0:0:0:
28,292,25059,1,0,0:0:0:0:
88,348,25195,2,0,B|148:336|192:376,2,105,0|2|0,0:0|0:0|0:0,0:0:0:0:
132,276,25604,2,0,B|144:224,2,52.5
212,300,25877,2,0,B|244:260,2,52.5
280,348,26150,6,8,B|404:352|456:252,1,210,8|0,0:0|0:0,0:0:0:0:
392,200,26559,1,0,0:0:0:0:
476,184,26695,2,8,B|476:93|443:-28|240:-92|140:20|108:103,1,525
192,124,27513,1,0,0:0:0:0:
140,192,27650,1,8,0:0:0:0:
60,164,27786,1,0,0:0:0:0:
60,164,28059,1,0,0:0:0:0:
60,332,28331,6,2,B|172:280|248:372,1,210
304,308,28740,1,0,0:0:0:0:
376,352,28877,2,0,B|436:344|464:296,1,105,2|0,0:0|0:0,0:0:0:0:
504,224,29150,2,0,B|512:164,2,52.5
420,216,29422,2,2,B|368:244|320:220,1,105
264,156,29695,2,2,B|316:128|364:152,1,105
448,132,29968,1,0,0:0:0:0:
236,240,30240,1,0,0:0:0:0:
28,32,30513,5,4,0:0:0:0:
28,32,30786,1,4,0:0:0:0:
192,60,31059,6,2,B|200:124|152:172|104:176,1,157.5
68,188,31331,2,2,B|44:192,8,26.25,2|0|2|0|2|0|2|8|0,0:0|0:0|0:0|0:0|0:0|0:0|0:0|0:0|0:0,0:0:0:0:
80,212,31672,1,0,0:0:0:0:
99,229,31740,1,0,0:0:0:0:
123,238,31809,1,0,0:0:0:0:
149,240,31877,1,0,0:0:0:0:
353,56,32014,5,8,0:0:0:0:
330,68,32082,1,0,0:0:0:0:
316,90,32150,1,0,0:0:0:0:
309,115,32218,1,0,0:0:0:0:
317,139,32286,1,0,0:0:0:0:
385,322,32422,5,8,0:0:0:0:
359,319,32490,1,0,0:0:0:0:
338,304,32558,1,0,0:0:0:0:
322,284,32626,1,0,0:0:0:0:
320,256,32695,6,2,B|340:192|424:160|496:208,1,210,2|0,0:0|0:0,0:0:0:0:
464,288,33104,2,2,B|400:268|368:184|416:112,1,210,2|0,0:0|0:0,0:0:0:0:
380,36,33513,1,0,0:0:0:0:
296,16,33650,1,0,0:0:0:0:
228,64,33786,2,0,B|180:104|120:92,2,105,2|0|0,0:0|0:0|0:0,0:0:0:0:
164,8,34195,2,2,B|80:-8|20:64|48:136,1,210,2|0,0:0|0:0,0:0:0:0:
120,180,34604,2,0,B|60:280,1,105
124,332,34877,6,2,B|186:339|262:279|256:200,1,210
256,116,35286,1,0,0:0:0:0:
255,201,35422,2,2,B|249:279|325:339|388:332,1,210
460,284,35831,1,0,0:0:0:0:
504,212,35968,2,2,B|510:133|434:73|371:81,1,210,2|0,0:0|0:0,0:0:0:0:
293,46,36377,2,2,B|189:-24|52:24|28:113,1,315
100,156,36922,1,0,0:0:0:0:
28,200,37059,6,8,B|8:320,1,105,2|0,0:0|0:0,0:0:0:0:
88,332,37331,1,0,0:0:0:0:
172,336,37468,2,8,B|291:328|331:176|237:101,1,315
168,148,38013,1,0,0:0:0:0:
168,148,38150,2,8,B|175:267|327:307|402:213,1,315
448,140,38695,6,0,B|476:88,2,52.5,2|0|0,0:0|0:0|0:0,0:0:0:0:
488,212,38968,2,0,B|516:160,2,52.5,2|0|0,0:0|0:0|0:0,0:0:0:0:
448,284,39240,2,2,B|380:256|296:308|300:388,1,210,2|0,0:0|0:0,0:0:0:0:
220,352,39650,2,2,B|220:136,1,210
224,56,40059,2,0,B|282:59|301:114,1,105
144,172,40331,2,0,B|163:228|221:231,1,105
220,142,40604,2,0,B|176:108,2,52.5
288,192,40877,2,8,B|389:237|333:293|432:336,1,210,8|0,0:0|0:0,0:0:0:0:
472,260,41286,1,0,0:0:0:0:
416,196,41422,6,8,B|419:84|493:115|495:8,1,210,8|0,0:0|0:0,0:0:0:0:
412,24,41831,1,0,0:0:0:0:
352,84,41968,2,2,B|232:104|176:0,1,210
104,44,42377,1,0,0:0:0:0:
144,116,42513,2,2,B|168:224,1,105,2|0,0:0|0:0,0:0:0:0:
88,188,42786,2,2,B|112:296,1,105,2|0,0:0|0:0,0:0:0:0:
128,372,43059,2,0,B|216:292|324:344,1,210,8|0,0:0|0:0,0:0:0:0:
408,348,43468,1,0,0:0:0:0:
444,272,43604,6,0,B|524:344,2,105,2|0|0,0:0|0:0|0:0,0:0:0:0:
440,188,44013,2,0,B|544:216,2,105,2|0|0,0:0|0:0|0:0,0:0:0:0:
408,112,44422,2,0,B|512:104,2,105,2|0|2,0:0|0:0|0:0,0:0:0:0:
352,48,44831,2,0,B|404:44,2,52.5
292,108,45104,1,0,0:0:0:0:
208,108,45240,1,0,0:0:0:0:
181,112,45309,1,0,0:0:0:0:
155,116,45377,1,0,0:0:0:0:
129,121,45445,1,0,0:0:0:0:
103,126,45513,1,0,0:0:0:0:
36,180,45650,1,0,0:0:0:0:
116,208,45786,6,2,B|172:232|204:328|160:392,1,210,2|0,0:0|0:0,0:0:0:0:
101,330,46195,2,2,B|142:266|243:260|286:303,1,210,2|0,0:0|0:0,0:0:0:0:
344,253,46604,2,0,B|296:160,1,105
360,328,46877,2,2,B|460:304|500:184,1,210,2|0,0:0|0:0,0:0:0:0:
460,108,47286,1,0,0:0:0:0:
380,132,47422,2,2,B|336:16|208:44,1,210
144,88,47831,1,0,0:0:0:0:
60,76,47968,5,0,0:0:0:0:
44,116,48036,1,0,0:0:0:0:
28,156,48104,1,0,0:0:0:0:
104,192,48240,1,0,0:0:0:0:
40,244,48377,2,0,B|56:312|148:352|216:316,1,210,2|0,0:0|0:0,0:0:0:0:
292,344,48786,1,8,0:0:0:0:
360,296,48922,1,8,0:0:0:0:
428,244,49059,1,8,0:0:0:0:
384,172,49195,6,0,B|316:156|276:64|332:4,1,210,2|0,0:0|0:0,0:0:0:0:
396,60,49604,2,8,B|437:129|379:210|309:212,1,210,2|0,0:0|0:0,0:0:0:0:
309,212,49945,1,0,0:0:0:0:
309,212,50013,1,0,0:0:0:0:
260,280,50150,6,2,B|144:244|68:332,1,210,2|0,0:0|0:0,0:0:0:0:
36,216,50559,1,0,0:0:0:0:
208,360,50695,2,2,B|121:285|157:169,1,210,2|0,0:0|0:0,0:0:0:0:
232,64,51104,1,0,0:0:0:0:
64,112,51240,2,2,B|138:198|254:162,1,210,2|0,0:0|0:0,0:0:0:0:
300,236,51650,2,2,B|374:149|490:185,1,210,2|0,0:0|0:0,0:0:0:0:
476,268,52059,2,0,B|492:316,2,52.5
404,312,52331,6,2,B|316:384|208:328,1,210
132,368,52740,2,2,B|60:280|116:172,1,210,2|2,0:0|0:0,0:0:0:0:
180,116,53150,2,0,B|124:24,1,105
212,184,53422,6,2,B|300:112|408:168,1,210
484,128,53831,2,2,B|556:216|500:324,1,210,2|2,0:0|0:0,0:0:0:0:
352,340,54240,1,0,0:0:0:0:
384,308,54309,1,0,0:0:0:0:
416,280,54377,1,0,0:0:0:0:
256,340,54513,6,2,B|128:356|76:244,1,210,2|0,0:0|0:0,0:0:0:0:
156,216,54922,2,2,B|128:112,1,105,2|0,0:0|0:0,0:0:0:0:
68,172,55195,1,0,0:0:0:0:
0,8,55331,2,2,B|28:112,1,105,2|0,0:0|0:0,0:0:0:0:
196,8,55604,2,2,B|92:36,1,105,2|0,0:0|0:0,0:0:0:0:
129,115,55877,1,0,0:0:0:0:
220,96,56013,2,2,B|292:4|408:36,1,210
480,76,56422,2,0,B|496:180,1,105
424,220,56695,2,0,B|408:116,1,105,8|0,0:0|0:0,0:0:0:0:
328,148,56968,1,0,0:0:0:0:
344,228,57104,2,0,B|360:332,2,105,0|2|0,0:0|0:0|0:0,0:0:0:0:
268,192,57513,1,0,0:0:0:0:
268,276,57650,6,8,B|180:204|40:256|16:376,1,315,8|0,0:0|0:0,0:0:0:0:
100,364,58195,1,0,0:0:0:0:
16,228,58331,2,2,B|36:112,1,105,2|0,0:0|0:0,0:0:0:0:
176,320,58604,1,2,0:0:0:0:
128,252,58740,1,0,0:0:0:0:
148,172,58877,6,8,B|236:100|376:152|400:272,1,315,8|0,0:0|0:0,0:0:0:0:
486,348,59422,2,8,B|480:244,1,105,8|0,0:0|0:0,0:0:0:0:
452,72,59695,2,8,B|444:192,1,105,0|0,0:0|0:0,0:0:0:0:
404,4,59968,2,2,B|364:68|288:88|216:52,1,210,2|0,0:0|0:0,0:0:0:0:
136,52,60377,1,0,0:0:0:0:
80,116,60513,2,2,B|12:188|44:284|88:316,1,210
156,332,60922,1,0,0:0:0:0:
240,316,61059,2,2,B|308:244|276:148|232:116,1,210,2|0,0:0|0:0,0:0:0:0:
320,88,61468,6,8,B|332:152|408:208|484:180,1,210,8|0,0:0|0:0,0:0:0:0:
392,304,61877,2,0,B|488:260,1,105
360,376,62150,2,2,B|308:348|260:268|296:196,1,210
212,188,62559,1,0,0:0:0:0:
64,0,62695,2,2,B|116:28|164:108|128:180,1,210
184,360,63104,1,0,0:0:0:0:
24,360,63240,6,0,B|124:312,1,105
52,260,63513,1,0,0:0:0:0:
120,212,63650,2,2,B|88:160|24:180,1,105,2|0,0:0|0:0,0:0:0:0:
192,272,63922,1,0,0:0:0:0:
212,188,64059,2,0,B|324:224,1,105,2|0,0:0|0:0,0:0:0:0:
388,188,64331,1,2,0:0:0:0:
444,252,64468,1,0,0:0:0:0:
444,252,64740,2,2,B|388:348|268:352,1,210,2|0,0:0|0:0,0:0:0:0:
280,268,65150,1,0,0:0:0:0:
452,372,65422,1,2,0:0:0:0:
484,164,65695,1,0,0:0:0:0:
376,312,65968,2,0,B|444:224,1,105,2|0,0:0|0:0,0:0:0:0:
328,372,66513,5,4,0:0:0:0:
256,16,67604,5,2,0:0:0:0:
236,52,67672,1,0,0:0:0:0:
212,88,67740,1,0,0:0:0:0:
136,52,67877,2,0,B|76:72|28:36,1,105
44,124,68150,2,8,B|136:172,1,105
148,256,68422,2,0,B|107:225|47:245,1,105
68,328,68695,6,0,B|164:368,1,105,2|0,0:0|0:0,0:0:0:0:
244,336,68968,2,0,B|260:388,2,52.5
328,328,69240,2,0,B|404:236,1,105,2|0,0:0|0:0,0:0:0:0:
336,188,69513,1,0,0:0:0:0:
296,172,69581,1,0,0:0:0:0:
256,164,69650,1,0,0:0:0:0:
220,184,69718,1,0,0:0:0:0:
196,220,69786,6,2,B|112:304|4:268,2,210
120,180,70468,1,0,0:0:0:0:
128,344,70604,1,0,0:0:0:0:
48,204,70740,1,0,0:0:0:0:
200,320,70877,6,2,B|276:360|364:332|392:284,1,210,2|0,0:0|0:0,0:0:0:0:
448,348,71286,1,0,0:0:0:0:
484,272,71422,1,8,0:0:0:0:
464,236,71490,1,0,0:0:0:0:
444,200,71559,1,0,0:0:0:0:
360,208,71695,2,0,B|308:188|260:224,1,105
240,140,71968,6,2,B|172:168|160:236|188:284|240:304,1,210,2|0,0:0|0:0,0:0:0:0:
261,223,72377,2,2,B|329:195|341:127|313:79|261:59,1,210,2|0,0:0|0:0,0:0:0:0:
184,60,72786,1,0,0:0:0:0:
144,44,72854,1,0,0:0:0:0:
104,56,72922,1,0,0:0:0:0:
36,104,73059,2,8,B|16:212,1,105,8|0,0:0|0:0,0:0:0:0:
96,236,73331,2,0,B|108:176,2,52.5,8|0|0,0:0|0:0|0:0,0:0:0:0:
32,292,73604,2,8,B|112:360,1,105,8|0,0:0|0:0,0:0:0:0:
196,356,73877,1,0,0:0:0:0:
236,348,73945,1,0,0:0:0:0:
276,340,74013,1,0,0:0:0:0:
316,332,74081,1,0,0:0:0:0:
356,324,74150,6,2,B|424:352|504:292|480:204,2,210
372,284,74763,1,0,0:0:0:0:
388,244,74831,1,0,0:0:0:0:
412,164,74968,2,0,B|388:108,2,52.5
472,108,75240,6,2,B|424:8,1,105,2|0,0:0|0:0,0:0:0:0:
332,172,75513,1,0,0:0:0:0:
332,172,75650,6,2,B|284:72,1,105,2|0,0:0|0:0,0:0:0:0:
212,40,75922,2,0,B|236:-12,2,52.5
160,104,76195,1,0,0:0:0:0:
80,84,76331,2,2,B|32:188|116:320|236:288,1,315
220,204,76877,1,0,0:0:0:0:
260,124,77013,1,0,0:0:0:0:
316,188,77150,1,0,0:0:0:0:
396,216,77286,1,0,0:0:0:0:
396,216,77354,1,0,0:0:0:0:
396,216,77422,1,0,0:0:0:0:
468,264,77559,2,0,B|492:320|476:376,2,105
404,320,77968,6,2,B|304:360,1,105,2|0,0:0|0:0,0:0:0:0:
276,280,78240,1,0,0:0:0:0:
240,300,78309,1,0,0:0:0:0:
200,296,78377,1,0,0:0:0:0:
132,344,78513,2,2,B|120:284|72:208|-8:204,2,210
164,224,79195,1,0,0:0:0:0:
24,328,79331,1,0,0:0:0:0:
80,144,79468,1,0,0:0:0:0:
256,140,79604,6,8,B|204:36|80:64,1,210,8|0,0:0|0:0,0:0:0:0:
432,64,80013,2,8,B|307:35|255:139,1,210,8|0,0:0|0:0,0:0:0:0:
320,268,80422,1,2,0:0:0:0:
255,139,80559,1,2,0:0:0:0:
192,268,80695,1,4,0:0:0:0:
508,380,81240,5,8,0:0:0:0:
480,348,81309,1,0,0:0:0:0:
460,312,81377,1,0,0:0:0:0:
452,272,81445,1,0,0:0:0:0:
460,232,81513,1,0,0:0:0:0:
248,188,81650,5,8,0:0:0:0:
280,160,81719,1,0,0:0:0:0:
316,140,81787,1,0,0:0:0:0:
356,132,81855,1,0,0:0:0:0:
396,140,81923,1,0,0:0:0:0:
508,132,82059,6,0,B|540:88,2,52.5,0|0|8,0:0|0:0|0:0,0:0:0:0:
460,64,82331,2,0,B|492:20,2,52.5,0|0|8,0:0|0:0|0:0,0:0:0:0:
376,48,82604,1,0,0:0:0:0:
292,60,82740,1,0,0:0:0:0:
208,80,82877,6,2,B|88:108|12:32,1,210,2|0,0:0|0:0,0:0:0:0:
4,116,83286,1,0,0:0:0:0:
80,152,83422,2,0,B|136:168|196:156,1,105,2|0,0:0|0:0,0:0:0:0:
248,212,83695,2,0,B|296:192,2,52.5
184,264,83968,1,8,0:0:0:0:
144,256,84036,1,0,0:0:0:0:
104,248,84104,1,0,0:0:0:0:
44,304,84240,2,0,B|12:360,2,52.5,0|0|0,0:0|0:0|0:0,0:0:0:0:
116,352,84513,1,8,0:0:0:0:
200,340,84649,1,0,0:0:0:0:
284,360,84786,2,0,B|344:360|392:384,2,105,0|0|2,0:0|0:0|0:0,0:0:0:0:
460,64,85331,5,2,0:0:0:0:
60,172,85604,5,2,0:0:0:0:
124,224,85740,1,0,0:0:0:0:
208,220,85877,1,0,0:0:0:0:
284,184,86013,1,0,0:0:0:0:
460,64,86149,6,2,B|344:44|256:108,1,210,2|0,0:0|0:0,0:0:0:0:
263,20,86559,2,2,B|243:136|307:224,1,210,2|0,0:0|0:0,0:0:0:0:
343,234,86899,1,0,0:0:0:0:
366,269,86968,2,2,B|410:382|544:370,1,210
494,295,87377,2,0,B|466:179,1,105
393,156,87649,1,0,0:0:0:0:
400,72,87786,2,0,B|316:48|264:132|184:92,1,210,8|0,0:0|0:0,0:0:0:0:
112,104,88195,2,0,B|76:60|72:4,2,105,0|8|0,0:0|0:0|0:0,0:0:0:0:
44,156,88604,1,0,0:0:0:0:
52,196,88672,1,0,0:0:0:0:
60,236,88740,1,0,0:0:0:0:
36,316,88877,6,2,B|80:356|132:328,1,105,2|0,0:0|0:0,0:0:0:0:
196,276,89149,1,0,0:0:0:0:
260,332,89286,2,0,B|372:356,1,105,0|2,0:0|0:0,0:0:0:0:
196,32,89695,1,2,0:0:0:0:
472,284,89968,6,2,B|504:236|484:176,1,105
404,204,90240,1,0,0:0:0:0:
88,216,90377,6,2,B|152:312|276:280,1,210,2|0,0:0|0:0,0:0:0:0:
220,216,90786,1,0,0:0:0:0:
292,176,90922,1,0,0:0:0:0:
228,120,91059,2,8,B|272:80|260:24,1,105,8|0,0:0|0:0,0:0:0:0:
340,56,91331,2,0,B|396:76,2,52.5
168,52,91604,2,2,B|56:76|32:196,1,210,2|0,0:0|0:0,0:0:0:0:
129,291,92013,1,0,0:0:0:0:
225,384,92149,2,2,B|337:360|361:240,1,210,2|0,0:0|0:0,0:0:0:0:
360,241,92559,5,0,0:0:0:0:
440,216,92695,2,0,B|480:256,2,52.5
484,144,92968,2,0,B|536:160,2,52.5
456,64,93240,1,2,0:0:0:0:
384,20,93377,1,0,0:0:0:0:
308,56,93513,2,0,B|200:36,2,105,0|0|2,0:0|0:0|0:0,0:0:0:0:
52,300,94059,5,2,0:0:0:0:
480,356,94331,5,2,0:0:0:0:
444,280,94468,1,0,0:0:0:0:
364,256,94604,2,0,B|328:304|272:304,1,105
192,292,94877,2,2,B|192:212|268:160|332:172,1,210,2|0,0:0|0:0,0:0:0:0:
416,192,95286,2,2,B|336:201|275:132|279:67,1,210,2|0,0:0|0:0,0:0:0:0:
200,36,95695,2,0,B|160:80|96:76,1,105
76,156,95968,1,4,0:0:0:0:
412,28,96240,1,4,0:0:0:0:
336,384,96513,1,4,0:0:0:0:
336,384,96649,1,4,0:0:0:0:
292,312,96786,5,0,0:0:0:0:
300,292,96854,1,0,0:0:0:0:
308,272,96922,1,0,0:0:0:0:
316,252,96990,1,0,0:0:0:0:
324,232,97059,1,8,0:0:0:0:
188,152,97195,1,8,0:0:0:0:
296,124,97331,1,8,0:0:0:0:
216,260,97468,1,8,0:0:0:0:
224,68,97604,5,0,0:0:0:0:
224,68,97672,1,0,0:0:0:0:
224,68,97740,1,0,0:0:0:0:
292,312,97877,1,2,0:0:0:0:
292,312,97945,1,2,0:0:0:0:
292,312,98013,1,2,0:0:0:0:
376,324,98149,5,2,0:0:0:0:
456,256,98286,1,0,0:0:0:0:
452,152,98422,1,0,0:0:0:0:
384,72,98559,2,0,B|428:32|484:32,2,105,2|0|0,0:0|0:0|0:0,0:0:0:0:
352,172,98968,2,2,B|256:120,1,105,2|0,0:0|0:0,0:0:0:0:
196,40,99240,5,2,0:0:0:0:
96,76,99377,1,0,0:0:0:0:
48,168,99513,1,0,0:0:0:0:
316,344,99649,5,2,0:0:0:0:
416,308,99786,1,0,0:0:0:0:
464,216,99922,1,0,0:0:0:0:
256,192,100059,2,2,B|180:268,1,105,2|0,0:0|0:0,0:0:0:0:
136,172,100331,5,2,0:0:0:0:
224,112,100468,1,0,0:0:0:0:
256,12,100604,1,0,0:0:0:0:
376,212,100740,5,2,0:0:0:0:
288,272,100877,1,0,0:0:0:0:
256,372,101013,1,0,0:0:0:0:
256,192,101149,2,2,B|332:116,1,105,2|0,0:0|0:0,0:0:0:0:
376,24,101422,6,0,B|432:44|432:108,2,105,2|0|0,0:0|0:0|0:0,0:0:0:0:
136,360,101831,2,0,B|80:340|80:276,2,105,2|0|0,0:0|0:0|0:0,0:0:0:0:
256,192,102240,2,2,B|256:84,1,105,2|0,0:0|0:0,0:0:0:0:
160,48,102513,6,2,B|148:19|85:19|72:48,1,105,2|0,0:0|0:0,0:0:0:0:
112,148,102786,1,2,0:0:0:0:
112,252,102922,2,0,B|112:368,2,105,2|0|2,0:0|0:0|0:0,0:0:0:0:
256,192,103331,1,2,0:0:0:0:
256,192,103468,1,0,0:0:0:0:
352,336,103604,6,2,B|364:365|427:365|440:336,1,105,2|0,0:0|0:0,0:0:0:0:
400,236,103877,1,2,0:0:0:0:
400,132,104013,2,0,B|400:16,2,105,2|0|2,0:0|0:0|0:0,0:0:0:0:
256,192,104422,1,2,0:0:0:0:
256,192,104559,1,0,0:0:0:0:
320,108,104695,6,2,B|308:52|252:36,1,105,2|0,0:0|0:0,0:0:0:0:
192,120,104968,1,2,0:0:0:0:
100,64,105104,2,2,B|53:100|63:156,1,105,2|0,0:0|0:0,0:0:0:0:
216,196,105377,2,0,B|248:304,2,105,0|2|0,0:0|0:0|0:0,0:0:0:0:
316,228,105786,6,2,B|376:224|412:280,1,105,2|0,0:0|0:0,0:0:0:0:
352,360,106059,1,2,0:0:0:0:
252,336,106195,2,0,B|192:332|156:388,2,105,2|0|2,0:0|0:0|0:0,0:0:0:0:
208,240,106604,2,2,B|108:196,1,105,2|0,0:0|0:0,0:0:0:0:
72,100,106877,5,2,0:0:0:0:
156,40,107013,1,0,0:0:0:0:
240,100,107149,1,2,0:0:0:0:
332,52,107286,2,0,B|376:20|440:40,2,105,0|2|0,0:0|0:0|0:0,0:0:0:0:
376,148,107695,1,2,0:0:0:0:
476,120,107831,1,0,0:0:0:0:
480,224,107968,6,2,B|488:288|444:320,1,105,2|0,0:0|0:0,0:0:0:0:
364,256,108240,1,0,0:0:0:0:
304,344,108377,1,2,0:0:0:0:
212,296,108513,1,0,0:0:0:0:
132,364,108649,2,0,B|72:356|44:300,2,105,0|2|0,0:0|0:0|0:0,0:0:0:0:
112,260,109059,5,2,0:0:0:0:
148,160,109195,1,0,0:0:0:0:
72,88,109331,2,2,B|107:41|164:56,1,105
256,104,109604,1,0,0:0:0:0:
352,140,109740,2,2,B|409:148|439:97,1,105
508,176,110013,1,0,0:0:0:0:
488,280,110149,6,2,B|456:332|400:324,1,105,2|0,0:0|0:0,0:0:0:0:
324,252,110422,1,2,0:0:0:0:
324,252,110559,1,2,0:0:0:0:
264,336,110695,1,0,0:0:0:0:
176,276,110831,1,2,0:0:0:0:
112,360,110968,1,2,0:0:0:0:
112,360,111104,1,0,0:0:0:0:
36,288,111240,6,2,B|4:240|24:184,1,105,2|0,0:0|0:0,0:0:0:0:
116,72,111513,1,2,0:0:0:0:
224,172,111649,2,2,B|256:220|236:276,1,105,2|0,0:0|0:0,0:0:0:0:
352,364,111922,1,0,0:0:0:0:
404,228,112059,2,2,B|452:192|504:216,1,105,2|0,0:0|0:0,0:0:0:0:
484,72,112331,6,2,B|436:108|384:88,1,105,2|0,0:0|0:0,0:0:0:0:
256,16,112604,1,2,0:0:0:0:
256,164,112740,1,2,0:0:0:0:
126,88,112877,2,2,B|76:69|28:105,1,105,0|2,0:0|0:0,0:0:0:0:
120,216,113149,1,2,0:0:0:0:
256,296,113286,1,0,0:0:0:0:
28,312,113422,6,2,B|76:276|128:296,1,105,2|0,0:0|0:0,0:0:0:0:
256,368,113695,1,2,0:0:0:0:
256,220,113831,1,2,0:0:0:0:
385,295,113968,2,2,B|436:315|484:279,1,105,0|2,0:0|0:0,0:0:0:0:
392,168,114240,1,2,0:0:0:0:
256,220,114377,1,0,0:0:0:0:
156,112,114513,6,2,B|160:52|224:32,1,105,2|0,0:0|0:0,0:0:0:0:
340,112,114786,1,2,0:0:0:0:
472,48,114922,6,2,B|468:108|404:128,1,105,2|0,0:0|0:0,0:0:0:0:
288,48,115195,1,2,0:0:0:0:
248,188,115331,1,2,0:0:0:0:
392,168,115468,1,0,0:0:0:0:
456,300,115604,5,4,0:0:0:0:
124,356,115877,1,4,0:0:0:0:
220,36,116149,1,4,0:0:0:0:
512,208,116422,1,4,0:0:0:0:
188,296,116695,1,4,0:0:0:0:
120,56,116968,1,4,0:0:0:0:
448,124,117240,1,4,0:0:0:0:
196,368,117513,1,4,0:0:0:0:
196,32,117786,5,4,0:0:0:0:
396,300,118059,1,4,0:0:0:0:
116,92,118331,5,4,0:0:0:0:
432,203,118604,1,4,0:0:0:0:
85,187,118877,5,4,0:0:0:0:
408,102,119150,1,4,0:0:0:0:
111,283,119422,5,4,0:0:0:0:
332,32,119695,1,4,0:0:0:0:
192,340,119968,6,0,B|296:352,1,105,2|0,0:0|0:0,0:0:0:0:
176,220,120240,2,0,B|280:232,1,105,2|0,0:0|0:0,0:0:0:0:
428,276,120513,2,0,B|324:288,1,105,2|0,0:0|0:0,0:0:0:0:
444,156,120785,2,0,B|340:168,1,105,2|0,0:0|0:0,0:0:0:0:
232,40,121059,6,2,B|192:92|136:92,1,105,2|0,0:0|0:0,0:0:0:0:
104,216,121331,2,2,B|156:256|156:312,1,105,2|0,0:0|0:0,0:0:0:0:
280,344,121604,2,2,B|320:292|376:292,1,105,2|0,0:0|0:0,0:0:0:0:
408,168,121876,2,2,B|356:128|356:72,1,105,2|0,0:0|0:0,0:0:0:0:
192,116,122149,6,0,B|164:56,2,52.5,2|0|0,0:0|0:0|0:0,0:0:0:0:
180,256,122422,2,0,B|120:284,2,52.5,2|0|0,0:0|0:0|0:0,0:0:0:0:
320,268,122695,2,0,B|348:328,2,52.5,2|0|0,0:0|0:0|0:0,0:0:0:0:
332,128,122968,2,0,B|392:100,2,52.5,2|0|0,0:0|0:0|0:0,0:0:0:0:
264,72,123240,5,2,0:0:0:0:
136,184,123377,1,0,0:0:0:0:
248,312,123513,1,2,0:0:0:0:
376,200,123650,1,0,0:0:0:0:
176,101,123786,5,2,0:0:0:0:
165,271,123923,1,0,0:0:0:0:
335,282,124059,1,2,0:0:0:0:
346,112,124196,1,0,0:0:0:0:
484,20,124331,5,2,0:0:0:0:
484,188,124468,1,0,0:0:0:0:
484,355,124604,1,2,0:0:0:0:
335,282,124740,2,2,B|232:282,1,105,2|0,0:0|0:0,0:0:0:0:
176,100,125013,2,2,B|279:100,2,105,2|2|0,0:0|0:0|0:0,0:0:0:0:
28,364,125422,5,2,0:0:0:0:
28,196,125559,1,0,0:0:0:0:
28,29,125695,1,2,0:0:0:0:
176,101,125831,2,2,B|280:102,1,105,2|0,0:0|0:0,0:0:0:0:
336,284,126104,2,2,B|232:283,2,105,2|2|0,0:0|0:0|0:0,0:0:0:0:
432,148,126513,6,0,B|524:88,2,105,0|0|2,0:0|0:0|0:0,0:0:0:0:
284,52,126922,1,2,0:0:0:0:
128,116,127059,1,0,0:0:0:0:
252,228,127195,2,0,B|224:344,2,105,0|2|0,0:0|0:0|0:0,0:0:0:0:
80,236,127604,6,0,B|-12:296,2,105,0|0|2,0:0|0:0|0:0,0:0:0:0:
228,332,128013,1,2,0:0:0:0:
384,268,128150,1,0,0:0:0:0:
260,156,128286,2,0,B|288:40,2,105,0|2|0,0:0|0:0|0:0,0:0:0:0:
92,128,128695,5,0,0:0:0:0:
216,16,128831,1,0,0:0:0:0:
380,56,128968,1,2,0:0:0:0:
380,56,129104,1,2,0:0:0:0:
132,328,129377,5,2,0:0:0:0:
132,328,129513,1,2,0:0:0:0:
296,368,129650,1,0,0:0:0:0:
420,256,129786,5,2,0:0:0:0:
420,256,129922,1,0,0:0:0:0:
456,92,130059,1,2,0:0:0:0:
308,16,130195,1,2,0:0:0:0:
92,256,130468,5,2,0:0:0:0:
56,92,130605,1,2,0:0:0:0:
204,16,130741,1,0,0:0:0:0:
256,176,130877,6,0,B|256:292,1,105
176,124,131149,2,0,B|176:240,1,105,2|0,0:0|0:0,0:0:0:0:
336,124,131422,2,0,B|336:240,1,105,0|0,0:0|0:0,0:0:0:0:
256,92,131695,2,2,B|256:-20,1,105,2|0,0:0|0:0,0:0:0:0:
256,176,131968,1,0,0:0:0:0:
372,92,139604,6,0,B|456:104|492:184,2,157.5,2|0|0,0:0|0:0|0:0,0:0:0:0:
352,172,140695,2,0,B|288:268|168:240,1,210,0|2,0:0|0:0,0:0:0:0:
168,240,141786,1,2,0:0:0:0:
32,28,142604,6,0,B|120:88|236:56,1,210
244,140,143422,2,0,B|357:108|445:168,1,210,0|2,0:0|0:0,0:0:0:0:
480,356,144786,6,0,B|392:296|276:328,1,210
268,244,145604,2,0,B|154:275|66:215,1,210,0|2,0:0|0:0,0:0:0:0:
188,100,146695,5,0,0:0:0:0:
264,64,146968,2,0,B|368:16|464:84,1,210
488,164,147786,1,2,0:0:0:0:
436,232,148059,5,0,0:0:0:0:
364,336,148331,1,2,0:0:0:0:
240,196,148740,1,2,0:0:0:0:
88,308,149149,1,0,0:0:0:0:
108,184,149422,1,2,0:0:0:0:
356,148,149968,1,0,0:0:0:0:
196,28,150513,6,0,B|75:58|-2:232|87:400|255:462|423:400|513:232|435:58|315:28,2,944.999971836806,12|12|12,0:0|0:0|0:0,0:0:0:0:
96,324,152695,6,12,B|264:336|404:292|408:184|384:24|256:0|128:24|104:184|108:292|248:336|416:324,2,944.999971836806
111,208,154877,6,12,B|23:208|19:404|91:396|171:428|320:372|424:312|400:187|256:63|111:187|87:312|191:372|340:428|420:396|492:404|488:208|400:208,2,944.999971836806
372,152,157059,6,2,B|412:0|256:-88|100:0|140:152,2,472.499985918403
468,128,158149,2,2,B|456:268|360:328|256:355|152:328|56:268|44:128,1,629.999981224537
52,32,158968,6,2,B|152:32|152:32|224:32|264:96|256:191|256:191|248:96|288:32|360:32|360:32|476:32,1,629.999981224537
256,192,159786,1,0,0:0:0:0:
460,352,160059,2,2,B|360:352|360:352|288:352|248:288|256:193|256:193|264:288|224:352|152:352|152:352|36:352,1,629.999981224537
256,192,160877,1,8,0:0:0:0:
196,40,161422,6,2,B|92:8|8:164|72:256|204:304|256:358|256:358|308:304|440:256|504:164|420:8|316:40,2,944.999971836806
328,132,163604,6,2,B|408:40|592:128|500:324|400:384|208:336|256:192|304:48|112:0|12:60|-80:256|104:344|184:252,2,944.999971836806
125,204,165513,5,0,0:0:0:0:
387,180,165786,1,2,0:0:0:0:
40,32,166195,1,2,0:0:0:0:
472,352,166604,1,2,0:0:0:0:
480,128,166877,6,2,B|428:0|332:-72|84:-32|32:116|36:212,1,629.999981224537
368,368,167695,6,2,B|465:399|539:325|531:200|531:200|368:148|368:219|368:290|204:239|204:239,1,629.999981224537
310,145,168513,2,2,B|308:145|144:94|144:165|144:236|-19:184|-19:184|-27:59|47:-15|144:16,1,629.999981224537
84,112,169331,1,0,0:0:0:0:
428,112,169604,1,2,0:0:0:0:
336,252,170149,6,2,B|368:208|368:208|292:192|292:192|356:128|356:128|276:112|276:112|264:24|368:-20|496:20|536:144|516:352|372:348|256:308|256:360|256:396,2,944.999971836806
176,252,172331,2,2,B|144:208|144:208|220:192|220:192|156:128|156:128|236:112|236:112|248:24|144:-20|16:20|-24:144|-4:352|140:348|256:308|256:360|256:396,2,944.999971836806
216,252,174513,6,0,B|136:232|84:116|144:4|256:-37|368:4|428:116|376:232|296:252,1,629.999981224537
256,148,175331,1,0,0:0:0:0:
120,8,175604,6,0,B|44:80|28:200|80:320|184:336|256:348|256:348|428:348,1,629.999981224537
392,8,176422,2,0,B|468:80|484:200|432:320|328:336|256:348|256:348|84:348,1,629.999981224537
480,304,177240,1,2,0:0:0:0:
32,304,177513,1,4,0:0:0:0:
256,4,178331,5,0,0:0:0:0:
31,243,178877,6,0,B|56:107|182:88|182:88|256:125|256:125|329:88|329:88|455:107|480:243,1,629.999981224537,12|0,0:0|0:0,0:0:0:0:
440,364,179695,2,0,B|356:360|296:292|332:200|332:200|256:232|256:232|180:200|180:200|216:292|156:360|72:364,1,629.999981224537,12|0,0:0|0:0,0:0:0:0:
256,144,180513,1,12,0:0:0:0:
164,36,181059,6,0,B|92:-6|-25:38|-62:160|-12:268|95:318|217:281|262:163|220:92,1,629.999981224537,12|0,0:0|0:0,0:0:0:0:
291,291,181877,2,0,B|249:220|294:102|416:65|524:115|574:223|537:345|419:390|348:348,1,629.999981224537,12|0,0:0|0:0,0:0:0:0:
396,248,182695,1,12,0:0:0:0:
256,192,182968,12,2,185422,0:0:0:0:
