osu file format v9

[General]
AudioFilename: 12 - Wi-Fi Bridge.mp3
AudioLeadIn: 0
PreviewTime: 57732
Countdown: 1
SampleSet: Soft
StackLeniency: 0.7
Mode: 0
LetterboxInBreaks: 1

[Editor]
DistanceSpacing: 0.7
BeatDivisor: 1
GridSize: 8

[Metadata]
Title:WI-FI BRIDGE
Artist:Renard
Creator:ztrot
Version:Normal?
Source:
Tags:Kurisuchianu

[Difficulty]
HPDrainRate:3
CircleSize:3
OverallDifficulty:4
ApproachRate:4
SliderMultiplier:1.2
SliderTickRate:1

[Events]
//Background and Video events
0,0,"Malpractice_by_Sax_Spieler.jpg"
//Break Periods
//Storyboard Layer 0 (Background)
//Storyboard Layer 1 (Fail)
//Storyboard Layer 2 (Pass)
//Storyboard Layer 3 (Foreground)
//Storyboard Sound Samples
//Background Colour Transformations
3,100,163,162,255

[TimingPoints]
132.013853468043,300,4,2,1,80,1,0
9582,-100,4,1,1,60,0,0
19182,-100,4,2,1,80,0,0
57732,-100,4,1,1,60,0,0
76857,-100,4,2,1,80,0,0
95757,-100,4,1,1,80,0,0
95907,-100,4,2,1,80,0,0

[Colours]
Combo1 : 226,226,226
Combo2 : 0,206,0
Combo3 : 145,0,0
Combo4 : 151,255,203

[HitObjects]
48,48,9732,1,0
256,312,10932,1,0
464,48,12132,1,0
256,312,13332,1,0
256,192,14832,12,2,19032
32,352,19932,5,0
200,352,20532,1,0
120,200,21132,1,0
288,200,21732,1,0
376,352,22332,1,0
464,200,22932,1,0
376,56,23532,5,0
296,56,23832,1,0
216,56,24132,2,0,B|152:56|112:112,2,120,0|8|0
336,168,25332,2,0,B|384:200|464:176,2,120,0|8|0
192,248,26532,2,0,B|120:240|88:312,2,120,0|8|0
256,96,27732,5,8
424,72,28332,1,0
448,152,28632,1,8
480,232,28932,6,0,B|416:240|384:304,2,120,4|0|0
312,256,30132,2,0,B|264:208|200:216,2,120,0|8|0
144,288,31332,2,0,B|80:296|32:240,2,120,0|8|0
40,152,32532,2,0,B|83:101|147:109,2,120
200,200,33732,5,0
256,264,34032,1,8
256,352,34332,1,0
312,200,34932,5,0
256,264,35232,1,8
256,352,35532,1,0
200,200,36132,6,0,B|160:152|88:160,2,120,8|8|8
312,200,37332,2,0,B|352:152|424:160,4,120,8|0|8|0|12
256,40,39132,5,0
184,192,39732,1,0
256,232,40032,1,8
328,192,40332,1,0
256,344,40932,5,0
96,288,41532,2,0,B|16:192|56:48,1,240
128,24,42432,1,8
208,8,42732,1,0
368,48,43332,5,0
456,192,43932,1,0
408,352,44532,2,0,B|352:312|288:328,2,120,0|8|0
256,248,45732,5,0
112,336,46332,1,0
24,192,46932,2,0,B|0:128|32:72,3,120,0|8|0|8
104,136,48132,5,4
256,64,48732,1,0
408,136,49332,1,0
256,216,49932,1,0
216,288,50232,1,8
296,288,50532,1,0
152,200,51132,5,0
176,32,51732,2,0,B|120:48|88:112,2,120,0|8|0
256,176,52932,5,0
336,32,53532,1,0
416,176,54132,2,0,B|464:224|448:296,2,120,0|8|0
320,312,55332,5,0
256,368,55632,1,8
192,312,55932,1,0
192,144,56532,1,0
256,88,56832,1,8
320,144,57132,1,0
256,296,57732,5,0
120,200,58332,1,0
256,104,58932,1,0
400,192,59532,1,0
256,296,60132,5,0
400,192,60732,1,0
256,104,61332,1,0
256,104,61632,1,0
256,104,61932,1,0
88,72,62532,6,0,B|64:208|208:264,1,240
424,72,63732,2,0,B|448:208|304:264,1,240
256,104,64932,5,0
256,272,65532,1,0
176,128,66132,5,0
256,104,66432,1,0
336,128,66732,1,0
69,313,67632,6,0,B|120:352|184:328,3,120
256,264,68832,1,0
328,328,69132,2,0,B|392:352|456:304,2,120
256,144,70932,5,0
256,224,71232,1,0
256,304,71532,1,0
112,96,72432,5,0
56,160,72732,1,0
128,312,73332,1,0
256,200,73932,1,0
384,312,74532,5,0
424,240,74832,1,0
464,168,75132,1,0
368,32,75732,6,0,B|304:24|248:64,4,120,0|0|0|2|0
400,112,77232,5,0
336,168,77532,1,0
256,200,77832,1,0
176,168,78132,1,0
112,112,78432,2,0,B|72:176|120:232,2,120
256,296,79632,5,0
112,192,80232,1,0
184,144,80532,1,0
256,96,80832,1,0
256,96,81132,1,8
256,96,81432,1,0
424,72,82032,6,0,B|448:208|304:264,1,240
256,200,82932,1,0
199,260,83232,2,0,B|64:208|88:72,1,240
176,104,84132,1,8
256,64,84432,1,8
336,104,84732,5,0
336,200,85032,1,0
256,224,85332,1,8
176,200,85632,1,0
256,144,85932,1,0
424,152,86532,5,0
456,232,86832,1,8
442,313,87132,2,0,B|392:352|328:328,3,120,0|8|0|8
256,256,88332,1,0
184,328,88632,2,0,B|120:352|56:304,4,120,8|0|8|0|8
256,280,90132,5,0
256,200,90432,1,8
256,120,90732,1,0
400,96,91632,5,0
456,160,91932,1,0
384,312,92532,1,0
256,200,93132,1,0
128,312,93732,5,8
88,240,94032,1,8
48,168,94332,1,8
144,32,94932,6,0,B|208:24|264:64,2,120,8|0|0
216,184,96132,5,4
288,232,96432,1,0
352,176,96732,1,0
408,112,97032,1,8
328,88,97332,5,0
256,40,97632,1,8
184,88,97932,1,0
136,160,98232,1,8
80,96,98532,6,0,B|40:144|40:144|56:200,4,120,0|8|0|8|0
136,160,100032,1,8
176,232,100332,5,8
212,307,100632,1,8
296,328,100932,2,0,B|360:328|400:272,2,120,0|8|0
264,240,101832,1,8
176,216,102132,2,0,B|128:184|48:208,2,120,0|8|0
232,144,103032,1,8
320,136,103332,2,0,B|392:144|424:72,2,120,0|8|0
320,224,104232,1,8
256,288,104532,5,8
88,312,105132,1,8
64,232,105432,1,8
32,152,105732,6,0,B|96:144|128:80,2,120,4|0|0
136,200,106632,1,8
200,128,106932,2,0,B|248:176|312:168,2,120,0|8|0
280,72,107832,1,8
368,96,108132,2,0,B|432:88|480:144,2,120,0|8|0
392,184,109032,1,8
472,232,109332,2,0,B|429:283|365:275,2,120,0|8|8
312,184,110532,5,0
256,120,110832,1,8
256,32,111132,1,0
200,184,111732,5,0
256,120,112032,1,8
256,32,112332,1,0
312,184,112932,6,0,B|352:232|424:224,2,120,8|0|8
256,120,113832,1,0
200,184,114132,2,0,B|160:232|88:224,4,120,8|0|0|0|4
