osu file format v9

[General]
AudioFilename: 12 - Wi-Fi Bridge.mp3
AudioLeadIn: 0
PreviewTime: 57732
Countdown: 1
SampleSet: Soft
StackLeniency: 0.7
Mode: 0
LetterboxInBreaks: 1

[Editor]
DistanceSpacing: 1
BeatDivisor: 4
GridSize: 8

[Metadata]
Title:WI-FI BRIDGE
Artist:Renard
Creator:ztrot
Version:Insane?
Source:
Tags:Kurisuchianu

[Difficulty]
HPDrainRate:6
CircleSize:4
OverallDifficulty:6
ApproachRate:9
SliderMultiplier:2
SliderTickRate:1

[Events]
//Background and Video events
0,0,"Malpractice_by_Sax_Spieler.jpg"
//Break Periods
//Storyboard Layer 0 (Background)
//Storyboard Layer 1 (Fail)
//Storyboard Layer 2 (Pass)
//Storyboard Layer 3 (Foreground)
//Storyboard Sound Samples
//Background Colour Transformations
3,100,163,162,255

[TimingPoints]
132.013853468043,300,4,2,1,80,1,0
9582,-100,4,1,1,60,0,0
19182,-100,4,2,1,80,0,0
57732,-100,4,1,1,60,0,0
71757,-100,4,1,1,5,0,0
71907,-100,4,1,1,60,0,0
76857,-100,4,2,1,80,0,0
95757,-100,4,1,1,80,0,0
95907,-100,4,2,1,80,0,0

[Colours]
Combo1 : 226,226,226
Combo2 : 0,206,0
Combo3 : 145,0,0
Combo4 : 151,255,203

[HitObjects]
464,336,9732,2,0,B|360:280|408:160,1,200
256,280,10332,2,0,B|256:80,1,200
112,168,10932,2,0,B|157:281|53:337,1,200
200,224,11532,2,0,B|192:160|256:128|320:160|312:224,1,200
256,48,12132,5,0
384,176,12432,1,0
344,352,12732,1,0
168,352,13032,1,0
128,176,13332,1,0
384,64,13632,1,0
128,64,13932,1,0
256,288,14232,1,0
256,112,14532,5,0
256,192,14832,12,2,19032
408,344,19332,6,0,B|464:320|456:256,1,100,0|8
368,264,19632,1,0
320,264,19707,1,0
272,264,19782,1,8
224,344,19932,2,0,B|168:320|176:256,1,100,0|8
88,312,20232,5,0
64,280,20307,1,0
56,240,20382,1,8
56,192,20457,1,0
80,152,20532,2,0,B|112:104|64:56,1,100,0|8
160,48,20832,1,0
208,48,20907,1,0
256,48,20982,1,8
208,144,21132,2,0,B|312:144,1,100,0|8
256,232,21432,5,0
288,264,21507,1,0
336,272,21582,1,8
384,264,21657,1,0
416,232,21732,2,0,B|464:200|456:136,1,100,0|8
376,104,22032,1,0
328,104,22107,1,0
296,72,22182,1,8
256,152,22332,2,0,B|208:184|160:160,1,100,0|8
144,72,22632,5,0
96,64,22707,1,0
64,88,22782,1,8
48,128,22857,1,0
64,168,22932,2,0,B|80:224|144:216,1,100,0|8
208,280,23232,1,0
256,280,23307,1,0
304,280,23382,1,8
376,232,23532,5,8
256,184,23682,1,2
136,232,23832,1,0
136,232,23907,1,0
136,232,23982,1,8
88,136,24132,6,0,B|168:77,1,100,0|8
256,24,24432,1,0
256,72,24507,1,0
256,120,24582,1,8
344,72,24732,2,0,B|432:136,1,100,0|8
256,184,25032,5,0
256,232,25107,1,0
232,272,25182,1,8
192,288,25257,1,0
144,280,25332,6,0,B|88:256|112:184,1,100,0|8
72,104,25632,1,0
96,56,25707,1,0
144,40,25782,1,8
208,120,25932,2,0,B|312:120,1,100,0|8
408,64,26232,5,0
448,88,26307,1,0
464,136,26382,1,8
464,184,26457,1,0
424,216,26532,1,8
384,304,26682,5,2
280,320,26832,1,8
232,336,26907,1,8
184,344,26982,1,8
136,360,27057,1,0
88,344,27132,2,0,B|40:328|40:328|8:272,1,100,0|8
112,248,27432,5,0
152,216,27507,1,0
192,184,27582,1,8
256,264,27732,1,8
320,184,27882,1,0
256,104,28032,1,0
256,104,28107,1,0
256,104,28182,1,8
344,64,28332,6,0,B|408:64,1,50
464,96,28482,2,0,B|408:96,1,50
352,128,28632,2,0,B|416:128,1,50,8|0
480,160,28782,2,0,B|424:160,1,50
400,232,28932,5,0
424,280,29007,1,0
416,328,29082,1,8
368,352,29157,1,0
320,352,29232,1,0
256,232,29382,1,8
112,232,29532,5,0
88,280,29607,1,0
96,328,29682,1,8
144,352,29757,1,0
192,352,29832,1,0
256,232,29982,1,8
328,160,30132,6,0,B|448:160,1,100,0|8
184,160,30432,2,0,B|64:160,1,100,0|8
256,16,30732,2,0,B|256:128,1,100,0|8
256,168,30957,1,0
256,216,31032,1,0
256,264,31107,1,0
256,312,31182,1,8
352,312,31332,5,0
352,312,31482,1,8
448,272,31632,2,0,B|448:224,2,50,0|0|8
352,184,31932,5,0
352,184,32082,1,8
416,104,32232,2,0,B|472:104,2,50,0|0|8
320,48,32532,5,0
320,48,32682,1,8
256,128,32832,1,0
256,176,32907,1,0
256,224,32982,1,8
160,192,33132,5,8
144,48,33282,1,0
256,128,33432,1,0
368,48,33582,1,8
352,192,33732,5,0
448,192,33882,1,8
416,288,34032,1,0
368,288,34107,1,0
320,288,34182,1,8
160,192,34332,5,0
64,192,34482,1,8
96,288,34632,1,0
144,288,34707,1,0
192,288,34782,1,8
160,376,34932,5,0
256,376,35082,1,8
336,312,35232,1,0
384,312,35307,1,0
432,312,35382,1,8
304,216,35532,5,0
208,216,35682,1,8
256,128,35832,2,0,B|256:72,2,50,0|0|8
184,64,36132,1,8
328,64,36282,1,0
256,208,36432,1,8
256,208,36507,1,8
256,208,36582,1,8
256,304,36732,6,0,B|136:304,1,100,0|8
104,296,36957,1,0
64,272,37032,1,0
40,232,37107,1,0
40,184,37182,1,8
96,104,37332,5,8
184,144,37482,1,0
256,72,37632,1,0
328,144,37782,1,8
416,104,37932,1,0
392,200,38082,1,0
328,272,38232,1,8
184,272,38382,1,0
256,208,38532,1,4
152,32,38832,5,0
256,208,39132,1,0
256,304,39282,1,0
352,344,39432,2,0,B|480:344|480:224,1,200,8|0
432,136,39882,1,0
360,208,40032,1,8
328,112,40182,1,0
256,40,40332,1,0
184,112,40482,1,0
256,184,40632,2,0,B|256:296,2,100,8|0|0
64,304,41232,6,0,B|64:200|120:240|176:296|176:184,1,200,8|0
256,136,41682,1,0
336,200,41832,1,8
256,360,42132,5,0
440,80,42432,1,8
72,80,42732,1,0
168,256,43032,5,8
256,200,43182,1,0
344,256,43332,2,0,B|440:192|376:80,1,200,0|8
184,352,43932,5,0
328,352,44082,1,0
256,200,44232,1,8
376,128,44382,1,0
136,128,44532,5,0
472,304,44832,1,8
40,304,45132,1,0
376,128,45432,1,8
376,128,45582,1,0
376,128,45732,1,0
256,368,46032,1,8
136,128,46332,5,0
192,48,46482,2,0,B|240:80|296:48,1,100,0|8
264,152,46782,1,0
360,176,46932,1,0
392,80,47082,2,0,B|440:96|464:152,1,100,0|8
416,232,47382,1,0
368,320,47532,1,0
288,256,47682,1,8
224,328,47832,1,0
152,264,47982,1,0
96,344,48132,1,4
16,288,48282,6,0,B|56:240|24:184,1,100,0|8
24,96,48582,1,0
104,152,48732,1,0
128,56,48882,2,0,B|168:80|232:64,1,100,0|8
200,160,49182,1,0
296,128,49332,1,0
328,32,49482,2,0,B|376:32|416:72,1,100,0|8
392,168,49782,2,0,B|472:256|400:352,1,200
328,280,50232,1,8
256,344,50382,1,0
328,280,50532,1,0
232,264,50682,5,0
160,336,50832,1,8
128,240,50982,1,0
64,320,51132,2,0,B|0:224|96:144,2,200,0|8|0
128,240,51882,1,0
160,336,52032,1,8
232,264,52182,1,0
200,168,52332,1,0
136,88,52482,1,0
232,80,52632,6,0,B|280:64|328:88,2,100,8|0|0
384,208,53232,1,8
352,304,53382,1,0
448,288,53532,1,0
256,344,53832,1,8
64,288,54132,1,0
160,304,54282,1,0
232,232,54432,1,8
136,208,54582,1,0
200,136,54732,1,0
104,120,54882,1,0
40,200,55032,1,8
416,72,55332,5,0
96,72,55632,1,8
472,152,55932,1,0
40,152,56232,1,8
256,336,56532,2,0,B|256:232,2,100,0|0|8
256,136,57132,1,0
32,40,58032,5,0
480,48,58332,1,0
472,352,58632,1,0
40,352,58932,1,0
256,48,59232,1,0
176,232,59532,1,0
336,232,59832,1,0
32,40,60432,5,0
128,336,60732,1,0
256,48,61032,1,0
384,336,61332,1,0
480,40,61632,1,0
256,368,61932,1,0
32,192,62832,5,0
480,192,63132,1,0
256,72,63432,1,0
352,328,63732,2,0,B|256:376|160:328,3,200
160,56,64932,2,0,B|256:8|352:56,3,200
456,344,66132,1,0
256,112,66432,1,0
56,344,66732,1,0
480,40,67632,6,0,B|280:40,1,200
32,344,68232,2,0,B|232:344,1,200
480,120,68832,2,0,B|264:120,1,200
32,264,69432,1,0
464,32,70032,5,0
48,32,70332,1,0
112,336,70632,1,0
400,336,70932,1,0
112,336,71232,1,0
400,336,71532,6,0,B|344:240|344:240|256:264|168:240|168:240|112:336,1,400
56,144,72432,1,0
256,360,72732,1,0
456,144,73032,1,0
56,32,73332,1,0
456,32,73632,1,0
256,288,73932,1,0
256,32,74232,1,0
72,328,74532,5,0
440,328,74832,1,0
256,32,75132,1,0
48,240,75432,1,0
464,240,75732,1,0
72,80,76032,1,0
440,80,76332,1,0
256,160,76632,1,2
256,256,76782,1,0
256,352,76932,6,0,B|312:368|360:352,1,100,4|8
448,328,77232,1,0
416,296,77307,1,0
384,256,77382,1,8
480,240,77532,2,0,B|496:192|464:144,1,100,0|8
368,168,77832,1,0
320,168,77907,1,0
288,208,77982,1,8
304,88,78132,6,0,B|200:88,1,100,0|8
224,208,78432,1,0
192,168,78507,1,0
144,168,78582,1,8
47,144,78733,2,0,B|16:192|32:240,1,100,0|8
128,256,79032,1,0
96,296,79107,1,0
64,328,79182,1,8
157,353,79332,2,0,B|200:368|256:352,1,100,0|8
256,248,79632,5,0
256,200,79707,1,0
256,152,79782,1,8
208,64,79932,1,0
304,64,80082,1,8
176,152,80232,1,0
336,152,80382,1,8
256,248,80532,2,0,B|160:312|64:248,2,200,0|0|8
336,152,81282,5,0
176,152,81432,1,0
256,88,81582,1,8
256,88,81657,1,0
256,88,81732,1,0
352,64,81882,5,8
432,120,82032,1,0
432,168,82107,1,0
432,216,82182,1,8
344,288,82332,1,0
344,240,82407,1,0
344,192,82482,1,8
256,240,82632,1,0
256,288,82707,1,0
256,336,82782,1,8
160,304,82932,6,0,B|104:288|104:224,1,100,0|8
160,80,83232,2,0,B|104:96|104:160,1,100,0|8
104,304,83532,2,0,B|48:288|48:224,1,100,0|8
104,80,83832,2,0,B|48:96|48:160,1,100,0|8
144,192,84132,6,0,B|272:192|320:104,3,200
256,256,85182,1,8
367,192,85332,2,0,B|240:192|192:104,2,200,8|0|8
368,296,86082,1,0
304,376,86232,1,8
256,360,86307,1,0
208,376,86382,1,0
160,376,86457,1,0
112,360,86532,6,0,B|56:344|48:288,1,100,4|8
144,272,86832,1,0
144,224,86907,1,0
144,176,86982,1,8
112,88,87132,2,0,B|56:104|48:160,1,100,0|8
144,224,87432,1,0
192,240,87507,1,0
240,232,87582,1,8
272,192,87657,1,0
272,144,87732,5,0
200,320,87882,1,8
384,280,88032,1,0
272,144,88182,1,8
200,320,88332,1,0
112,208,88482,1,8
56,128,88632,5,0
80,80,88707,1,0
120,56,88782,1,8
168,56,88857,1,0
208,80,88932,6,0,B|264:72|288:24,1,100,0|8
376,64,89232,1,0
416,96,89307,1,0
440,136,89382,1,8
440,184,89457,1,0
424,232,89532,1,0
328,208,89682,1,8
232,232,89832,1,0
216,184,89907,1,0
216,136,89982,1,8
240,96,90057,1,0
280,64,90132,5,0
376,64,90282,1,8
328,160,90432,1,0
328,208,90507,1,0
328,256,90582,1,8
256,328,90732,2,0,B|200:328|160:368,2,100,8|0|8
304,344,91107,6,0,B|352:344,3,50,0|8|0|0
448,304,91482,1,8
360,256,91632,1,0
360,208,91707,1,0
360,160,91782,1,8
408,64,91932,2,0,B|360:72|304:64,1,100,0|8
104,64,92232,2,0,B|152:72|208:64,1,100,0|8
104,176,92532,2,0,B|152:184|208:176,1,100,0|8
408,176,92832,2,0,B|360:184|304:176,1,100,0|8
104,288,93132,2,0,B|152:296|208:288,1,100,0|8
408,288,93432,2,0,B|360:296|304:288,1,100,0|8
256,200,93732,5,8
184,16,94032,1,8
184,16,94107,1,8
184,16,94182,1,8
256,88,94332,1,0
328,16,94482,1,8
352,112,94632,5,0
344,160,94707,1,0
312,200,94782,1,8
256,200,94857,1,0
208,200,94932,1,8
144,88,95232,5,0
368,88,95382,1,8
256,24,95532,1,0
256,144,95682,1,0
256,272,95832,1,2
104,40,96132,6,0,B|48:64|56:128,1,100,0|8
144,120,96432,1,0
192,120,96507,1,0
240,120,96582,1,8
288,40,96732,2,0,B|344:64|336:128,1,100,0|8
416,72,97032,5,0
448,104,97107,1,0
456,144,97182,1,8
456,192,97257,1,0
432,232,97332,2,0,B|400:280|448:328,1,100,0|8
352,336,97632,1,0
304,336,97707,1,0
256,336,97782,1,8
304,240,97932,2,0,B|200:240,1,100,0|8
256,152,98232,5,0
224,120,98307,1,0
176,112,98382,1,8
128,120,98457,1,0
96,152,98532,2,0,B|48:184|56:248,1,100,0|8
136,280,98832,1,0
184,280,98907,1,0
216,312,98982,1,8
256,232,99132,2,0,B|304:200|352:224,1,100,0|8
368,312,99432,5,0
416,320,99507,1,0
448,296,99582,1,8
464,256,99657,1,0
448,216,99732,2,0,B|432:160|368:168,1,100,0|8
304,104,100032,1,0
256,104,100107,1,0
208,104,100182,1,8
136,152,100332,5,8
256,200,100482,1,2
376,152,100632,1,8
376,152,100707,1,8
376,152,100782,1,8
408,237,100932,6,0,B|328:296,1,100,0|8
256,256,101232,1,0
256,304,101307,1,0
256,352,101382,1,8
184,296,101532,2,0,B|96:232,1,100,0|8
256,200,101832,5,0
256,152,101907,1,0
280,112,101982,1,8
320,96,102057,1,0
368,104,102132,6,0,B|424:128|400:200,1,100,0|8
464,264,102432,1,0
432,296,102507,1,0
400,336,102582,1,8
304,296,102732,2,0,B|200:296,1,100,0|8
104,320,103032,5,0
64,296,103107,1,0
48,248,103182,1,8
48,200,103257,1,0
88,168,103332,1,8
128,72,103482,5,0
232,64,103632,1,8
280,48,103707,1,8
328,40,103782,1,8
376,24,103857,1,0
424,40,103932,2,0,B|472:56|472:56|504:112,1,100,0|8
400,136,104232,5,0
360,168,104307,1,0
320,200,104382,1,8
256,120,104532,1,8
192,200,104682,1,0
256,280,104832,1,0
256,280,104907,1,8
256,280,104982,1,0
168,320,105132,6,0,B|104:320,1,50
48,288,105282,2,0,B|104:288,1,50
160,256,105432,2,0,B|96:256,1,50,8|0
32,224,105582,2,0,B|88:224,1,50
112,152,105732,5,4
88,104,105807,1,0
96,56,105882,1,8
144,32,105957,1,0
192,32,106032,1,0
256,152,106182,1,8
400,152,106332,5,0
424,104,106407,1,0
416,56,106482,1,8
368,32,106557,1,0
320,32,106632,1,0
256,152,106782,1,8
184,224,106932,6,0,B|64:224,1,100,0|8
328,224,107232,2,0,B|448:224,1,100,0|8
256,368,107532,2,0,B|256:256,1,100,0|8
256,216,107757,1,0
256,168,107832,1,0
256,120,107907,1,0
256,72,107982,1,8
160,72,108132,5,0
160,72,108282,1,8
64,112,108432,2,0,B|64:160,2,50,0|0|8
160,200,108732,5,0
160,200,108882,1,8
96,280,109032,2,0,B|40:280,2,50,0|0|8
192,336,109332,5,0
192,336,109482,1,8
256,256,109632,1,0
256,208,109707,1,0
256,160,109782,1,8
352,192,109932,5,8
368,336,110082,1,0
256,256,110232,1,0
144,336,110382,1,8
160,192,110532,5,0
64,192,110682,1,8
96,96,110832,1,0
144,96,110907,1,0
192,96,110982,1,8
352,192,111132,5,0
448,192,111282,1,8
416,96,111432,1,0
368,96,111507,1,0
320,96,111582,1,8
352,8,111732,5,0
256,8,111882,1,8
176,72,112032,1,0
128,72,112107,1,0
80,72,112182,1,8
208,168,112332,5,0
304,168,112482,1,8
256,256,112632,2,0,B|256:312,2,50,0|0|8
328,320,112932,1,8
184,320,113082,1,0
256,176,113232,1,8
256,176,113307,1,8
256,176,113382,1,8
256,80,113532,6,0,B|376:80,1,100,0|8
408,88,113757,1,0
448,112,113832,1,0
472,152,113907,1,0
472,200,113982,1,8
416,280,114132,5,8
328,240,114282,1,0
256,312,114432,1,0
184,240,114582,1,8
96,280,114732,1,0
120,184,114882,1,0
184,112,115032,1,8
328,112,115182,1,0
256,176,115332,1,4
