osu file format v9

[General]
AudioFilename: Renard - The Club [Manian - Welcome To The Club].mp3
AudioLeadIn: 0
PreviewTime: -1
Countdown: 0
SampleSet: Soft
StackLeniency: 0.7
Mode: 0
LetterboxInBreaks: 0

[Editor]
DistanceSpacing: 0.8
BeatDivisor: 1
GridSize: 8

[Metadata]
Title:The Club [Manian - Welcome To The Club]
Artist:Renard
Creator:bastoan987
Version:Dance
Source:Renard
Tags:Renard The Club Manian Welcome To The Club]

[Difficulty]
HPDrainRate:3
CircleSize:5
OverallDifficulty:10
ApproachRate:8
SliderMultiplier:1.4
SliderTickRate:0.5

[Events]
//Background and Video events
0,0,"sprogbg.jpg"
//Break Periods
2,17791,25568
//Storyboard Layer 0 (Background)
//Storyboard Layer 1 (Fail)
//Storyboard Layer 2 (Pass)
//Storyboard Layer 3 (Foreground)
//Storyboard Sound Samples
//Background Colour Transformations
3,100,163,162,255

[TimingPoints]
0,136.363636363636,4,2,0,52,1,0

[HitObjects]
96,168,136,1,0
128,128,409,1,8
160,128,545,1,8
192,128,681,1,8
312,136,1090,1,8
264,192,1363,1,8
304,192,1500,1,8
352,192,1636,1,8
400,192,1772,1,8
192,136,2181,6,0,B|192:296,1,140
192,136,2590,6,0,B|192:296,1,140
192,136,2999,6,0,B|192:296,1,140
192,136,3409,6,0,B|192:296,1,140
280,280,3681,1,8
344,280,3954,1,8
160,168,4499,1,8
264,176,4772,1,8
400,176,5044,1,8
152,232,5454,1,8
224,232,5727,1,8
280,232,5863,1,8
328,232,6136,1,8
80,120,6681,6,0,B|104:192|104:192|152:192|152:192|176:112,1,140
80,120,7090,6,0,B|104:192|104:192|152:192|152:192|176:112,1,140
80,120,7499,6,0,B|104:192|104:192|152:192|152:192|176:112,1,140
80,120,7909,6,0,B|104:192|104:192|152:192|152:192|176:112,1,140,0|8
256,176,8318,1,8
128,240,8863,5,8
192,216,9136,1,8
256,240,9409,1,8
352,224,9818,1,8
400,216,10090,1,8
440,208,10227,1,8
488,200,10499,1,8
200,192,11045,6,0,B|196:192|196:192|196:168|196:168|212:168|212:168|212:136|212:136|196:136|196:136|196:104|196:104|212:104,1,140
208,192,11454,6,0,B|204:192|204:192|204:168|204:168|220:168|220:168|220:136|220:136|204:136|204:136|204:104|204:104|220:104,1,140
216,192,11863,6,0,B|212:192|212:192|212:168|212:168|228:168|228:168|228:136|228:136|212:136|212:136|212:104|212:104|228:104,1,140
224,192,12272,6,0,B|220:192|220:192|220:168|220:168|236:168|236:168|236:136|236:136|220:136|220:136|220:104|220:104|236:104,1,140
280,104,12681,1,0
256,248,13090,2,8,B|408:248,5,140,8|8|8|8|8|8
272,304,14181,1,8
320,304,14454,2,8,B|464:304,1,140
456,304,14863,1,8
256,192,15272,6,0,B|240:144|240:144|96:144,1,140
256,192,15681,6,0,B|272:144|272:144|416:144,1,140
256,192,16090,6,0,B|240:240|240:240|96:240,1,140
256,192,16499,6,0,B|272:240|272:240|416:240,1,140
256,192,16909,12,0,17591
256,192,26318,5,0
32,56,26590,2,0,B|192:56,1,140
172,56,26863,2,0,B|320:56,1,140
312,56,27136,2,0,B|472:56,1,140
448,56,27409,2,0,B|448:200,1,140
448,192,27681,2,0,B|449:333,1,140
448,328,27954,2,0,B|289:329,1,140
312,328,28227,2,0,B|156:329,1,140
176,328,28499,2,0,B|16:329,1,140
40,328,28772,2,0,B|40:184,1,140
40,192,29045,2,0,B|40:52,1,140
40,56,29318,6,0,B|200:56,1,140
176,56,29591,2,0,B|324:56,1,140
304,56,29864,2,0,B|464:56,1,140
448,56,30137,2,0,B|448:200,1,140
448,192,30409,2,0,B|449:333,1,140
448,328,30682,6,0,B|289:329,1,140
312,328,30955,2,0,B|156:329,1,140
176,328,31227,2,0,B|16:329,1,140
32,328,31500,2,0,B|32:184,1,140
32,192,31773,2,0,B|32:52,1,140
32,48,32045,6,0,B|192:48,1,140
176,48,32318,2,0,B|324:48,1,140
312,48,32591,2,0,B|472:48,1,140
456,48,32864,2,0,B|456:192,1,140
456,192,33136,2,0,B|457:333,1,140
456,328,33409,2,0,B|305:330,1,140
312,328,33681,2,0,B|312:176,1,140
312,168,33954,1,0
312,128,34227,1,0
312,88,34499,1,0
120,192,35045,5,8
72,112,35454,2,8,B|136:128|136:128|136:192|136:192|112:192,1,140
192,192,36136,1,8
144,112,36545,2,8,B|208:128|208:128|208:192|208:192|184:192,1,140
392,192,37227,5,8
440,112,37636,2,8,B|376:128|376:128|376:192|376:192|400:192,1,140
320,192,38318,1,8
368,112,38727,2,8,B|304:128|304:128|304:192|304:192|328:192,1,140
248,144,39409,6,10,B|264:176|264:176|256:216|256:216|280:248|280:248|264:272|264:272|128:272|216:176,4,280
120,120,41045,6,8,B|128:264,4,140
392,120,42136,2,8,B|384:264,4,140
328,256,42954,2,8,B|320:272|320:272|312:256|304:272|296:256|288:272|288:272|280:256,6,70
144,128,43772,5,8
368,256,44045,1,8
144,256,44318,1,8
368,128,44590,1,8
256,192,44863,1,8
192,192,45409,2,8,B|344:192,1,140
192,192,45681,6,8,B|344:192,1,140
192,192,45954,6,8,B|344:192,1,140,8|8
332,192,46499,6,8,B|192:192,1,140
332,192,46772,6,8,B|192:192,1,140
332,192,47044,6,8,B|192:192,1,140
112,96,47590,1,6
256,200,48136,2,8,B|224:208|224:208|224:248|224:248|256:312,1,140
256,192,48409,6,8,B|224:200|224:200|224:240|224:240|256:304,1,140
256,184,48681,6,8,B|224:192|224:192|224:232|224:232|256:296,1,140
256,176,48954,6,8,B|224:184|224:184|224:224|224:224|256:288,1,140
256,168,49227,6,8,B|224:176|224:176|224:216|224:216|256:280,1,140
256,184,49772,2,8,B|288:176|288:176|288:136|288:136|256:72,1,140
256,192,50045,6,8,B|288:184|288:184|288:144|288:144|256:80,1,140
256,200,50317,6,8,B|288:192|288:192|288:152|288:152|256:88,1,140
256,208,50590,6,8,B|288:200|288:200|288:160|288:160|256:96,1,140
256,216,50863,6,8,B|288:208|288:208|288:168|288:168|256:104,1,140
256,224,51136,2,8,B|288:216|288:216|288:176|288:176|256:112,1,140
256,232,51409,6,8,B|288:224|288:224|288:184|288:184|256:120,1,140
256,240,51681,6,8,B|288:232|288:232|288:192|288:192|256:128,1,140
256,248,51954,6,8,B|288:240|288:240|288:200|288:200|256:136,1,140
256,256,52227,6,8,B|288:248|288:248|288:208|288:208|256:144,1,140
256,128,52499,1,6
256,112,52772,1,0
256,192,52909,12,0,54409
144,72,54681,1,6
368,72,54954,1,0
256,192,55090,12,0,56590
152,112,56862,1,6
352,272,57135,1,0
