osu file format v12

[General]
AudioFilename: Renard - Terminal.mp3
AudioLeadIn: 0
PreviewTime: 25256
Countdown: 0
SampleSet: Normal
StackLeniency: 0.7
Mode: 1
LetterboxInBreaks: 0
WidescreenStoryboard: 1

[Editor]
DistanceSpacing: 0.8
BeatDivisor: 4
GridSize: 4

[Metadata]
Title:Terminal
TitleUnicode:Terminal
Artist:Renard
ArtistUnicode:Renard
Creator:nold_1702
Version:ReySHeL's Oni
Source:
Tags:happy623 hell foreverends mintong89 intensive care unit ep: extended and remastered reyshel mintong lapfox trax
BeatmapID:335015
BeatmapSetID:102282

[Difficulty]
HPDrainRate:5
CircleSize:4
OverallDifficulty:5
ApproachRate:5
SliderMultiplier:1.4
SliderTickRate:1

[Events]
//Background and Video events
0,0,"BG.jpg",0,0
//Break Periods
2,87786,107143
//Storyboard Layer 0 (Background)
//Storyboard Layer 1 (Fail)
//Storyboard Layer 2 (Pass)
//Storyboard Layer 3 (Foreground)
//Storyboard Sound Samples
//Background Colour Transformations
3,100,163,162,255

[TimingPoints]
7154,324.324324324324,4,1,0,70,1,0
25316,-100,4,1,0,70,0,1
56126,-100,4,1,0,70,0,0
87748,-100,4,1,0,40,0,0
108181,-100,4,1,0,60,0,0
118721,-100,4,1,0,70,0,1
139153,-100,4,1,0,70,0,0
139478,-100,4,1,0,70,0,1
149532,-100,4,1,0,70,0,0

[HitObjects]
256,192,24829,1,0,0:0:0:0:
256,192,24991,5,8,0:0:0:0:
256,192,25316,5,4,0:0:0:0:
256,192,25478,1,0,0:0:0:0:
256,192,25640,5,8,0:0:0:0:
256,192,25802,1,8,0:0:0:0:
256,192,25883,1,8,0:0:0:0:
256,192,25964,5,0,0:0:0:0:
256,192,26045,5,8,0:0:0:0:
256,192,26126,5,0,0:0:0:0:
256,192,26289,5,8,0:0:0:0:
256,192,26451,1,8,0:0:0:0:
256,192,26532,1,8,0:0:0:0:
256,192,26613,5,0,0:0:0:0:
256,192,26775,1,0,0:0:0:0:
256,192,26937,5,8,0:0:0:0:
256,192,27099,5,0,0:0:0:0:
256,192,27181,5,8,0:0:0:0:
256,192,27262,5,0,0:0:0:0:
256,192,27343,1,0,0:0:0:0:
256,192,27424,1,0,0:0:0:0:
256,192,27586,5,8,0:0:0:0:
256,192,27748,5,0,0:0:0:0:
256,192,27829,1,0,0:0:0:0:
256,192,27910,5,8,0:0:0:0:
256,192,28072,5,0,0:0:0:0:
256,192,28235,5,8,0:0:0:0:
256,192,28397,5,0,0:0:0:0:
256,192,28478,5,8,0:0:0:0:
256,192,28559,1,8,0:0:0:0:
256,192,28640,1,8,0:0:0:0:
256,192,28721,5,0,0:0:0:0:
256,192,28883,5,8,0:0:0:0:
256,192,29045,1,8,0:0:0:0:
256,192,29126,1,8,0:0:0:0:
256,192,29208,5,0,0:0:0:0:
256,192,29370,1,0,0:0:0:0:
256,192,29451,1,0,0:0:0:0:
256,192,29532,5,8,0:0:0:0:
256,192,29694,5,0,0:0:0:0:
256,192,29775,5,8,0:0:0:0:
256,192,29937,1,8,0:0:0:0:
256,192,30018,5,0,0:0:0:0:
256,192,30181,5,8,0:0:0:0:
256,192,30262,1,8,0:0:0:0:
256,192,30343,1,8,0:0:0:0:
256,192,30424,1,8,0:0:0:0:
256,192,30505,5,0,0:0:0:0:
256,192,30829,5,8,0:0:0:0:
256,192,30991,1,8,0:0:0:0:
256,192,31072,1,8,0:0:0:0:
256,192,31153,5,0,0:0:0:0:
256,192,31235,5,8,0:0:0:0:
256,192,31316,5,0,0:0:0:0:
256,192,31478,5,8,0:0:0:0:
256,192,31640,1,8,0:0:0:0:
256,192,31721,1,8,0:0:0:0:
256,192,31802,5,0,0:0:0:0:
256,192,31883,1,0,0:0:0:0:
256,192,31964,1,0,0:0:0:0:
256,192,32126,5,8,0:0:0:0:
256,192,32289,5,0,0:0:0:0:
256,192,32370,5,8,0:0:0:0:
256,192,32451,5,0,0:0:0:0:
256,192,32613,1,0,0:0:0:0:
256,192,32694,1,0,0:0:0:0:
256,192,32775,5,8,0:0:0:0:
256,192,32856,1,8,0:0:0:0:
256,192,32937,5,0,0:0:0:0:
256,192,33099,5,8,0:0:0:0:
256,192,33262,5,0,0:0:0:0:
256,192,33343,1,0,0:0:0:0:
256,192,33424,5,8,0:0:0:0:
256,192,33586,1,8,0:0:0:0:
256,192,33667,1,8,0:0:0:0:
256,192,33748,5,0,0:0:0:0:
256,192,33829,5,8,0:0:0:0:
256,192,33910,5,0,0:0:0:0:
256,192,34072,5,8,0:0:0:0:
256,192,34153,1,8,0:0:0:0:
256,192,34235,1,8,0:0:0:0:
256,192,34316,1,8,0:0:0:0:
256,192,34397,5,0,0:0:0:0:
256,192,34559,1,0,0:0:0:0:
256,192,34640,1,0,0:0:0:0:
256,192,34721,5,8,0:0:0:0:
256,192,34883,5,0,0:0:0:0:
256,192,34964,5,8,0:0:0:0:
256,192,35045,5,0,0:0:0:0:
256,192,35126,5,8,0:0:0:0:
256,192,35208,5,0,0:0:0:0:
256,192,35370,5,8,0:0:0:0:
256,192,35451,5,0,0:0:0:0:
256,192,35532,1,0,0:0:0:0:
256,192,35613,1,0,0:0:0:0:
256,192,35694,5,8,0:0:0:0:
256,192,36018,5,8,0:0:0:0:
256,192,36181,5,0,0:0:0:0:
256,192,36262,5,8,0:0:0:0:
256,192,36424,1,8,0:0:0:0:
256,192,36505,5,0,0:0:0:0:
256,192,36667,5,8,0:0:0:0:
256,192,36829,1,8,0:0:0:0:
256,192,36910,1,8,0:0:0:0:
256,192,36991,5,0,0:0:0:0:
256,192,37153,1,0,0:0:0:0:
256,192,37316,5,8,0:0:0:0:
256,192,37478,5,0,0:0:0:0:
256,192,37559,5,8,0:0:0:0:
256,192,37640,5,0,0:0:0:0:
256,192,37721,1,0,0:0:0:0:
256,192,37802,1,0,0:0:0:0:
256,192,37964,5,8,0:0:0:0:
256,192,38126,5,0,0:0:0:0:
256,192,38208,1,0,0:0:0:0:
256,192,38289,5,8,0:0:0:0:
256,192,38451,5,0,0:0:0:0:
256,192,38613,5,8,0:0:0:0:
256,192,38775,5,0,0:0:0:0:
256,192,38856,1,0,0:0:0:0:
256,192,38937,5,8,0:0:0:0:
256,192,39018,1,8,0:0:0:0:
256,192,39099,5,0,0:0:0:0:
256,192,39262,5,8,0:0:0:0:
256,192,39343,5,0,0:0:0:0:
256,192,39424,5,8,0:0:0:0:
256,192,39505,1,8,0:0:0:0:
256,192,39586,5,0,0:0:0:0:
256,192,39748,1,0,0:0:0:0:
256,192,39910,5,8,0:0:0:0:
256,192,40072,1,8,0:0:0:0:
256,192,40153,1,8,0:0:0:0:
256,192,40235,5,0,0:0:0:0:
256,192,40316,5,8,0:0:0:0:
256,192,40397,5,0,0:0:0:0:
256,192,40559,5,8,0:0:0:0:
256,192,40640,1,8,0:0:0:0:
256,192,40721,1,8,0:0:0:0:
256,192,40802,1,8,0:0:0:0:
256,192,40883,5,0,0:0:0:0:
256,192,41208,5,8,0:0:0:0:
256,192,41370,5,0,0:0:0:0:
256,192,41451,5,8,0:0:0:0:
256,192,41532,5,0,0:0:0:0:
256,192,41613,5,8,0:0:0:0:
256,192,41694,5,0,0:0:0:0:
256,192,41856,5,8,0:0:0:0:
256,192,41937,5,0,0:0:0:0:
256,192,42018,5,8,0:0:0:0:
256,192,42099,1,8,0:0:0:0:
256,192,42181,5,0,0:0:0:0:
256,192,42343,1,0,0:0:0:0:
256,192,42505,5,8,0:0:0:0:
256,192,42667,5,0,0:0:0:0:
256,192,42748,5,8,0:0:0:0:
256,192,42829,5,0,0:0:0:0:
256,192,42910,5,8,0:0:0:0:
256,192,42991,1,8,0:0:0:0:
256,192,43153,5,8,0:0:0:0:
256,192,43235,1,8,0:0:0:0:
256,192,43316,5,0,0:0:0:0:
256,192,43478,5,8,0:0:0:0:
256,192,43559,5,0,0:0:0:0:
256,192,43640,1,0,0:0:0:0:
256,192,43721,1,0,0:0:0:0:
256,192,43802,5,8,0:0:0:0:
256,192,43964,5,0,0:0:0:0:
256,192,44045,5,8,0:0:0:0:
256,192,44208,1,8,0:0:0:0:
256,192,44289,5,0,0:0:0:0:
256,192,44451,5,8,0:0:0:0:
256,192,44532,1,8,0:0:0:0:
256,192,44613,1,8,0:0:0:0:
256,192,44694,1,8,0:0:0:0:
256,192,44775,5,0,0:0:0:0:
256,192,44937,1,0,0:0:0:0:
256,192,45099,5,8,0:0:0:0:
256,192,45262,5,0,0:0:0:0:
256,192,45343,5,8,0:0:0:0:
256,192,45424,5,0,0:0:0:0:
256,192,45505,5,8,0:0:0:0:
256,192,45586,1,8,0:0:0:0:
256,192,45748,1,8,0:0:0:0:
256,192,45829,1,8,0:0:0:0:
256,192,45910,1,8,0:0:0:0:
256,192,45991,1,8,0:0:0:0:
256,192,46072,5,0,0:0:0:0:
256,192,46397,5,8,0:0:0:0:
256,192,46559,5,0,0:0:0:0:
256,192,46640,5,8,0:0:0:0:
256,192,46802,1,8,0:0:0:0:
256,192,46883,5,0,0:0:0:0:
256,192,47045,5,8,0:0:0:0:
256,192,47208,1,8,0:0:0:0:
256,192,47289,1,8,0:0:0:0:
256,192,47370,5,0,0:0:0:0:
256,192,47532,1,0,0:0:0:0:
256,192,47694,5,8,0:0:0:0:
256,192,47856,5,0,0:0:0:0:
256,192,47937,5,8,0:0:0:0:
256,192,48018,1,8,0:0:0:0:
256,192,48099,1,8,0:0:0:0:
256,192,48181,5,0,0:0:0:0:
256,192,48343,5,8,0:0:0:0:
256,192,48505,5,0,0:0:0:0:
256,192,48586,1,0,0:0:0:0:
256,192,48667,5,8,0:0:0:0:
256,192,48829,5,0,0:0:0:0:
256,192,48991,5,8,0:0:0:0:
256,192,49153,5,0,0:0:0:0:
256,192,49235,5,8,0:0:0:0:
256,192,49316,5,0,0:0:0:0:
256,192,49397,1,0,0:0:0:0:
256,192,49478,1,0,0:0:0:0:
256,192,49640,5,8,0:0:0:0:
256,192,49721,1,8,0:0:0:0:
256,192,49802,5,0,0:0:0:0:
256,192,49883,5,8,0:0:0:0:
256,192,49964,5,0,0:0:0:0:
256,192,50126,1,0,0:0:0:0:
256,192,50289,5,8,0:0:0:0:
256,192,50451,5,0,0:0:0:0:
256,192,50532,1,0,0:0:0:0:
256,192,50613,5,8,0:0:0:0:
256,192,50694,1,8,0:0:0:0:
256,192,50775,5,0,0:0:0:0:
256,192,50937,5,8,0:0:0:0:
256,192,51018,1,8,0:0:0:0:
256,192,51099,1,8,0:0:0:0:
256,192,51181,1,8,0:0:0:0:
256,192,51262,5,0,0:0:0:0:
256,192,51586,5,8,0:0:0:0:
256,192,51748,5,0,0:0:0:0:
256,192,51829,5,8,0:0:0:0:
256,192,51991,1,8,0:0:0:0:
256,192,52072,5,0,0:0:0:0:
256,192,52235,5,8,0:0:0:0:
256,192,52316,5,0,0:0:0:0:
256,192,52397,5,8,0:0:0:0:
256,192,52478,1,8,0:0:0:0:
256,192,52559,5,0,0:0:0:0:
256,192,52721,1,0,0:0:0:0:
256,192,52883,5,8,0:0:0:0:
256,192,53045,5,0,0:0:0:0:
256,192,53126,5,8,0:0:0:0:
256,192,53208,5,0,0:0:0:0:
256,192,53289,5,8,0:0:0:0:
256,192,53370,1,8,0:0:0:0:
256,192,53532,1,8,0:0:0:0:
256,192,53613,1,8,0:0:0:0:
256,192,53694,5,0,0:0:0:0:
256,192,53856,5,8,0:0:0:0:
256,192,53937,5,0,0:0:0:0:
256,192,54018,1,0,0:0:0:0:
256,192,54099,1,0,0:0:0:0:
256,192,54181,5,8,0:0:0:0:
256,192,54343,5,0,0:0:0:0:
256,192,54424,5,8,0:0:0:0:
256,192,54586,1,8,0:0:0:0:
256,192,54667,5,0,0:0:0:0:
256,192,54829,5,8,0:0:0:0:
256,192,54910,1,8,0:0:0:0:
256,192,54991,1,8,0:0:0:0:
256,192,55072,1,8,0:0:0:0:
256,192,55153,5,0,0:0:0:0:
256,192,55316,1,0,0:0:0:0:
256,192,55478,5,8,0:0:0:0:
256,192,55640,5,0,0:0:0:0:
256,192,55721,5,8,0:0:0:0:
256,192,55802,5,0,0:0:0:0:
256,192,55883,5,8,0:0:0:0:
256,192,55964,5,0,0:0:0:0:
256,192,56126,5,8,0:0:0:0:
256,192,56451,5,4,0:0:0:0:
256,192,56613,1,0,0:0:0:0:
256,192,56775,5,8,0:0:0:0:
256,192,56937,5,0,0:0:0:0:
256,192,57018,5,8,0:0:0:0:
256,192,57099,5,0,0:0:0:0:
256,192,57262,5,8,0:0:0:0:
256,192,57424,5,0,0:0:0:0:
256,192,57505,1,0,0:0:0:0:
256,192,57586,5,8,0:0:0:0:
256,192,57667,5,0,0:0:0:0:
256,192,57748,5,8,0:0:0:0:
256,192,57910,5,0,0:0:0:0:
256,192,57991,1,0,0:0:0:0:
256,192,58072,5,8,0:0:0:0:
256,192,58235,1,8,0:0:0:0:
256,192,58316,1,8,0:0:0:0:
256,192,58397,5,0,0:0:0:0:
256,192,58559,1,0,0:0:0:0:
256,192,58721,5,8,0:0:0:0:
256,192,58802,1,8,0:0:0:0:
256,192,58883,1,8,0:0:0:0:
256,192,58964,1,8,0:0:0:0:
256,192,59045,5,0,0:0:0:0:
256,192,59208,1,0,0:0:0:0:
256,192,59370,5,8,0:0:0:0:
256,192,59451,1,8,0:0:0:0:
256,192,59532,5,0,0:0:0:0:
256,192,59694,1,0,0:0:0:0:
256,192,59856,5,8,0:0:0:0:
256,192,59937,1,8,0:0:0:0:
256,192,60018,5,0,0:0:0:0:
256,192,60181,5,8,0:0:0:0:
256,192,60343,5,0,0:0:0:0:
256,192,60505,1,0,0:0:0:0:
256,192,60667,5,8,0:0:0:0:
256,192,60748,5,0,0:0:0:0:
256,192,60829,5,8,0:0:0:0:
256,192,60883,1,8,0:0:0:0:
256,192,60937,1,8,0:0:0:0:
256,192,60991,5,0,0:0:0:0:
256,192,61153,1,0,0:0:0:0:
256,192,61316,5,8,0:0:0:0:
256,192,61397,5,0,0:0:0:0:
256,192,61478,5,8,0:0:0:0:
256,192,61559,5,0,0:0:0:0:
256,192,61640,1,0,0:0:0:0:
256,192,61802,5,8,0:0:0:0:
256,192,61883,5,0,0:0:0:0:
256,192,61964,5,8,0:0:0:0:
256,192,62045,1,8,0:0:0:0:
256,192,62126,5,0,0:0:0:0:
256,192,62289,5,8,0:0:0:0:
256,192,62370,5,0,0:0:0:0:
256,192,62451,1,0,0:0:0:0:
256,192,62532,1,0,0:0:0:0:
256,192,62613,5,8,0:0:0:0:
256,192,62775,1,8,0:0:0:0:
256,192,62937,5,0,0:0:0:0:
256,192,63099,1,0,0:0:0:0:
256,192,63181,1,0,0:0:0:0:
256,192,63262,5,8,0:0:0:0:
256,192,63424,1,8,0:0:0:0:
256,192,63505,1,8,0:0:0:0:
256,192,63586,5,0,0:0:0:0:
256,192,63667,5,8,0:0:0:0:
256,192,63748,5,0,0:0:0:0:
256,192,63910,5,8,0:0:0:0:
256,192,64072,5,0,0:0:0:0:
256,192,64235,5,8,0:0:0:0:
256,192,64316,5,0,0:0:0:0:
256,192,64397,5,8,0:0:0:0:
256,192,64478,1,8,0:0:0:0:
256,192,64559,5,0,0:0:0:0:
256,192,64721,1,0,0:0:0:0:
256,192,64883,5,8,0:0:0:0:
256,192,64964,1,8,0:0:0:0:
256,192,65045,5,0,0:0:0:0:
256,192,65208,5,8,0:0:0:0:
256,192,65289,1,8,0:0:0:0:
256,192,65370,1,8,0:0:0:0:
256,192,65451,1,8,0:0:0:0:
256,192,65532,5,0,0:0:0:0:
256,192,65694,1,0,0:0:0:0:
256,192,65856,5,8,0:0:0:0:
256,192,66018,5,0,0:0:0:0:
256,192,66181,5,8,0:0:0:0:
256,192,66262,5,0,0:0:0:0:
256,192,66343,1,0,0:0:0:0:
256,192,66397,1,0,0:0:0:0:
256,192,66451,1,0,0:0:0:0:
256,192,66505,5,8,0:0:0:0:
256,192,66667,1,8,0:0:0:0:
256,192,66748,1,8,0:0:0:0:
256,192,66829,5,0,0:0:0:0:
256,192,66991,1,0,0:0:0:0:
256,192,67153,5,8,0:0:0:0:
256,192,67316,5,0,0:0:0:0:
256,192,67397,5,8,0:0:0:0:
256,192,67478,5,0,0:0:0:0:
256,192,67640,1,0,0:0:0:0:
256,192,67802,5,8,0:0:0:0:
256,192,68126,1,8,0:0:0:0:
256,192,68289,5,0,0:0:0:0:
256,192,68370,1,0,0:0:0:0:
256,192,68451,5,8,0:0:0:0:
256,192,68613,1,8,0:0:0:0:
256,192,68694,1,8,0:0:0:0:
256,192,68775,5,0,0:0:0:0:
256,192,68856,5,8,0:0:0:0:
256,192,68937,5,0,0:0:0:0:
256,192,69099,5,8,0:0:0:0:
256,192,69181,5,0,0:0:0:0:
256,192,69262,5,8,0:0:0:0:
256,192,69343,1,8,0:0:0:0:
256,192,69424,5,0,0:0:0:0:
256,192,69586,1,0,0:0:0:0:
256,192,69748,5,8,0:0:0:0:
256,192,69829,1,8,0:0:0:0:
256,192,69910,5,0,0:0:0:0:
256,192,70072,5,8,0:0:0:0:
256,192,70235,5,0,0:0:0:0:
256,192,70316,1,0,0:0:0:0:
256,192,70397,5,8,0:0:0:0:
256,192,70559,1,8,0:0:0:0:
256,192,70721,5,0,0:0:0:0:
256,192,70802,1,0,0:0:0:0:
256,192,70883,1,0,0:0:0:0:
256,192,71045,5,8,0:0:0:0:
256,192,71208,5,0,0:0:0:0:
256,192,71289,1,0,0:0:0:0:
256,192,71370,1,0,0:0:0:0:
256,192,71451,5,8,0:0:0:0:
256,192,71532,5,0,0:0:0:0:
256,192,71694,5,8,0:0:0:0:
256,192,71775,1,8,0:0:0:0:
256,192,71856,1,8,0:0:0:0:
256,192,71937,1,8,0:0:0:0:
256,192,72018,5,0,0:0:0:0:
256,192,72181,5,8,0:0:0:0:
256,192,72262,5,0,0:0:0:0:
256,192,72343,5,8,0:0:0:0:
256,192,72505,5,0,0:0:0:0:
256,192,72667,5,8,0:0:0:0:
256,192,72748,5,0,0:0:0:0:
256,192,72829,1,0,0:0:0:0:
256,192,72910,1,0,0:0:0:0:
256,192,72991,5,8,0:0:0:0:
256,192,73153,1,8,0:0:0:0:
256,192,73235,1,8,0:0:0:0:
256,192,73316,5,0,0:0:0:0:
256,192,73478,1,0,0:0:0:0:
256,192,73640,5,8,0:0:0:0:
256,192,73802,5,0,0:0:0:0:
256,192,73883,5,8,0:0:0:0:
256,192,73964,5,0,0:0:0:0:
256,192,74126,5,8,0:0:0:0:
256,192,74208,1,8,0:0:0:0:
256,192,74289,5,0,0:0:0:0:
256,192,74451,1,0,0:0:0:0:
256,192,74532,1,0,0:0:0:0:
256,192,74613,1,8,0:0:0:0:
256,192,74775,1,0,0:0:0:0:
256,192,74937,5,8,0:0:0:0:
256,192,75099,5,0,0:0:0:0:
256,192,75181,5,8,0:0:0:0:
256,192,75262,5,0,0:0:0:0:
256,192,75343,1,0,0:0:0:0:
256,192,75424,5,8,0:0:0:0:
256,192,75586,5,0,0:0:0:0:
256,192,75667,1,0,0:0:0:0:
256,192,75748,5,8,0:0:0:0:
256,192,75910,5,0,0:0:0:0:
256,192,75991,5,8,0:0:0:0:
256,192,76072,1,8,0:0:0:0:
256,192,76235,5,0,0:0:0:0:
256,192,76316,5,8,0:0:0:0:
256,192,76397,1,8,0:0:0:0:
256,192,76559,1,8,0:0:0:0:
256,192,76640,1,8,0:0:0:0:
256,192,76721,5,0,0:0:0:0:
256,192,76883,5,8,0:0:0:0:
256,192,76964,1,8,0:0:0:0:
256,192,77045,1,8,0:0:0:0:
256,192,77126,1,8,0:0:0:0:
256,192,77208,5,0,0:0:0:0:
256,192,77370,1,0,0:0:0:0:
256,192,77532,5,8,0:0:0:0:
256,192,77694,5,0,0:0:0:0:
256,192,77775,5,8,0:0:0:0:
256,192,77856,5,0,0:0:0:0:
256,192,78018,1,0,0:0:0:0:
256,192,78181,5,8,0:0:0:0:
256,192,78505,1,8,0:0:0:0:
256,192,78667,5,0,0:0:0:0:
256,192,78748,1,0,0:0:0:0:
256,192,78829,5,8,0:0:0:0:
256,192,78991,1,8,0:0:0:0:
256,192,79072,1,8,0:0:0:0:
256,192,79153,5,0,0:0:0:0:
256,192,79235,5,8,0:0:0:0:
256,192,79316,5,0,0:0:0:0:
256,192,79478,5,8,0:0:0:0:
256,192,79559,5,0,0:0:0:0:
256,192,79640,5,8,0:0:0:0:
256,192,79721,1,8,0:0:0:0:
256,192,79802,5,0,0:0:0:0:
256,192,79964,1,0,0:0:0:0:
256,192,80126,5,8,0:0:0:0:
256,192,80208,1,8,0:0:0:0:
256,192,80289,5,0,0:0:0:0:
256,192,80451,5,8,0:0:0:0:
256,192,80613,5,0,0:0:0:0:
256,192,80694,1,0,0:0:0:0:
256,192,80775,5,8,0:0:0:0:
256,192,80937,1,8,0:0:0:0:
256,192,81099,5,0,0:0:0:0:
256,192,81181,1,0,0:0:0:0:
256,192,81262,1,0,0:0:0:0:
256,192,81424,5,8,0:0:0:0:
256,192,81586,5,0,0:0:0:0:
256,192,81667,1,0,0:0:0:0:
256,192,81748,1,0,0:0:0:0:
256,192,81829,5,8,0:0:0:0:
256,192,81910,5,0,0:0:0:0:
256,192,82072,5,8,0:0:0:0:
256,192,82153,1,8,0:0:0:0:
256,192,82235,1,8,0:0:0:0:
256,192,82316,1,8,0:0:0:0:
256,192,82397,5,0,0:0:0:0:
256,192,82559,1,0,0:0:0:0:
256,192,82721,5,8,0:0:0:0:
256,192,82883,5,0,0:0:0:0:
256,192,82964,5,8,0:0:0:0:
256,192,83045,5,0,0:0:0:0:
256,192,83126,1,0,0:0:0:0:
256,192,83208,1,8,0:0:0:0:
256,192,83370,5,0,0:0:0:0:
256,192,83451,1,0,0:0:0:0:
256,192,83532,5,8,0:0:0:0:
256,192,83613,5,0,0:0:0:0:
256,192,83694,5,8,0:0:0:0:
256,192,83856,5,0,0:0:0:0:
256,192,83937,1,0,0:0:0:0:
256,192,84018,5,8,0:0:0:0:
256,192,84181,1,8,0:0:0:0:
256,192,84262,1,8,0:0:0:0:
256,192,84343,5,0,0:0:0:0:
256,192,84424,5,8,0:0:0:0:
256,192,84505,5,0,0:0:0:0:
256,192,84667,5,8,0:0:0:0:
256,192,84748,1,8,0:0:0:0:
256,192,84829,1,8,0:0:0:0:
256,192,84910,1,8,0:0:0:0:
256,192,84991,5,0,0:0:0:0:
256,192,85153,1,0,0:0:0:0:
256,192,85316,5,8,0:0:0:0:
256,192,85397,1,8,0:0:0:0:
256,192,85478,5,0,0:0:0:0:
256,192,85640,1,0,0:0:0:0:
256,192,85802,5,8,0:0:0:0:
256,192,85883,1,8,0:0:0:0:
256,192,85964,5,0,0:0:0:0:
256,192,86126,5,8,0:0:0:0:
256,192,86289,5,0,0:0:0:0:
256,192,86451,1,0,0:0:0:0:
256,192,86613,5,8,0:0:0:0:
256,192,86694,5,0,0:0:0:0:
256,192,86775,5,8,0:0:0:0:
256,192,86829,1,8,0:0:0:0:
256,192,86883,1,8,0:0:0:0:
256,192,86937,5,0,0:0:0:0:
256,192,87099,1,0,0:0:0:0:
256,192,87262,5,8,0:0:0:0:
256,192,87586,5,4,0:0:0:0:
256,192,108343,5,4,0:0:0:0:
256,192,108505,1,0,0:0:0:0:
256,192,108667,5,8,0:0:0:0:
256,192,108829,5,0,0:0:0:0:
256,192,108991,1,0,0:0:0:0:
256,192,109153,5,8,0:0:0:0:
256,192,109964,5,0,0:0:0:0:
256,192,110126,5,8,0:0:0:0:
256,192,110289,1,8,0:0:0:0:
256,192,110370,1,8,0:0:0:0:
256,192,110451,5,0,0:0:0:0:
256,192,110613,5,8,0:0:0:0:
256,192,110694,1,8,0:0:0:0:
256,192,110775,1,8,0:0:0:0:
256,192,110856,1,8,0:0:0:0:
256,192,110937,5,0,0:0:0:0:
256,192,111018,1,0,0:0:0:0:
256,192,111099,1,0,0:0:0:0:
256,192,111181,1,0,0:0:0:0:
256,192,111262,5,8,0:0:0:0:
256,192,111343,1,8,0:0:0:0:
256,192,111424,5,0,0:0:0:0:
256,192,111748,5,8,0:0:0:0:
256,192,111829,1,8,0:0:0:0:
256,192,111910,5,0,0:0:0:0:
256,192,112235,1,0,0:0:0:0:
256,192,112559,5,8,0:0:0:0:
256,192,112640,5,0,0:0:0:0:
256,192,112721,5,8,0:0:0:0:
256,192,112775,1,8,0:0:0:0:
256,192,112829,1,8,0:0:0:0:
256,192,112883,5,0,0:0:0:0:
256,192,113045,1,0,0:0:0:0:
256,192,113208,5,8,0:0:0:0:
256,192,113289,5,0,0:0:0:0:
256,192,113370,5,8,0:0:0:0:
256,192,113451,5,0,0:0:0:0:
256,192,113532,5,8,0:0:0:0:
256,192,113613,1,8,0:0:0:0:
256,192,113694,5,0,0:0:0:0:
256,192,113856,1,0,0:0:0:0:
256,192,113937,5,8,0:0:0:0:
256,192,114099,1,8,0:0:0:0:
256,192,114181,5,0,0:0:0:0:
256,192,114262,1,0,0:0:0:0:
256,192,114343,5,8,0:0:0:0:
256,192,114505,5,0,0:0:0:0:
256,192,114667,5,8,0:0:0:0:
256,192,114748,1,8,0:0:0:0:
256,192,114829,5,0,0:0:0:0:
256,192,114991,5,8,0:0:0:0:
256,192,115153,5,0,0:0:0:0:
256,192,115235,1,0,0:0:0:0:
256,192,115316,5,8,0:0:0:0:
256,192,115397,5,0,0:0:0:0:
256,192,115559,1,0,0:0:0:0:
256,192,115640,5,8,0:0:0:0:
256,192,115802,5,0,0:0:0:0:
256,192,115883,5,8,0:0:0:0:
256,192,115964,5,0,0:0:0:0:
256,192,116045,1,0,0:0:0:0:
256,192,116126,5,8,0:0:0:0:
256,192,116208,1,8,0:0:0:0:
256,192,116289,5,0,0:0:0:0:
256,192,116451,5,8,0:0:0:0:
256,192,116613,5,0,0:0:0:0:
256,192,116775,5,8,0:0:0:0:
256,192,116856,1,8,0:0:0:0:
256,192,116937,5,0,0:0:0:0:
256,192,117099,5,8,0:0:0:0:
256,192,117181,1,8,0:0:0:0:
256,192,117262,5,0,0:0:0:0:
256,192,117343,5,8,0:0:0:0:
256,192,117424,5,0,0:0:0:0:
256,192,117586,5,8,0:0:0:0:
256,192,117748,5,0,0:0:0:0:
256,192,118072,5,8,0:0:0:0:
256,192,118153,5,0,0:0:0:0:
256,192,118235,1,0,0:0:0:0:
256,192,118289,1,0,0:0:0:0:
256,192,118343,1,0,0:0:0:0:
256,192,118397,5,8,0:0:0:0:
256,192,118721,5,4,0:0:0:0:
256,192,118883,1,0,0:0:0:0:
256,192,119045,5,8,0:0:0:0:
256,192,119208,1,8,0:0:0:0:
256,192,119289,1,8,0:0:0:0:
256,192,119370,5,0,0:0:0:0:
256,192,119451,5,8,0:0:0:0:
256,192,119532,5,0,0:0:0:0:
256,192,119694,5,8,0:0:0:0:
256,192,119856,1,8,0:0:0:0:
256,192,119937,5,0,0:0:0:0:
256,192,120018,5,8,0:0:0:0:
256,192,120181,5,0,0:0:0:0:
256,192,120343,5,8,0:0:0:0:
256,192,120505,1,8,0:0:0:0:
256,192,120586,1,8,0:0:0:0:
256,192,120667,5,0,0:0:0:0:
256,192,120748,1,0,0:0:0:0:
256,192,120829,1,0,0:0:0:0:
256,192,120991,5,8,0:0:0:0:
256,192,121153,5,0,0:0:0:0:
256,192,121235,1,0,0:0:0:0:
256,192,121316,5,8,0:0:0:0:
256,192,121397,1,8,0:0:0:0:
256,192,121478,5,0,0:0:0:0:
256,192,121640,5,8,0:0:0:0:
256,192,121721,1,8,0:0:0:0:
256,192,121802,5,0,0:0:0:0:
256,192,121964,5,8,0:0:0:0:
256,192,122126,5,0,0:0:0:0:
256,192,122208,1,0,0:0:0:0:
256,192,122289,5,8,0:0:0:0:
256,192,122451,1,8,0:0:0:0:
256,192,122613,5,0,0:0:0:0:
256,192,122694,1,0,0:0:0:0:
256,192,122775,1,0,0:0:0:0:
256,192,122937,5,8,0:0:0:0:
256,192,123099,5,0,0:0:0:0:
256,192,123181,1,0,0:0:0:0:
256,192,123262,1,0,0:0:0:0:
256,192,123343,5,8,0:0:0:0:
256,192,123424,5,0,0:0:0:0:
256,192,123586,5,8,0:0:0:0:
256,192,123667,1,8,0:0:0:0:
256,192,123748,1,8,0:0:0:0:
256,192,123829,1,8,0:0:0:0:
256,192,123910,5,0,0:0:0:0:
256,192,124072,5,8,0:0:0:0:
256,192,124153,1,8,0:0:0:0:
256,192,124235,1,8,0:0:0:0:
256,192,124397,5,0,0:0:0:0:
256,192,124559,5,8,0:0:0:0:
256,192,124640,1,8,0:0:0:0:
256,192,124721,5,0,0:0:0:0:
256,192,124883,5,8,0:0:0:0:
256,192,125045,1,8,0:0:0:0:
256,192,125126,1,8,0:0:0:0:
256,192,125208,5,0,0:0:0:0:
256,192,125289,1,0,0:0:0:0:
256,192,125370,1,0,0:0:0:0:
256,192,125532,5,8,0:0:0:0:
256,192,125694,5,0,0:0:0:0:
256,192,125775,5,8,0:0:0:0:
256,192,125856,5,0,0:0:0:0:
256,192,126018,5,8,0:0:0:0:
256,192,126099,5,0,0:0:0:0:
256,192,126181,5,8,0:0:0:0:
256,192,126262,1,8,0:0:0:0:
256,192,126343,5,0,0:0:0:0:
256,192,126505,5,8,0:0:0:0:
256,192,126667,5,0,0:0:0:0:
256,192,126748,1,0,0:0:0:0:
256,192,126829,5,8,0:0:0:0:
256,192,126991,1,8,0:0:0:0:
256,192,127072,1,8,0:0:0:0:
256,192,127153,5,0,0:0:0:0:
256,192,127235,5,8,0:0:0:0:
256,192,127316,5,0,0:0:0:0:
256,192,127478,5,8,0:0:0:0:
256,192,127559,1,8,0:0:0:0:
256,192,127640,1,8,0:0:0:0:
256,192,127721,1,8,0:0:0:0:
256,192,127802,5,0,0:0:0:0:
256,192,127883,1,0,0:0:0:0:
256,192,127964,5,8,0:0:0:0:
256,192,128126,5,0,0:0:0:0:
256,192,128208,1,0,0:0:0:0:
256,192,128289,5,8,0:0:0:0:
256,192,128451,1,8,0:0:0:0:
256,192,128532,1,8,0:0:0:0:
256,192,128613,5,0,0:0:0:0:
256,192,128775,5,8,0:0:0:0:
256,192,128856,1,8,0:0:0:0:
256,192,128937,1,8,0:0:0:0:
256,192,129018,1,8,0:0:0:0:
256,192,129099,5,0,0:0:0:0:
256,192,129424,5,8,0:0:0:0:
256,192,129586,5,0,0:0:0:0:
256,192,129667,5,8,0:0:0:0:
256,192,129829,1,8,0:0:0:0:
256,192,129910,5,0,0:0:0:0:
256,192,130072,5,8,0:0:0:0:
256,192,130235,1,8,0:0:0:0:
256,192,130316,1,8,0:0:0:0:
256,192,130397,5,0,0:0:0:0:
256,192,130559,1,0,0:0:0:0:
256,192,130721,5,8,0:0:0:0:
256,192,130883,5,0,0:0:0:0:
256,192,130964,5,8,0:0:0:0:
256,192,131045,1,8,0:0:0:0:
256,192,131126,1,8,0:0:0:0:
256,192,131208,5,0,0:0:0:0:
256,192,131370,5,8,0:0:0:0:
256,192,131532,5,0,0:0:0:0:
256,192,131613,1,0,0:0:0:0:
256,192,131694,5,8,0:0:0:0:
256,192,131775,1,8,0:0:0:0:
256,192,131856,5,0,0:0:0:0:
256,192,132018,5,8,0:0:0:0:
256,192,132099,1,8,0:0:0:0:
256,192,132181,5,0,0:0:0:0:
256,192,132343,5,8,0:0:0:0:
256,192,132505,5,0,0:0:0:0:
256,192,132586,1,0,0:0:0:0:
256,192,132667,5,8,0:0:0:0:
256,192,132829,1,8,0:0:0:0:
256,192,132991,5,0,0:0:0:0:
256,192,133072,1,0,0:0:0:0:
256,192,133153,1,0,0:0:0:0:
256,192,133316,5,8,0:0:0:0:
256,192,133478,5,0,0:0:0:0:
256,192,133559,1,0,0:0:0:0:
256,192,133640,1,0,0:0:0:0:
256,192,133721,5,8,0:0:0:0:
256,192,133802,5,0,0:0:0:0:
256,192,133964,5,8,0:0:0:0:
256,192,134045,1,8,0:0:0:0:
256,192,134126,1,8,0:0:0:0:
256,192,134208,1,8,0:0:0:0:
256,192,134289,5,0,0:0:0:0:
256,192,134613,5,8,0:0:0:0:
256,192,134775,5,0,0:0:0:0:
256,192,134856,5,8,0:0:0:0:
256,192,134937,5,0,0:0:0:0:
256,192,135018,5,8,0:0:0:0:
256,192,135099,5,0,0:0:0:0:
256,192,135262,5,8,0:0:0:0:
256,192,135343,5,0,0:0:0:0:
256,192,135424,5,8,0:0:0:0:
256,192,135505,1,8,0:0:0:0:
256,192,135586,5,0,0:0:0:0:
256,192,135748,1,0,0:0:0:0:
256,192,135910,5,8,0:0:0:0:
256,192,136072,5,0,0:0:0:0:
256,192,136153,5,8,0:0:0:0:
256,192,136235,5,0,0:0:0:0:
256,192,136316,5,8,0:0:0:0:
256,192,136397,1,8,0:0:0:0:
256,192,136559,1,8,0:0:0:0:
256,192,136640,1,8,0:0:0:0:
256,192,136721,5,0,0:0:0:0:
256,192,136883,5,8,0:0:0:0:
256,192,136964,5,0,0:0:0:0:
256,192,137045,1,0,0:0:0:0:
256,192,137126,1,0,0:0:0:0:
256,192,137208,5,8,0:0:0:0:
256,192,137370,5,0,0:0:0:0:
256,192,137451,5,8,0:0:0:0:
256,192,137613,1,8,0:0:0:0:
256,192,137694,5,0,0:0:0:0:
256,192,137856,5,8,0:0:0:0:
256,192,137937,1,8,0:0:0:0:
256,192,138018,1,8,0:0:0:0:
256,192,138099,1,8,0:0:0:0:
256,192,138181,5,0,0:0:0:0:
256,192,138343,1,0,0:0:0:0:
256,192,138505,5,8,0:0:0:0:
256,192,138586,5,0,0:0:0:0:
256,192,138667,5,8,0:0:0:0:
256,192,138721,1,8,0:0:0:0:
256,192,138775,1,8,0:0:0:0:
256,192,138829,5,0,0:0:0:0:
256,192,138991,1,0,0:0:0:0:
256,192,139153,5,8,0:0:0:0:
256,192,139478,5,4,0:0:0:0:
256,192,139640,1,0,0:0:0:0:
256,192,139802,5,8,0:0:0:0:
256,192,139964,1,8,0:0:0:0:
256,192,140045,1,8,0:0:0:0:
256,192,140126,5,0,0:0:0:0:
256,192,140208,5,8,0:0:0:0:
256,192,140289,5,0,0:0:0:0:
256,192,140451,5,8,0:0:0:0:
256,192,140613,1,8,0:0:0:0:
256,192,140694,1,8,0:0:0:0:
256,192,140775,5,0,0:0:0:0:
256,192,140937,1,0,0:0:0:0:
256,192,141099,5,8,0:0:0:0:
256,192,141262,5,0,0:0:0:0:
256,192,141343,5,8,0:0:0:0:
256,192,141505,1,8,0:0:0:0:
256,192,141586,5,0,0:0:0:0:
256,192,141748,5,8,0:0:0:0:
256,192,141829,1,8,0:0:0:0:
256,192,141910,5,0,0:0:0:0:
256,192,141991,1,0,0:0:0:0:
256,192,142072,5,8,0:0:0:0:
256,192,142235,5,0,0:0:0:0:
256,192,142397,5,8,0:0:0:0:
256,192,142478,1,8,0:0:0:0:
256,192,142559,5,0,0:0:0:0:
256,192,142721,5,8,0:0:0:0:
256,192,142883,5,0,0:0:0:0:
256,192,142964,1,0,0:0:0:0:
256,192,143045,5,8,0:0:0:0:
256,192,143208,1,8,0:0:0:0:
256,192,143370,5,0,0:0:0:0:
256,192,143451,1,0,0:0:0:0:
256,192,143532,1,0,0:0:0:0:
256,192,143694,5,8,0:0:0:0:
256,192,143856,5,0,0:0:0:0:
256,192,143937,1,0,0:0:0:0:
256,192,144018,1,0,0:0:0:0:
256,192,144099,5,8,0:0:0:0:
256,192,144181,5,0,0:0:0:0:
256,192,144343,5,8,0:0:0:0:
256,192,144424,1,8,0:0:0:0:
256,192,144505,1,8,0:0:0:0:
256,192,144586,1,8,0:0:0:0:
256,192,144667,5,0,0:0:0:0:
256,192,144991,5,8,0:0:0:0:
256,192,145153,5,0,0:0:0:0:
256,192,145234,5,8,0:0:0:0:
256,192,145315,5,0,0:0:0:0:
256,192,145396,5,8,0:0:0:0:
256,192,145477,5,0,0:0:0:0:
256,192,145640,5,8,0:0:0:0:
256,192,145721,5,0,0:0:0:0:
256,192,145802,5,8,0:0:0:0:
256,192,145883,1,8,0:0:0:0:
256,192,145964,5,0,0:0:0:0:
256,192,146126,1,0,0:0:0:0:
256,192,146288,5,8,0:0:0:0:
256,192,146450,5,0,0:0:0:0:
256,192,146531,5,8,0:0:0:0:
256,192,146613,5,0,0:0:0:0:
256,192,146694,5,8,0:0:0:0:
256,192,146775,1,8,0:0:0:0:
256,192,146937,1,8,0:0:0:0:
256,192,147018,1,8,0:0:0:0:
256,192,147099,5,0,0:0:0:0:
256,192,147261,5,8,0:0:0:0:
256,192,147342,5,0,0:0:0:0:
256,192,147423,1,0,0:0:0:0:
256,192,147504,1,0,0:0:0:0:
256,192,147586,5,8,0:0:0:0:
256,192,147748,5,0,0:0:0:0:
256,192,147829,5,8,0:0:0:0:
256,192,147991,1,8,0:0:0:0:
256,192,148072,5,0,0:0:0:0:
256,192,148234,5,8,0:0:0:0:
256,192,148315,1,8,0:0:0:0:
256,192,148396,1,8,0:0:0:0:
256,192,148477,1,8,0:0:0:0:
256,192,148559,5,0,0:0:0:0:
256,192,148721,1,0,0:0:0:0:
256,192,148883,5,8,0:0:0:0:
256,192,148964,5,0,0:0:0:0:
256,192,149045,5,8,0:0:0:0:
256,192,149099,1,8,0:0:0:0:
256,192,149153,1,8,0:0:0:0:
256,192,149207,5,0,0:0:0:0:
256,192,149369,1,0,0:0:0:0:
256,192,149531,5,8,0:0:0:0:
256,192,149856,5,4,0:0:0:0:
