osu file format v12

[General]
AudioFilename: Renard - Terminal.mp3
AudioLeadIn: 0
PreviewTime: 25256
Countdown: 0
SampleSet: Normal
StackLeniency: 0.7
Mode: 0
LetterboxInBreaks: 1
WidescreenStoryboard: 1

[Editor]
Bookmarks: 25256,35634,46012,56391,87526,108283
DistanceSpacing: 2
BeatDivisor: 4
GridSize: 4

[Metadata]
Title:Terminal
TitleUnicode:Terminal
Artist:Renard
ArtistUnicode:Renard
Creator:nold_1702
Version:Insane
Source:
Tags:happy623 hell foreverends mintong89 intensive care unit ep: extended and remastered reyshel mintong lapfox trax
BeatmapID:298842
BeatmapSetID:102282

[Difficulty]
HPDrainRate:6
CircleSize:4
OverallDifficulty:7
ApproachRate:9
SliderMultiplier:1.3
SliderTickRate:1

[Events]
//Background and Video events
0,0,"BG.jpg",0,0
//Break Periods
2,87786,97364
//Storyboard Layer 0 (Background)
//Storyboard Layer 1 (Fail)
//Storyboard Layer 2 (Pass)
//Storyboard Layer 3 (Foreground)
//Storyboard Sound Samples
//Background Colour Transformations
3,100,163,162,255

[TimingPoints]
7154,324.324324324324,4,2,1,5,1,0
24667,-133.333333333333,4,2,2,50,0,0
24991,-100,4,2,1,50,0,0
25316,-80,4,1,1,80,0,1
27181,-86.9565217391304,4,1,1,80,0,1
27424,-95.2380952380952,4,1,1,80,0,1
27667,-105.263157894737,4,1,1,80,0,1
28153,-117.647058823529,4,1,1,80,0,1
28397,-133.333333333333,4,1,1,80,0,1
28640,-153.846153846154,4,1,1,80,0,1
29208,-105.263157894737,4,1,1,80,0,1
29451,-117.647058823529,4,1,1,80,0,1
29669,-133.333333333333,4,1,1,80,0,1
29912,-153.846153846154,4,1,1,80,0,1
30480,-80,4,1,1,80,0,1
32588,-86.9565217391304,4,1,1,80,0,1
32831,-95.2380952380952,4,1,1,80,0,1
33074,-86.9565217391304,4,1,1,80,0,1
33318,-80,4,1,1,80,0,1
33561,-74.0740740740741,4,1,1,80,0,1
33804,-68.9655172413793,4,1,1,80,0,1
34047,-80,4,1,1,80,0,1
34372,-74.0740740740741,4,1,1,80,0,1
34615,-68.9655172413793,4,1,1,80,0,1
34858,-64.5161290322581,4,1,1,80,0,1
35613,-80,4,1,1,80,0,0
35694,-80,4,1,1,80,0,1
37777,-86.9565217391304,4,1,1,80,0,1
38020,-95.2380952380952,4,1,1,80,0,1
38264,-105.263157894737,4,1,1,80,0,1
38507,-117.647058823529,4,1,1,80,0,1
38750,-133.333333333333,4,1,1,80,0,1
38993,-153.846153846154,4,1,1,80,0,1
39561,-105.263157894737,4,1,1,80,0,1
39804,-117.647058823529,4,1,1,80,0,1
40047,-133.333333333333,4,1,1,80,0,1
40291,-153.846153846154,4,1,1,80,0,1
40858,-80,4,1,1,80,0,1
45748,-80,4,1,1,30,0,1
45991,-80,4,1,1,80,0,0
46072,-80,4,1,1,80,0,1
48156,-86.9565217391304,4,1,1,80,0,1
48399,-95.2380952380952,4,1,1,80,0,1
48642,-105.263157894737,4,1,1,80,0,1
48885,-117.647058823529,4,1,1,80,0,1
49128,-133.333333333333,4,1,1,80,0,1
49372,-153.846153846154,4,1,1,80,0,1
49939,-105.263157894737,4,1,1,80,0,1
50183,-117.647058823529,4,1,1,80,0,1
50426,-133.333333333333,4,1,1,80,0,1
50669,-153.846153846154,4,1,1,80,0,1
51237,-80,4,1,1,80,0,1
56126,-80,4,1,1,80,0,0
56426,-133.333333333333,4,1,1,80,0,0
58964,-133.333333333333,4,1,1,30,0,0
59126,-133.333333333333,4,1,1,80,0,0
59613,-133.333333333333,4,1,1,30,0,0
59775,-133.333333333333,4,1,1,80,0,0
64153,-133.333333333333,4,1,1,30,0,0
64397,-133.333333333333,4,1,1,80,0,0
64559,-133.333333333333,4,1,1,30,0,0
64721,-133.333333333333,4,1,1,80,0,0
65532,-133.333333333333,4,1,1,30,0,0
65694,-133.333333333333,4,1,1,80,0,0
65856,-133.333333333333,4,1,1,30,0,0
66018,-133.333333333333,4,1,1,80,0,0
69262,-133.333333333333,4,1,1,30,0,0
69586,-133.333333333333,4,1,1,80,0,0
70696,-133.333333333333,4,1,1,30,0,0
70858,-133.333333333333,4,1,1,80,0,0
71101,-133.333333333333,4,1,1,30,0,0
71264,-133.333333333333,4,1,1,80,0,0
73802,-133.333333333333,4,1,1,30,0,0
73964,-133.333333333333,4,1,1,80,0,0
74208,-133.333333333333,4,1,1,30,0,0
74370,-133.333333333333,4,1,1,80,0,0
74613,-133.333333333333,4,1,1,30,0,0
74775,-133.333333333333,4,1,1,80,0,0
77126,-133.333333333333,4,1,1,30,0,0
77289,-133.333333333333,4,1,1,80,0,0
79802,-133.333333333333,4,1,1,30,0,0
79964,-133.333333333333,4,1,1,80,0,0
81099,-133.333333333333,4,1,1,30,0,0
81343,-133.333333333333,4,1,1,80,0,0
81586,-133.333333333333,4,1,1,30,0,0
81748,-133.333333333333,4,1,1,80,0,0
84991,-133.333333333333,4,1,1,30,0,0
85153,-133.333333333333,4,1,1,80,0,0
85478,-133.333333333333,4,1,1,30,0,0
85640,-133.333333333333,4,1,1,80,0,0
85883,-133.333333333333,4,1,1,30,0,0
86045,-133.333333333333,4,1,1,80,0,0
86208,-133.333333333333,4,1,1,30,0,0
86370,-133.333333333333,4,1,1,80,0,0
87561,-80,4,1,1,20,0,0
87723,-200,4,1,1,20,0,0
92775,-200,4,2,1,30,0,0
108318,-133.333333333333,4,1,1,50,0,0
111262,-133.333333333333,4,1,1,20,0,0
111586,-133.333333333333,4,1,1,50,0,0
111748,-133.333333333333,4,1,1,20,0,0
111991,-133.333333333333,4,1,1,50,0,0
112235,-133.333333333333,4,1,1,20,0,0
112316,-133.333333333333,4,1,1,50,0,0
116451,-133.333333333333,4,1,1,20,0,0
117984,-100,4,1,1,70,0,0
118721,-100,4,1,1,70,0,1
118795,-80,4,1,1,80,0,1
120822,-86.9565217391304,4,1,1,80,0,1
121065,-95.2380952380952,4,1,1,80,0,1
121308,-105.263157894737,4,1,1,80,0,1
121551,-117.647058823529,4,1,1,80,0,1
121795,-133.333333333333,4,1,1,80,0,1
122038,-153.846153846154,4,1,1,80,0,1
122524,-105.263157894737,4,1,1,80,0,1
122849,-117.647058823529,4,1,1,80,0,1
123092,-133.333333333333,4,1,1,80,0,1
123903,-83.3333333333333,4,1,1,80,0,1
126011,-90.9090909090909,4,1,1,80,0,1
126497,-86.9565217391304,4,1,1,80,0,1
126741,-80,4,1,1,80,0,1
126984,-74.0740740740741,4,1,1,80,0,1
127227,-68.9655172413793,4,1,1,80,0,1
127470,-80,4,1,1,80,0,1
127795,-86.9565217391304,4,1,1,80,0,1
129092,-80,4,1,1,80,0,1
130957,-86.9565217391304,4,1,1,80,0,1
131200,-95.2380952380952,4,1,1,80,0,1
131443,-105.263157894737,4,1,1,80,0,1
131930,-117.647058823529,4,1,1,80,0,1
132173,-133.333333333333,4,1,1,80,0,1
132416,-153.846153846154,4,1,1,80,0,1
132984,-95.2380952380952,4,1,1,80,0,1
133227,-105.263157894737,4,1,1,80,0,1
133470,-117.647058823529,4,1,1,80,0,1
133713,-80,4,1,1,80,0,1
139153,-80,4,1,1,80,0,0
139478,-80,4,1,1,80,0,1
141416,-86.9565217391304,4,1,1,80,0,1
142065,-86.9565217391304,4,1,1,80,0,1
142470,-95.2380952380952,4,1,1,80,0,1
143362,-86.9565217391304,4,1,1,80,0,1
143768,-95.2380952380952,4,1,1,80,0,1
144254,-105.263157894737,4,1,1,80,0,1
144578,-80,4,1,1,80,0,1
149532,-66.6666666666667,4,1,1,80,0,0
149930,-66.6666666666667,4,2,1,10,0,0

[Colours]
Combo1 : 102,51,51
Combo2 : 0,128,255
Combo3 : 255,17,17
Combo4 : 183,0,183
Combo5 : 223,108,32

[HitObjects]
256,192,22559,12,4,24018,0:0:0:0:
116,208,24829,6,0,L|132:162,1,48.750001859665,12|8,1:0|1:0,0:0:0:0:
128,288,25316,5,6,0:0:0:0:
128,288,25397,1,0,0:0:0:0:
128,288,25478,1,0,0:0:0:0:
116,208,25640,2,0,B|100:128|100:128|52:104,2,121.875,10|0|0,0:0|0:0|0:0,0:0:0:0:
63,344,26289,2,0,P|103:368|187:352,1,121.875,10|0,0:0|0:0,0:0:0:0:
204,332,26613,5,2,0:0:0:0:
232,256,26775,2,0,L|264:164,1,81.25,0|10,0:0|0:0,0:0:0:0:
296,72,27181,6,0,P|332:32|396:28,1,112.125002138615
368,104,27586,6,0,P|403:136|407:193,1,102.374996875763,10|0,0:0|0:0,0:0:0:0:
404,220,27910,6,0,L|380:324,1,92.6249975266457,2|2,0:3|0:3,0:0:0:0:
296,184,28397,6,0,L|274:277,1,73.1250027894975,2|2,0:3|0:3,0:0:0:0:
188,148,28883,1,10,0:0:0:0:
188,148,29208,6,0,P|128:172|80:152,1,92.6249975266457,2|2,0:3|0:3,0:0:0:0:
0,48,29694,6,0,P|32:20|76:20,1,73.1250027894975,2|2,0:3|0:3,0:0:0:0:
132,96,30181,1,10,0:0:0:0:
172,252,30505,6,0,L|188:300,2,40.625,2|0|0,0:0|0:0|0:0,0:0:0:0:
112,304,30829,2,0,P|148:356|220:356,1,121.875,8|0,0:0|0:0,0:0:0:0:
312,308,31316,2,0,P|324:256|292:208,1,81.25,0|8,0:0|0:0,0:0:0:0:
260,172,31640,1,0,0:0:0:0:
172,252,31802,6,0,L|264:268,1,81.25,2|0,0:0|0:0,0:0:0:0:
396,288,32126,1,8,0:0:0:0:
320,120,32370,2,0,P|260:96|216:112,1,81.25
232,112,32613,6,0,P|184:148|112:128,1,112.125002138615
32,28,33099,6,0,L|8:152,1,112.125002138615,2|2,0:3|0:3,0:0:0:0:
72,356,33586,6,0,L|32:216,1,131.62500050211,2|2,0:3|0:3,0:0:0:0:
164,72,34072,6,0,L|100:136,1,81.25,8|0,0:0|0:0,0:0:0:0:
106,129,34397,6,0,P|148:160|196:148,1,87.7500003347397,2|0,0:3|0:0,0:0:0:0:
256,100,34721,1,8,0:0:0:0:
136,0,34964,1,2,0:3:0:0:
80,140,35208,1,2,0:3:0:0:
108,216,35370,6,0,L|136:272,2,50.3750003843308,8|0|0,0:0|0:0|0:0,0:0:0:0:
108,216,35694,6,0,L|80:332,1,81.25,2|0,0:0|0:0,0:0:0:0:
120,372,36018,2,0,B|152:352|164:328|164:328|228:336,2,121.875,8|0|8,0:0|0:0|0:0,0:0:0:0:
40,276,36667,2,0,P|20:216|48:160,1,121.875,8|0,0:0|0:0,0:0:0:0:
80,140,36991,5,2,0:0:0:0:
108,216,37153,1,0,0:0:0:0:
160,152,37316,5,8,0:0:0:0:
80,60,37559,1,0,0:0:0:0:
0,148,37802,1,0,0:0:0:0:
24,224,37964,6,0,P|40:268|80:292,1,74.7500014257431,8|0,0:0|0:0,0:0:0:0:
60,360,38289,6,0,P|111:341|136:288,1,92.6249975266457,2|2,0:3|0:3,0:0:0:0:
256,328,38775,6,0,P|262:290|244:257,1,73.1250027894975,2|2,0:3|0:3,0:0:0:0:
132,188,39262,1,8,0:0:0:0:
64,284,39586,5,2,0:3:0:0:
188,300,39829,1,2,0:3:0:0:
264,200,40072,1,2,0:3:0:0:
215,84,40316,1,2,0:3:0:0:
91,68,40559,5,8,0:0:0:0:
72,148,40721,1,8,0:0:0:0:
15,87,40883,6,0,P|40:72|91:68,1,81.25,2|0,0:0|0:0,0:0:0:0:
148,128,41208,2,0,P|200:164|264:144,1,121.875,8|0,0:0|0:0,0:0:0:0:
276,32,41694,2,0,P|220:4|176:12,2,81.25,0|8|0,0:0|0:0|0:0,0:0:0:0:
288,56,42099,6,0,L|320:200,1,121.875,2|0,0:0|0:0,0:0:0:0:
276,248,42505,2,0,P|288:324|348:360,1,121.875,8|0,0:0|0:0,0:0:0:0:
428,296,42991,2,0,P|380:272|328:292,1,81.25,0|8,0:0|0:0,0:0:0:0:
204,340,43478,6,0,P|128:372|100:360,1,81.25,2|0,0:0|0:0,0:0:0:0:
136,292,43802,2,0,B|112:232|112:232|156:168,2,121.875,8|0|0,0:0|0:0|0:0,0:0:0:0:
60,324,44451,2,0,L|20:224,1,81.25,8|0,0:0|0:0,0:0:0:0:
20,216,44694,6,0,B|56:169|56:169|16:100,1,121.875,2|0,0:0|0:0,0:0:0:0:
12,36,45099,2,0,P|68:44|104:100,2,121.875,8|0|0,0:0|0:0|0:0,0:0:0:0:
24,115,45748,1,12,0:0:0:0:
24,115,46072,5,6,0:0:0:0:
28,128,46153,1,0,0:0:0:0:
32,144,46235,1,0,0:0:0:0:
56,220,46397,2,0,B|60:272|24:328|-16:332,2,121.875,8|0|0,0:0|0:0|0:0,0:0:0:0:
108,160,47045,6,0,P|156:132|200:140,1,81.25,8|0,0:0|0:0,0:0:0:0:
200,144,47289,2,0,L|232:264,1,121.875
168,312,47694,6,0,P|236:348|284:332,1,121.875,8|0,0:0|0:0,0:0:0:0:
340,244,48181,2,0,P|348:176|332:148,1,74.7500014257431,0|8,0:0|0:0,0:0:0:0:
284,124,48505,1,0,0:0:0:0:
276,200,48667,5,2,0:3:0:0:
408,284,48910,1,2,0:3:0:0:
414,127,49153,1,2,0:3:0:0:
214,155,49397,1,2,0:3:0:0:
344,328,49640,2,0,P|376:356|392:360,1,42.2499980659486,8|0,0:0|0:0,0:0:0:0:
448,352,49964,6,0,L|480:252,1,92.6249975266457,2|2,0:3|0:3,0:0:0:0:
264,180,50451,6,0,L|350:152,1,73.1250027894975,2|2,0:3|0:3,0:0:0:0:
264,340,50937,6,0,L|308:304,1,42.2499980659486,8|8,0:0|0:0,0:0:0:0:
264,340,51262,6,0,P|228:364|168:360,1,81.25,2|0,0:0|0:0,0:0:0:0:
128,316,51586,2,0,L|-4:308,1,121.875,8|0,0:0|0:0,0:0:0:0:
60,200,52072,1,0,0:0:0:0:
80,120,52235,2,0,L|108:28,1,81.25,8|0,0:0|0:0,0:0:0:0:
116,24,52478,6,0,P|132:92|180:128,1,121.875,0|0,0:0|0:0,0:0:0:0:
248,140,52883,2,0,L|384:148,2,121.875,8|0|0,0:0|0:0|0:0,0:0:0:0:
276,216,53532,2,0,L|312:300,1,81.25,8|0,0:0|0:0,0:0:0:0:
352,356,53856,6,0,B|320:380|272:360|272:360|176:388,2,162.5,2|8|0,0:0|0:0|0:0,0:0:0:0:
372,336,54586,6,0,L|500:300,1,121.875,0|8,0:0|0:0,0:0:0:0:
452,232,54991,2,0,L|464:164,1,40.625
380,176,55235,2,0,L|392:108,1,40.625,0|4,0:0|0:2,0:0:0:0:
308,124,55478,6,0,L|332:-8,2,121.875,8|0|0,0:0|0:0|0:0,0:0:0:0:
296,204,56126,1,8,0:0:0:0:
296,204,56451,6,0,P|236:256|208:256,1,97.50000371933,0|8,0:0|0:0,0:0:0:0:
104,172,57099,1,0,0:0:0:0:
104,172,57262,2,0,L|120:108,1,48.750001859665,8|0,0:0|0:0,0:0:0:0:
256,80,57748,6,0,B|272:20|272:20|220:36,1,97.50000371933,0|8,0:0|0:0,0:0:0:0:
104,92,58397,1,0,0:0:0:0:
104,92,58559,2,0,L|88:156,1,48.750001859665,0|8,0:0|0:0,0:0:0:0:
20,268,59045,6,0,B|44:296|44:296|64:232,1,97.50000371933,4|8,0:0|0:0,0:0:0:0:
68,92,59694,1,4,0:0:0:0:
68,92,59856,2,0,L|84:28,1,48.750001859665,8|0,0:0|0:0,0:0:0:0:
204,124,60343,6,0,P|188:164|124:188,1,97.50000371933,0|8,0:0|0:0,0:0:0:0:
48,76,60991,1,0,0:0:0:0:
48,76,61153,2,0,L|32:140,1,48.750001859665,0|8,0:0|0:0,0:0:0:0:
40,196,61478,1,8,0:0:0:0:
56,268,61640,6,0,L|72:320,2,48.750001859665,0|8|0,0:0|0:0|0:0,0:0:0:0:
160,168,62289,2,0,P|208:148|256:168,1,97.50000371933,8|8,0:0|0:0,0:0:0:0:
280,228,62775,1,0,0:0:0:0:
208,228,62937,6,0,L|188:288,2,48.750001859665,0|0|8,0:0|0:0|0:0,0:0:0:0:
256,88,63586,2,0,B|276:44|276:44|320:20,1,97.50000371933,0|8,0:0|0:0,0:0:0:0:
392,8,64072,1,8,0:0:0:0:
412,80,64235,6,0,L|428:140,2,48.750001859665,4|0|4,0:0|0:0|0:0,0:0:0:0:
360,216,64883,2,0,L|316:324,1,97.50000371933,8|8,0:0|0:0,0:0:0:0:
292,372,65370,1,0,0:0:0:0:
228,340,65532,6,0,L|164:344,2,48.750001859665,4|0|8,0:0|0:0|0:0,0:0:0:0:
232,192,66181,2,0,L|220:168,4,24.3750009298325,8|0|0|0|8,0:0|0:0|0:0|0:0|0:0,0:0:0:0:
304,208,66667,1,0,0:0:0:0:
332,140,66829,6,0,P|298:133|272:144,1,48.750001859665
224,100,67153,2,0,L|244:16,2,73.1250027894975,8|0|0,0:0|0:0|0:0,0:0:0:0:
208,172,67802,1,8,0:0:0:0:
208,172,68126,6,0,P|192:208|132:228,1,97.50000371933,8|8,0:0|0:0,0:0:0:0:
92,176,68613,2,0,P|68:212|80:272,1,97.50000371933,8|0,0:0|0:0,0:0:0:0:
136,304,69099,1,8,0:0:0:0:
136,304,69424,6,0,L|192:312,1,48.750001859665,4|0,0:0|0:0,0:0:0:0:
256,320,69748,2,0,P|252:280|224:248,1,73.1250027894975,8|0,0:0|0:0,0:0:0:0:
132,208,70235,2,0,L|88:216,2,24.3750009298325,0|0|8,0:0|0:0|0:0,0:0:0:0:
196,172,70559,1,8,0:0:0:0:
132,136,70721,6,0,P|168:104|220:104,1,97.50000371933,4|8,0:0|0:0,0:0:0:0:
268,152,71208,2,0,P|288:108|268:56,1,97.50000371933,4|0,0:0|0:0,0:0:0:0:
212,28,71694,1,8,0:0:0:0:
76,76,72018,6,0,L|56:120,2,48.750001859665,0|8|0,0:0|0:0|0:0,0:0:0:0:
128,212,72667,2,0,L|172:312,1,97.50000371933,8|8,0:0|0:0,0:0:0:0:
204,364,73153,1,0,0:0:0:0:
236,296,73316,6,0,P|264:316|276:348,2,48.750001859665,0|0|8,0:0|0:0|0:0,0:0:0:0:
220,188,73883,2,0,L|248:96,1,73.1250027894975,4|8,0:0|0:0,0:0:0:0:
260,48,74289,2,0,P|296:68|312:108,1,73.1250027894975,8|0,0:0|0:0,0:0:0:0:
308,132,74613,6,0,L|276:236,1,97.50000371933,4|8,0:0|0:0,0:0:0:0:
184,280,75181,2,0,P|192:324|216:348,1,73.1250027894975,0|8,0:0|0:0,0:0:0:0:
280,368,75586,2,0,L|344:360,1,48.750001859665,0|8,0:0|0:0,0:0:0:0:
400,356,75910,6,0,L|440:352,2,24.3750009298325,8|0|0,0:0|0:0|0:0,0:0:0:0:
332,264,76235,2,0,L|336:224,2,24.3750009298325,8|0|0,0:0|0:0|0:0,0:0:0:0:
432,176,76559,2,0,L|452:104,1,73.1250027894975
444,84,76883,2,0,P|444:48|460:20,1,48.750001859665,8|8,0:0|0:0,0:0:0:0:
360,128,77208,6,0,P|304:160|272:152,1,97.50000371933,4|8,0:0|0:0,0:0:0:0:
296,84,77694,2,0,P|256:80|208:124,1,97.50000371933
208,188,78181,1,8,0:0:0:0:
208,188,78505,6,0,L|188:240,1,48.750001859665,8|0,0:0|0:0,0:0:0:0:
264,244,78829,2,0,L|244:296,1,48.750001859665,0|8,0:0|0:0,0:0:0:0:
320,300,79153,2,0,P|356:320|416:308,1,97.50000371933,0|8,0:0|0:0,0:0:0:0:
444,248,79640,1,0,0:0:0:0:
372,244,79802,6,0,L|360:184,2,48.750001859665,4|8|0,0:0|0:0|0:0,0:0:0:0:
268,348,80451,1,8,0:0:0:0:
200,372,80613,2,0,L|176:380,2,24.3750009298325,0|0|8,0:0|0:0|0:0,0:0:0:0:
296,272,80937,1,8,0:0:0:0:
256,200,81099,6,0,P|216:180|176:184,1,73.1250027894975,4|0,0:0|0:0,0:0:0:0:
168,192,81424,1,8,0:0:0:0:
124,252,81586,2,0,P|68:272|24:260,1,97.50000371933,4|0,0:0|0:0,0:0:0:0:
4,196,82072,2,0,L|16:120,1,73.1250027894975,8|0,0:0|0:0,0:0:0:0:
20,100,82397,6,0,P|48:72|64:68,1,48.750001859665,4|0,0:3|0:0,0:0:0:0:
88,136,82721,2,0,L|164:128,1,73.1250027894975,8|0,0:0|0:0,0:0:0:0:
276,16,83208,1,8,0:0:0:0:
328,68,83370,2,0,P|304:84|272:84,1,48.750001859665
216,64,83694,6,0,P|224:124|256:152,1,97.50000371933,0|8,0:0|0:0,0:0:0:0:
324,152,84181,2,0,P|304:200|256:220,1,97.50000371933
192,204,84667,2,0,L|148:216,2,24.3750009298325
192,204,84991,6,0,L|168:272,1,48.750001859665,4|0,0:0|0:0,0:0:0:0:
140,316,85316,2,0,L|112:264,1,48.750001859665,8|4,0:0|0:0,0:0:0:0:
0,160,85802,1,8,0:0:0:0:
72,148,85964,1,4,0:0:0:0:
160,28,86289,6,0,B|196:20|196:20|224:24|224:24|268:16,1,97.50000371933,4|8,0:0|0:0,0:0:0:0:
324,44,86775,2,0,P|288:80|276:80,1,48.750001859665
224,100,87099,1,0,0:0:0:0:
152,112,87262,1,8,0:0:0:0:
152,112,87586,5,4,0:0:0:0:
260,40,97964,6,0,L|252:20,2,16.25,2|0|0,0:0|0:0|0:0,0:0:0:0:
312,104,98289,1,0,0:0:0:0:
312,104,98370,2,0,L|300:140,1,32.5,2|0,0:0|0:0,0:0:0:0:
228,164,98694,2,0,L|232:188,1,16.25,0|2,0:0|0:0,0:0:0:0:
296,244,98937,1,2,0:0:0:0:
224,288,99099,1,0,0:0:0:0:
200,276,99181,1,0,0:0:0:0:
176,272,99262,1,2,0:0:0:0:
152,276,99343,1,0,0:0:0:0:
132,288,99424,6,0,L|56:308,1,65,2|2,0:0|0:0,0:0:0:0:
56,176,100072,2,0,L|-4:192,1,48.75,2|2,0:0|0:0,0:0:0:0:
172,120,100559,6,0,L|184:72,1,48.75,0|2,0:0|0:0,0:0:0:0:
240,164,101045,2,0,L|252:116,2,48.75,0|2|2,0:0|0:0|0:0,0:0:0:0:
272,284,101856,6,0,L|284:331,1,48.75,2|2,0:0|0:0,0:0:0:0:
340,240,102343,2,0,L|352:287,2,48.75,0|2|2,0:0|0:0|0:0,0:0:0:0:
364,112,103153,6,0,B|384:60|348:16|348:16|320:32|316:68|316:68|320:112|304:144|304:144|280:180|280:180|216:216|184:116|252:128,1,422.5,2|0,0:0|0:0,0:0:0:0:
416,216,105748,6,0,B|448:208|448:208|420:272|420:272|396:304|400:344|400:344|356:380|356:380|316:392|276:328|360:320,1,357.5,2|0,0:0|0:0,0:0:0:0:
360,320,108343,6,0,L|344:352,2,24.3750009298325
424,280,108667,2,0,P|380:248|308:268,1,121.875004649162,8|0,0:0|0:0,0:0:0:0:
236,336,109316,2,0,P|204:356|152:352,1,73.1250027894975
132,352,109640,5,0,0:0:0:0:
176,272,109802,2,0,B|176:220|176:220|140:256,1,97.50000371933
96,116,110451,2,0,B|88:152|88:152|48:128,1,73.1250027894975
136,56,110937,6,0,P|88:44|60:52,1,73.1250027894975
320,40,111424,6,0,P|272:28|244:36,1,73.1250027894975,4|0,0:0|0:0,0:0:0:0:
496,104,111910,6,0,P|448:92|420:100,1,73.1250027894975,4|0,0:0|0:0,0:0:0:0:
426,98,112235,6,0,L|449:173,1,73.1250027894975,4|0,0:0|0:0,0:0:0:0:
468,280,112721,2,0,L|464:316,2,24.3750009298325,8|0|0,0:0|0:0|0:0,0:0:0:0:
384,248,113045,1,0,0:0:0:0:
336,324,113208,2,0,L|304:264,1,48.750001859665,8|8,0:0|0:0,0:0:0:0:
336,324,113532,6,0,P|292:352|248:348,1,97.50000371933,0|8,0:0|0:0,0:0:0:0:
112,300,114018,2,0,P|156:272|200:276,1,97.50000371933
312,136,114505,6,0,P|314:188|288:224,1,97.50000371933,8|0,0:0|0:0,0:0:0:0:
128,156,114991,2,0,P|168:182|215:178,1,97.50000371933
372,88,115478,2,0,P|331:61|284:65,1,97.50000371933,0|8,0:0|0:0,0:0:0:0:
188,100,115964,1,0,0:0:0:0:
208,216,116126,6,0,P|228:276|248:312,1,97.50000371933,0|4,0:0|0:0,0:0:0:0:
244,306,116937,1,4,0:0:0:0:
244,306,117424,1,4,0:0:0:0:
388,348,117748,1,4,0:0:0:0:
244,308,118072,6,0,L|260:356,3,32.5,4|0|0|0,0:2|0:0|0:0|0:0,0:0:0:0:
228,300,118397,5,0,0:0:0:0:
228,300,118721,5,6,0:0:0:0:
228,300,118802,1,0,0:0:0:0:
228,300,118883,2,0,P|188:216|192:196,1,81.25,0|8,0:0|0:0,0:0:0:0:
144,336,119289,2,0,P|84:348|20:316,1,121.875
0,248,119694,2,0,P|0:204|16:172,1,81.25,8|0,0:0|0:0,0:0:0:0:
92,144,120018,5,2,0:0:0:0:
148,204,120181,2,0,L|60:228,1,81.25,0|8,0:0|0:0,0:0:0:0:
276,228,120586,1,0,0:0:0:0:
92,144,120829,1,0,0:0:0:0:
220,168,121072,1,0,0:0:0:0:
36,84,121316,6,0,P|80:64|136:84,1,92.6249975266457,2|2,0:3|0:3,0:0:0:0:
264,104,121802,6,0,P|296:144|288:204,1,97.50000371933,2|2,0:3|0:3,0:0:0:0:
200,264,122289,5,8,0:0:0:0:
200,264,122613,6,0,L|164:356,1,92.6249975266457,2|2,0:3|0:3,0:0:0:0:
352,186,123099,6,0,L|384:264,1,73.1250027894975,2|2,0:3|0:3,0:0:0:0:
164,136,123586,6,0,L|140:148,2,24.3750009298325,8|0|0,0:0|0:0|0:0,0:0:0:0:
232,96,123910,5,2,0:0:0:0:
232,96,123991,1,0,0:0:0:0:
232,96,124072,2,0,P|197:67|149:62,1,77.999997619629,0|8,0:0|0:0,0:0:0:0:
96,184,124478,2,0,P|160:216|220:192,1,116.999996429443
276,200,124883,2,0,P|268:240|240:268,1,77.999997619629,8|0,0:0|0:0,0:0:0:0:
172,296,125208,6,0,L|88:316,1,77.999997619629,2|0,0:0|0:0,0:0:0:0:
32,360,125532,2,0,B|16:320|24:288|24:288|-8:216,2,116.999996429443,8|0|0,0:0|0:0|0:0,0:0:0:0:
152,376,126262,1,0,0:0:0:0:
140,232,126505,6,0,P|188:224|240:280,1,112.125002138615,2|2,0:3|0:3,0:0:0:0:
280,148,126991,6,0,P|252:96|284:28,1,131.62500050211,2|2,0:3|0:3,0:0:0:0:
168,84,127478,6,0,P|104:96|72:80,1,81.25,8|0,0:0|0:0,0:0:0:0:
32,44,127802,6,0,L|4:12,2,37.3750007128716,2|0|0,0:0|0:0|0:0,0:0:0:0:
96,176,128126,2,0,L|98:218,2,37.3750007128716,8|0|0,0:0|0:0|0:0,0:0:0:0:
168,84,128451,2,0,L|264:84,1,74.7500014257431
328,84,128775,1,8,0:0:0:0:
336,92,129099,5,6,0:0:0:0:
336,92,129181,1,0,0:0:0:0:
336,92,129262,1,0,0:0:0:0:
364,168,129424,2,0,B|396:256|396:256|368:296,2,121.875,8|0|0,0:0|0:0|0:0,0:0:0:0:
284,152,130072,2,0,P|286:197|312:227,1,81.25,8|0,0:0|0:0,0:0:0:0:
444,152,130397,6,0,P|425:110|389:91,1,81.25,2|0,0:0|0:0,0:0:0:0:
364,168,130721,1,8,0:0:0:0:
256,280,130964,1,0,0:0:0:0:
213,130,131208,1,0,0:0:0:0:
340,92,131451,5,0,0:0:0:0:
316,228,131694,2,0,P|264:204|212:216,1,92.6249975266457,2|2,0:3|0:3,0:0:0:0:
128,364,132181,2,0,P|171:347|194:311,1,73.1250027894975,2|2,0:3|0:3,0:0:0:0:
192,308,132505,6,0,L|184:272,2,21.1249990329743,0|0|8,0:0|0:0|0:0,0:0:0:0:
248,368,132829,1,0,0:0:0:0:
320,336,132991,6,0,P|364:320|420:348,1,102.374996875763,2|2,0:3|0:3,0:0:0:0:
508,216,133478,2,0,L|408:232,1,82.8750015807152,2|2,0:3|0:3,0:0:0:0:
292,140,133964,2,0,L|344:152,2,40.625,8|0|0,0:0|0:0|0:0,0:0:0:0:
292,140,134289,5,2,0:0:0:0:
292,140,134370,1,0,0:0:0:0:
292,140,134451,2,0,L|272:40,1,81.25,0|8,0:0|0:0,0:0:0:0:
260,48,134694,2,0,P|220:76|180:76,1,81.25
44,28,135099,2,0,P|32:72|64:132,1,81.25,0|8,0:0|0:0,0:0:0:0:
124,100,135424,6,0,P|118:145|66:188,1,81.25,0|8,0:0|0:0,0:0:0:0:
32,220,135748,2,0,L|52:312,1,81.25,0|8,0:0|0:0,0:0:0:0:
88,368,136072,2,0,P|128:312|108:244,1,121.875
104,224,136397,1,0,0:0:0:0:
72,148,136559,2,0,L|44:72,1,81.25,8|0,0:0|0:0,0:0:0:0:
112,24,136883,6,0,P|140:48|188:52,1,81.25,2|0,0:0|0:0,0:0:0:0:
264,44,137208,2,0,P|256:88|196:132,2,121.875,8|0|0,0:0|0:0|0:0,0:0:0:0:
296,120,137856,2,0,L|336:208,1,81.25,8|0,0:0|0:0,0:0:0:0:
340,216,138099,6,0,P|380:236|432:224,1,81.25
432,220,138343,2,0,L|464:112,1,81.25,0|8,0:0|0:0,0:0:0:0:
364,12,138748,1,0,0:0:0:0:
464,128,138991,1,0,0:0:0:0:
384,136,139153,5,8,0:0:0:0:
392,144,139478,5,6,0:0:0:0:
392,144,139559,1,0,0:0:0:0:
392,144,139640,2,0,P|352:160|308:156,1,81.25,0|8,0:0|0:0,0:0:0:0:
204,64,140045,2,0,L|164:208,1,121.875
156,260,140451,2,0,P|184:312|216:324,1,81.25,8|0,0:0|0:0,0:0:0:0:
284,332,140775,2,0,P|332:298|341:265,1,81.25,2|0,0:0|0:0,0:0:0:0:
348,200,141099,6,0,L|304:64,1,121.875,8|0,0:0|0:0,0:0:0:0:
184,20,141586,6,0,L|132:144,1,112.125002138615
132,136,142072,6,0,L|100:16,1,112.125002138615,2|2,0:3|0:3,0:0:0:0:
160,224,142559,6,0,L|131:331,1,102.374996875763,2|2,0:3|0:3,0:0:0:0:
128,336,142883,2,0,L|140:388,2,34.1249989585877,0|0|8,0:0|0:0|0:0,0:0:0:0:
72,280,143208,1,8,0:0:0:0:
76,204,143370,6,0,P|108:160|180:148,1,112.125002138615,2|2,0:3|0:3,0:0:0:0:
200,292,143856,6,0,P|228:331|293:342,1,102.374996875763,2|2,0:3|0:3,0:0:0:0:
376,264,144343,6,0,L|412:220,2,30.8749991755486,8|0|0,0:0|0:0|0:0,0:0:0:0:
316,208,144667,5,2,0:0:0:0:
316,208,144748,1,0,0:0:0:0:
316,208,144829,2,0,B|348:176|348:176|348:116,1,81.25
260,72,145153,1,0,0:0:0:0:
232,68,145235,2,0,L|96:96,1,121.875
40,52,145640,1,8,0:0:0:0:
28,132,145802,6,0,P|28:192|112:268,1,162.5
152,208,146289,2,0,P|224:196|280:220,2,121.875,8|0|0,0:0|0:0|0:0,0:0:0:0:
172,288,146937,2,0,L|200:368,1,81.25,8|0,0:0|0:0,0:0:0:0:
272,328,147262,6,0,P|320:308|376:336,1,81.25,2|0,0:0|0:0,0:0:0:0:
416,360,147586,2,0,B|436:316|420:280|420:280|468:252,2,121.875,8|0|0,0:0|0:0|0:0,0:0:0:0:
348,312,148235,1,8,0:0:0:0:
324,236,148397,6,0,L|300:148,1,81.25,0|2,0:0|0:0,0:0:0:0:
236,204,148721,2,0,P|160:216|140:204,1,81.25,0|8,0:0|0:0,0:0:0:0:
100,160,149045,1,0,0:0:0:0:
100,160,149126,2,0,P|84:104|100:68,1,81.25
112,48,149370,1,0,0:0:0:0:
188,108,149532,5,0,0:2:0:0:
196,120,149856,1,4,0:0:0:0:
