osu file format v12

[General]
AudioFilename: Renard - Terminal.mp3
AudioLeadIn: 0
PreviewTime: 25256
Countdown: 0
SampleSet: Normal
StackLeniency: 0.7
Mode: 0
LetterboxInBreaks: 1
WidescreenStoryboard: 0

[Editor]
Bookmarks: 25256,35634,46012,56391,87526,108283
DistanceSpacing: 1
BeatDivisor: 4
GridSize: 4

[Metadata]
Title:Terminal
TitleUnicode:Terminal
Artist:Renard
ArtistUnicode:Renard
Creator:nold_1702
Version:Easy
Source:
Tags:happy623 hell foreverends mintong89 intensive care unit ep: extended and remastered reyshel mintong lapfox trax
BeatmapID:270362
BeatmapSetID:102282

[Difficulty]
HPDrainRate:3
CircleSize:3
OverallDifficulty:2
ApproachRate:2
SliderMultiplier:0.7
SliderTickRate:1

[Events]
//Background and Video events
0,0,"BG.jpg",0,0
//Break Periods
2,87786,106783
//Storyboard Layer 0 (Background)
//Storyboard Layer 1 (Fail)
//Storyboard Layer 2 (Pass)
//Storyboard Layer 3 (Foreground)
//Storyboard Sound Samples
//Background Colour Transformations
3,100,163,162,255

[TimingPoints]
7154,324.324324324324,4,2,1,5,1,0
24667,-100,4,2,2,50,0,0
24991,-100,4,2,1,50,0,0
25316,-100,4,1,1,80,0,1
35613,-100,4,1,1,80,0,0
35694,-100,4,1,1,80,0,1
45991,-100,4,1,1,80,0,0
46072,-100,4,1,1,80,0,1
56126,-100,4,1,1,80,0,0
65451,-100,4,1,1,30,0,0
65613,-100,4,1,1,80,0,0
69343,-100,4,1,1,40,0,0
69505,-100,4,1,1,80,0,0
70640,-100,4,1,1,30,0,0
70802,-100,4,1,1,80,0,0
73964,-100,4,1,1,30,0,0
74694,-100,4,1,1,80,0,0
79721,-100,4,1,1,30,0,0
79883,-100,4,1,1,80,0,0
80937,-100,4,1,1,30,0,0
81262,-100,4,1,1,80,0,0
84910,-100,4,1,1,30,0,0
85153,-100,4,1,1,80,0,0
87586,-125,4,1,1,20,0,0
108343,-100,4,1,1,50,0,0
112072,-100,4,1,1,30,0,0
112316,-100,4,1,1,50,0,0
116451,-100,4,1,1,30,0,0
117748,-100,4,1,1,30,0,0
118073,-100,4,1,1,80,0,0
118721,-100,4,1,1,80,0,1
139153,-100,4,1,1,80,0,0
139478,-100,4,1,1,80,0,1
149531,-100,4,1,1,80,0,0

[Colours]
Combo1 : 102,51,51
Combo2 : 0,128,255
Combo3 : 255,17,17
Combo4 : 183,0,183
Combo5 : 223,108,32

[HitObjects]
256,192,22559,12,4,24018,0:0:0:0:
112,168,24829,5,8,1:0:0:0:
68,72,25316,6,0,P|140:60|192:100,1,140,6|0,0:0|0:0,0:0:0:0:
192,236,26613,2,0,P|154:286|166:358,1,140,2|0,0:0|0:0,0:0:0:0:
304,320,27910,6,0,L|232:308,1,70,2|8,0:3|0:0,0:0:0:0:
252,172,28883,1,8,0:0:0:0:
252,172,29208,6,0,L|240:100,1,70,2|8,0:3|0:0,0:0:0:0:
356,20,30181,1,8,0:0:0:0:
356,20,30505,6,0,P|384:80|456:96,1,140,2|0,0:0|0:0,0:0:0:0:
436,236,31802,2,0,B|428:280|428:280|420:328|348:332,1,140,2|0,0:0|0:0,0:0:0:0:
240,256,33099,6,0,L|228:184,1,70,2|8,0:3|0:0,0:0:0:0:
204,48,34072,1,8,0:0:0:0:
204,48,34397,2,0,L|132:60,1,70,2|8,0:3|0:0,0:0:0:0:
0,88,35370,1,8,0:0:0:0:
0,88,35694,6,0,P|20:152|84:184,1,140,6|0,0:0|0:0,0:0:0:0:
220,192,36991,2,0,L|360:176,1,140,2|0,0:0|0:0,0:0:0:0:
480,248,38289,6,0,L|460:328,1,70,2|8,0:3|0:0,0:0:0:0:
328,356,39262,1,8,0:0:0:0:
328,356,39586,6,0,L|308:276,1,70,2|8,0:3|0:0,0:0:0:0:
176,248,40559,1,8,0:0:0:0:
176,248,40883,6,0,P|100:212|40:240,1,140,6|0,0:0|0:0,0:0:0:0:
76,92,42181,2,0,L|56:16,2,70,2|8|0,0:0|0:0|0:0,0:0:0:0:
204,36,43478,6,0,L|240:180,1,140,2|0,0:0|0:0,0:0:0:0:
216,312,44775,2,0,L|156:352,2,70,2|8|0,0:0|0:0|0:0,0:0:0:0:
336,240,46072,6,0,P|408:220|464:256,1,140,6|0,0:0|0:0,0:0:0:0:
488,112,47370,2,0,P|484:80|408:12,1,140,2|0,0:0|0:0,0:0:0:0:
300,100,48667,5,2,0:3:0:0:
300,100,48991,2,0,P|224:132|168:116,1,140,8|8,0:0|0:0,0:0:0:0:
112,68,49964,6,0,L|96:-8,1,70,2|8,0:3|0:0,0:0:0:0:
4,104,50937,1,8,0:0:0:0:
4,104,51262,6,0,P|32:168|96:188,1,140,2|0,0:0|0:0,0:0:0:0:
236,176,52559,1,2,0:0:0:0:
378,164,53208,1,0,0:0:0:0:
284,268,53856,6,0,L|248:128,1,140,2|0,0:0|0:0,0:0:0:0:
160,24,55153,2,0,P|80:12|40:48,1,140,2|0,0:0|0:0,0:0:0:0:
116,92,56126,1,8,0:0:0:0:
117,92,56451,6,0,P|133:148|81:216,1,140,4|0,0:0|0:0,0:0:0:0:
20,336,57748,2,0,L|172:356,1,140
256,256,59045,6,0,B|248:220|248:220|264:168|264:168|320:156,1,140
452,148,60343,2,0,B|504:136|504:136|472:40,1,140
336,60,61640,6,0,P|272:96|200:76,1,140
84,20,62937,2,0,L|108:160,1,140
32,276,64235,6,0,P|72:308|160:292,1,140
256,200,65532,2,0,L|400:224,1,140,4|0,0:0|0:0,0:0:0:0:
484,116,66829,6,0,B|456:44|456:44|392:52,1,140
256,72,68126,2,0,B|196:80|196:80|173:42|128:32,1,140
56,156,69424,6,0,P|76:248|116:268,1,140,4|8,0:0|0:0,0:0:0:0:
252,280,70721,2,0,L|404:260,1,140,4|0,0:0|0:0,0:0:0:0:
488,364,72018,6,0,L|348:368,1,140,4|8,0:3|0:0,0:0:0:0:
208,352,73316,2,0,P|168:300|192:224,1,140,8|4,0:0|0:0,0:0:0:0:
240,104,74613,6,0,P|188:144|112:120,1,140,4|0,0:0|0:0,0:0:0:0:
8,212,75910,2,0,L|20:280,2,70,0|8|0,0:0|0:0|0:0,0:0:0:0:
140,264,77208,6,0,B|208:260|208:260|256:328,1,140,4|0,0:0|0:0,0:0:0:0:
272,180,78505,2,0,L|292:40,1,140
392,140,79802,6,0,P|404:184|352:260,1,140,4|8,0:0|0:0,0:0:0:0:
256,360,81099,2,0,L|112:348,1,140,4|0,0:0|0:0,0:0:0:0:
40,232,82397,5,4,0:3:0:0:
176,196,83045,2,0,L|160:120,1,70,0|8,0:0|0:0,0:0:0:0:
116,64,83694,6,0,P|164:16|240:28,1,140
320,132,84991,2,0,L|460:120,1,140,4|0,0:0|0:0,0:0:0:0:
432,256,86289,6,0,P|396:304|316:300,1,140
358,237,87262,1,8,0:0:0:0:
358,237,87586,5,4,0:0:0:0:
76,316,108343,6,0,P|56:236|84:184,1,140,8|0,0:0|0:0,0:0:0:0:
216,132,109640,1,0,0:0:0:0:
288,144,109964,2,0,P|272:80|196:60,1,140
216,132,110937,6,0,L|200:272,1,140,0|0,0:0|0:0,0:0:0:0:
308,360,112235,2,0,B|348:320|348:320|400:324,1,105,4|8,0:0|0:0,0:0:0:0:
488,172,113532,6,0,P|492:108|440:36,1,140
340,128,114829,2,0,P|304:160|208:140,1,140
100,76,116126,6,0,L|68:152,1,70,0|4,0:0|0:0,0:0:0:0:
36,240,116937,1,4,0:0:0:0:
52,344,117424,2,0,L|124:360,1,70,4|4,0:0|0:0,0:0:0:0:
192,328,118072,6,0,L|180:252,1,70,8|8,0:0|0:0,0:0:0:0:
244,212,118721,6,0,P|316:200|368:240,1,140,6|0,0:0|0:0,0:0:0:0:
468,140,120018,2,0,P|506:90|494:18,1,140,2|0,0:0|0:0,0:0:0:0:
356,52,121316,6,0,L|284:40,1,70,2|8,0:3|0:0,0:0:0:0:
148,56,122289,1,8,0:0:0:0:
148,56,122613,2,0,L|136:128,1,70,2|8,0:3|0:0,0:0:0:0:
124,264,123586,1,8,0:0:0:0:
124,264,123910,6,0,P|152:324|224:340,1,140,2|0,0:0|0:0,0:0:0:0:
328,252,125208,2,0,L|476:272,1,140,2|0,0:0|0:0,0:0:0:0:
448,132,126505,6,0,L|436:60,1,70,2|8,0:3|0:0,0:0:0:0:
304,16,127478,1,8,0:0:0:0:
304,16,127802,6,0,L|316:88,1,70,2|8,0:3|0:0,0:0:0:0:
208,172,128775,1,8,0:0:0:0:
129,165,129099,6,0,P|149:229|221:249,1,140,6|0,0:0|0:0,0:0:0:0:
348,208,130397,2,0,L|332:348,1,140,2|0,0:0|0:0,0:0:0:0:
436,252,131694,6,0,L|428:336,1,70,2|8,0:3|0:0,0:0:0:0:
508,208,132667,1,8,0:0:0:0:
482,134,132991,6,0,L|462:54,1,70,2|8,0:3|0:0,0:0:0:0:
328,40,133964,1,8,0:0:0:0:
292,112,134289,6,0,P|216:148|156:120,1,140,6|0,0:0|0:0,0:0:0:0:
36,84,135586,2,0,L|16:160,2,70,2|8|0,0:0|0:0|0:0,0:0:0:0:
128,188,136883,6,0,L|92:332,1,140,2|0,0:0|0:0,0:0:0:0:
232,304,138181,2,0,L|212:372,2,70,2|8|0,0:0|0:0|0:0,0:0:0:0:
300,180,139478,6,0,P|372:160|428:196,1,140,6|0,0:0|0:0,0:0:0:0:
368,320,140775,2,0,L|220:340,1,140,2|0,0:0|0:0,0:0:0:0:
104,280,142072,5,2,0:3:0:0:
104,280,142397,2,0,P|72:204|88:148,1,140,8|8,0:0|0:0,0:0:0:0:
144,96,143370,6,0,L|128:20,1,70,2|8,0:3|0:0,0:0:0:0:
264,64,144343,1,8,0:0:0:0:
344,60,144667,6,0,P|326:117|253:145,1,140,6|0,0:0|0:0,0:0:0:0:
128,92,145964,1,2,0:0:0:0:
136,232,146613,1,0,0:0:0:0:
52,120,147262,6,0,P|56:56|112:12,1,140,2|0,0:0|0:0,0:0:0:0:
208,112,148559,2,0,L|416:140,1,210,2|8,0:0|0:0,0:0:0:0:
488,104,149856,5,4,0:0:0:0:
