osu file format v12

[General]
AudioFilename: Renard - Terminal.mp3
AudioLeadIn: 0
PreviewTime: 25256
Countdown: 0
SampleSet: Normal
StackLeniency: 0.7
Mode: 0
LetterboxInBreaks: 1
WidescreenStoryboard: 0

[Editor]
Bookmarks: 25256,35634,46012,56391,87526,108283
DistanceSpacing: 1.4
BeatDivisor: 4
GridSize: 4

[Metadata]
Title:Terminal
TitleUnicode:Terminal
Artist:Renard
ArtistUnicode:Renard
Creator:nold_1702
Version:EXTRA
Source:
Tags:happy623 hell foreverends mintong89 intensive care unit ep: extended and remastered reyshel mintong lapfox trax
BeatmapID:270490
BeatmapSetID:102282

[Difficulty]
HPDrainRate:6
CircleSize:4
OverallDifficulty:8
ApproachRate:10
SliderMultiplier:2.8
SliderTickRate:2

[Events]
//Background and Video events
0,0,"BG.jpg",0,0
//Break Periods
//Storyboard Layer 0 (Background)
//Storyboard Layer 1 (Fail)
//Storyboard Layer 2 (Pass)
//Storyboard Layer 3 (Foreground)
//Storyboard Sound Samples
//Background Colour Transformations
3,100,163,162,255

[TimingPoints]
7154,324.324324324324,4,2,1,5,1,0
24667,-133.333333333333,4,2,2,50,0,0
24991,-100,4,2,1,50,0,0
25316,-80,4,1,1,80,0,1
27181,-86.9565217391304,4,1,1,80,0,1
27424,-95.2380952380952,4,1,1,80,0,1
27667,-105.263157894737,4,1,1,80,0,1
28153,-117.647058823529,4,1,1,80,0,1
28397,-133.333333333333,4,1,1,80,0,1
28640,-153.846153846154,4,1,1,80,0,1
29208,-105.263157894737,4,1,1,80,0,1
29451,-117.647058823529,4,1,1,80,0,1
29694,-133.333333333333,4,1,1,80,0,1
29937,-153.846153846154,4,1,1,80,0,1
30505,-80,4,1,1,80,0,1
32613,-86.9565217391304,4,1,1,80,0,1
32856,-95.2380952380952,4,1,1,80,0,1
33099,-86.9565217391304,4,1,1,80,0,1
33343,-80,4,1,1,80,0,1
33586,-74.0740740740741,4,1,1,80,0,1
33829,-68.9655172413793,4,1,1,80,0,1
34072,-80,4,1,1,80,0,1
34397,-74.0740740740741,4,1,1,80,0,1
34640,-68.9655172413793,4,1,1,80,0,1
34883,-64.5161290322581,4,1,1,80,0,1
35613,-80,4,1,1,80,0,0
35694,-80,4,1,1,80,0,1
37802,-86.9565217391304,4,1,1,80,0,1
38045,-95.2380952380952,4,1,1,80,0,1
38289,-105.263157894737,4,1,1,80,0,1
38532,-117.647058823529,4,1,1,80,0,1
38775,-133.333333333333,4,1,1,80,0,1
39018,-153.846153846154,4,1,1,80,0,1
39586,-105.263157894737,4,1,1,80,0,1
39829,-117.647058823529,4,1,1,80,0,1
40072,-133.333333333333,4,1,1,80,0,1
40316,-153.846153846154,4,1,1,80,0,1
40883,-80,4,1,1,80,0,1
45991,-80,4,1,1,80,0,0
46072,-80,4,1,1,80,0,1
48181,-86.9565217391304,4,1,1,80,0,1
48424,-95.2380952380952,4,1,1,80,0,1
48667,-105.263157894737,4,1,1,80,0,1
48910,-117.647058823529,4,1,1,80,0,1
49153,-133.333333333333,4,1,1,80,0,1
49397,-153.846153846154,4,1,1,80,0,1
49964,-105.263157894737,4,1,1,80,0,1
50208,-117.647058823529,4,1,1,80,0,1
50451,-133.333333333333,4,1,1,80,0,1
50694,-153.846153846154,4,1,1,80,0,1
51262,-80,4,1,1,80,0,1
56126,-80,4,1,1,80,0,0
56451,-133.333333333333,4,1,1,30,0,0
56613,-133.333333333333,4,1,1,80,0,0
59045,-133.333333333333,4,1,1,30,0,0
59126,-133.333333333333,4,1,1,80,0,0
59532,-133.333333333333,4,1,1,30,0,0
59613,-133.333333333333,4,1,1,80,0,0
60018,-133.333333333333,4,1,1,30,0,0
60099,-133.333333333333,4,1,1,80,0,0
64235,-133.333333333333,4,1,1,30,0,0
64316,-133.333333333333,4,1,1,80,0,0
64721,-133.333333333333,4,1,1,30,0,0
64802,-133.333333333333,4,1,1,80,0,0
65208,-133.333333333333,4,1,1,30,0,0
65289,-133.333333333333,4,1,1,80,0,0
66829,-133.333333333333,4,1,1,30,0,0
66991,-133.333333333333,4,1,1,80,0,0
67235,-133.333333333333,4,1,1,30,0,0
67397,-133.333333333333,4,1,1,80,0,0
67721,-133.333333333333,4,1,1,30,0,0
67883,-133.333333333333,4,1,1,80,0,0
69424,-133.333333333333,4,1,1,30,0,0
69586,-133.333333333333,4,1,1,80,0,0
70397,-133.333333333333,4,1,1,30,0,0
70478,-133.333333333333,4,1,1,80,0,0
70721,-133.333333333333,4,1,1,30,0,0
70802,-133.333333333333,4,1,1,80,0,0
71208,-133.333333333333,4,1,1,30,0,0
71289,-133.333333333333,4,1,1,80,0,0
71694,-133.333333333333,4,1,1,30,0,0
71714,-133.333333333333,4,1,1,80,0,0
72018,-133.333333333333,4,1,1,30,0,0
72181,-133.333333333333,4,1,1,80,0,0
72667,-133.333333333333,4,1,1,30,0,0
72748,-133.333333333333,4,1,1,80,0,0
73964,-133.333333333333,4,1,1,30,0,0
74045,-133.333333333333,4,1,1,80,0,0
79721,-133.333333333333,4,1,1,30,0,0
79883,-133.333333333333,4,1,1,80,0,0
81099,-133.333333333333,4,1,1,30,0,0
81181,-133.333333333333,4,1,1,80,0,0
81586,-133.333333333333,4,1,1,30,0,0
81667,-133.333333333333,4,1,1,80,0,0
81991,-133.333333333333,4,1,1,30,0,0
82093,-133.333333333333,4,1,1,80,0,0
84991,-133.333333333333,4,1,1,30,0,0
85072,-133.333333333333,4,1,1,80,0,0
85478,-133.333333333333,4,1,1,30,0,0
85559,-133.333333333333,4,1,1,80,0,0
85964,-133.333333333333,4,1,1,30,0,0
86045,-133.333333333333,4,1,1,80,0,0
87586,-80,4,1,1,20,0,0
87748,-200,4,1,1,20,0,0
108343,-133.333333333333,4,1,1,50,0,0
111424,-133.333333333333,4,1,1,20,0,0
111505,-133.333333333333,4,1,1,50,0,0
111910,-133.333333333333,4,1,1,20,0,0
111991,-133.333333333333,4,1,1,50,0,0
112235,-133.333333333333,4,1,1,20,0,0
112316,-133.333333333333,4,1,1,50,0,0
116451,-133.333333333333,4,1,1,20,0,0
116532,-133.333333333333,4,1,1,50,0,0
116937,-133.333333333333,4,1,1,20,0,0
117018,-133.333333333333,4,1,1,50,0,0
117424,-133.333333333333,4,1,1,20,0,0
117505,-133.333333333333,4,1,1,50,0,0
117748,-133.333333333333,4,1,1,20,0,0
117829,-133.333333333333,4,1,1,50,0,0
118072,-100,4,1,1,50,0,0
118721,-100,4,1,1,50,0,1
118802,-80,4,1,1,30,0,1
119045,-80,4,1,1,30,0,1
119126,-80,4,1,1,80,0,1
119694,-80,4,1,1,30,0,1
119775,-80,4,1,1,80,0,1
120343,-80,4,1,1,30,0,1
120424,-80,4,1,1,80,0,1
120829,-86.9565217391304,4,1,1,80,0,1
120991,-86.9565217391304,4,1,1,30,0,1
121072,-95.2380952380952,4,1,1,80,0,1
121315,-105.263157894737,4,1,1,40,0,1
121397,-105.263157894737,4,1,1,80,0,1
121558,-117.647058823529,4,1,1,80,0,1
121802,-133.333333333333,4,1,1,80,0,1
122045,-153.846153846154,4,1,1,80,0,1
122531,-105.263157894737,4,1,1,80,0,1
122856,-117.647058823529,4,1,1,80,0,1
123099,-133.333333333333,4,1,1,80,0,1
123910,-83.3333333333333,4,1,1,80,0,1
125775,-83.3333333333333,4,1,1,30,0,1
125856,-83.3333333333333,4,1,1,80,0,1
126018,-90.9090909090909,4,1,1,80,0,1
126262,-90.9090909090909,4,1,1,30,0,1
126343,-90.9090909090909,4,1,1,80,0,1
126504,-86.9565217391304,4,1,1,30,0,1
126586,-86.9565217391304,4,1,1,80,0,1
126748,-80,4,1,1,80,0,1
126991,-74.0740740740741,4,1,1,80,0,1
127234,-68.9655172413793,4,1,1,80,0,1
127477,-80,4,1,1,80,0,1
127802,-86.9565217391304,4,1,1,80,0,1
129099,-80,4,1,1,80,0,1
129424,-80,4,1,1,30,0,1
129505,-80,4,1,1,80,0,1
130072,-80,4,1,1,30,0,1
130153,-80,4,1,1,80,0,1
130964,-86.9565217391304,4,1,1,80,0,1
131207,-95.2380952380952,4,1,1,80,0,1
131450,-105.263157894737,4,1,1,80,0,1
131937,-117.647058823529,4,1,1,80,0,1
132180,-133.333333333333,4,1,1,80,0,1
132423,-153.846153846154,4,1,1,80,0,1
132991,-95.2380952380952,4,1,1,80,0,1
133234,-105.263157894737,4,1,1,80,0,1
133477,-117.647058823529,4,1,1,80,0,1
133720,-80,4,1,1,80,0,1
137289,-80,4,1,1,30,0,1
137370,-80,4,1,1,80,0,1
139153,-80,4,1,1,80,0,0
139477,-80,4,1,1,80,0,1
141585,-86.9565217391304,4,1,1,80,0,1
141829,-95.2380952380952,4,1,1,80,0,1
142072,-105.263157894737,4,1,1,80,0,1
142315,-117.647058823529,4,1,1,80,0,1
142558,-133.333333333333,4,1,1,80,0,1
142802,-153.846153846154,4,1,1,80,0,1
143369,-105.263157894737,4,1,1,80,0,1
143612,-117.647058823529,4,1,1,80,0,1
143856,-133.333333333333,4,1,1,80,0,1
144099,-153.846153846154,4,1,1,80,0,1
144342,-100,4,1,1,80,0,1
144666,-80,4,1,1,80,0,1
147829,-80,4,1,1,30,0,1
147910,-80,4,1,1,80,0,1
148235,-80,4,1,1,30,0,1
148316,-80,4,1,1,80,0,1
148640,-80,4,1,1,30,0,1
148721,-80,4,1,1,80,0,1
149531,-66.6666666666667,4,1,1,80,0,0

[Colours]
Combo1 : 102,51,51
Combo2 : 0,128,255
Combo3 : 255,17,17
Combo4 : 183,0,183
Combo5 : 223,108,32

[HitObjects]
256,192,22559,12,4,24018,0:0:0:0:
124,40,24829,6,0,L|160:180,1,105.000004005432,12|8,1:0|1:0,0:0:0:0:
112,108,25316,5,6,1:0:0:0:
112,108,25397,1,0,0:0:0:0:
112,108,25478,2,0,L|208:48,1,87.5,0|4,0:0|1:3,0:0:0:0:
240,220,25640,6,0,B|244:188|260:168|260:168|260:144|240:120|240:120|280:80|240:4,1,175,10|0,1:0|0:0,0:0:0:0:
360,184,25883,6,0,B|385:203|410:206|410:206|427:223|430:254|430:254|487:254|512:336,1,175
278,381,26126,2,0,B|284:357|266:329|266:329|258:321|258:321|264:313|264:313|237:294|240:212,2,175,0|10|0,0:0|0:0|0:0,0:0:0:0:
168,304,26532,6,0,B|116:316|116:316|76:308|76:308|28:340|28:340|-12:332,1,175
64,208,26775,2,0,B|76:172|76:172|48:160|48:160|84:92|44:48,1,175,0|10,0:0|0:0,0:0:0:0:
52,58,27018,5,0,0:0:0:0:
52,58,27099,1,0,0:0:0:0:
52,60,27181,2,0,B|73:64|73:64|85:68|85:68|89:56|89:56|208:80,1,161.000003070831
427,79,27424,6,0,B|403:87|403:87|389:94|389:94|379:83|379:83|283:111,1,146.999995513916,0|10,0:0|0:0,0:0:0:0:
84,140,27667,6,0,B|99:151|99:151|107:159|107:159|115:151|115:151|196:204,1,132.999996448517,0|0,0:0|0:0,0:0:0:0:
139,322,27910,6,0,L|203:178,1,132.999996448517,2|0,0:3|0:0,0:0:0:0:
460,244,28153,6,0,L|354:149,1,119.000002269745,2|0,0:3|0:0,0:0:0:0:
240,344,28397,6,0,L|264:216,1,105.000004005432,2|2,0:3|0:0,0:0:0:0:
384,324,28640,6,0,L|324:208,1,90.9999958343508,2|0,0:3|0:0,0:0:0:0:
342,243,28883,6,0,L|328:332,1,45.4999979171754,10|0,0:0|0:0,0:0:0:0:
371,165,29045,2,0,L|363:120,1,45.4999979171754,0|0,0:0|0:0,0:0:0:0:
333,46,29208,6,0,B|352:36|380:36|380:36|360:136,1,132.999996448517,2|0,0:3|0:0,0:0:0:0:
192,200,29451,6,0,B|209:208|234:208|234:208|216:119,1,119.000002269745,2|0,0:3|0:0,0:0:0:0:
136,48,29694,6,0,B|120:40|98:40|98:40|114:120,1,105.000004005432,2|2,0:3|0:0,0:0:0:0:
28,240,29937,6,0,B|41:246|61:246|61:246|47:174,1,90.9999958343508,2|0,0:3|0:0,0:0:0:0:
20,332,30181,6,0,L|88:348,1,45.4999979171754,10|0,0:0|0:0,0:0:0:0:
176,324,30343,2,0,L|223:273,1,45.4999979171754,8|0,0:0|0:0,0:0:0:0:
308,232,30505,5,2,0:0:0:0:
308,232,30586,1,0,0:0:0:0:
308,232,30667,2,0,B|240:240|240:240|224:252|224:252|208:244|208:244|120:256,1,175,0|10,0:0|0:0,0:0:0:0:
260,148,30910,6,0,B|279:123|276:92|276:92|273:86|273:86|280:80|280:80|284:64|284:64|290:59|290:59|288:52|288:52|278:26|308:-28,2,175
264,316,31316,6,0,B|288:356|288:356|340:376|340:376|416:368|440:308,1,175,0|10,0:0|0:0,0:0:0:0:
484,308,31559,1,0,0:0:0:0:
500,224,31640,1,0,0:0:0:0:
472,140,31721,6,0,B|472:104|448:80|448:80|464:48|464:16|464:16|440:0|440:0|376:24,1,175
197,60,31964,6,0,B|224:50|245:58|245:58|253:63|253:63|260:57|260:57|321:70|368:34,2,175,0|10|0,0:0|0:0|0:0,0:0:0:0:
34,109,32370,6,0,B|116:72|116:72|128:116|168:136,1,175
116,274,32613,6,0,B|139:249|139:249|128:222|128:222|149:202|149:202|182:94,1,161.000003070831,0|10,0:0|0:0,0:0:0:0:
223,261,32856,6,0,B|215:222|215:222|195:219|195:219|195:197|195:197|154:100,1,146.999995513916
196,344,33099,6,0,B|260:352|292:304|292:304|356:340,1,161.000003070831,2|0,0:3|0:0,0:0:0:0:
407,85,33343,6,0,B|379:135|379:135|384:147|384:147|372:153|372:153|324:243,1,175,2|0,0:3|0:0,0:0:0:0:
136,137,33586,6,0,B|206:115|206:115|207:103|207:103|220:106|220:106|323:75,1,189.000000720978,2|2,0:3|0:0,0:0:0:0:
512,300,33829,6,0,B|456:277|456:277|449:267|449:267|437:271|437:271|396:257|396:257|384:260|384:260|373:251|373:251|311:227,1,203.000006195069,2|0,0:3|0:0,0:0:0:0:
273,0,34072,6,0,B|311:90,1,87.5,8|0,0:0|0:0,0:0:0:0:
113,222,34235,2,0,B|141:123,1,87.5,0|0,0:0|0:0,0:0:0:0:
36,73,34397,6,0,B|44:93|68:97|68:97|78:133|62:152|62:152|117:186|117:256,1,189.000000720978,2|0,0:3|0:0,0:0:0:0:
404,104,34640,6,0,B|386:120|390:146|390:146|357:170|332:162|332:162|318:231|246:260,1,203.000006195069,2|0,0:3|0:0,0:0:0:0:
512,340,34883,6,0,B|484:332|484:332|468:360|468:360|432:344|400:340|400:340|361:368|289:338,1,217.000001655579,2|2,0:3|0:0,0:0:0:0:
318,348,35126,5,0,0:0:0:0:
318,348,35208,1,0,0:0:0:0:
318,348,35289,1,0,0:0:0:0:
318,348,35370,2,0,L|296:272,7,54.2500004138947,10|0|0|0|0|0|0|0,0:0|0:0|0:0|0:0|0:0|0:0|0:0|0:0,0:0:0:0:
224,312,35694,5,2,0:0:0:0:
224,312,35775,1,0,0:0:0:0:
224,312,35856,2,0,P|236:252|276:228,1,87.5
459,252,36018,6,0,B|444:248|444:248|438:260|438:260|367:233|291:309,1,175,10|0,0:0|0:0,0:0:0:0:
412,176,36262,6,0,B|397:122|397:122|401:109|401:109|389:102|389:102|361:6,1,175
288,104,36505,6,0,B|240:132|240:132|92:92,1,175,0|10,0:0|0:0,0:0:0:0:
52,132,36748,1,0,0:0:0:0:
116,180,36829,1,0,0:0:0:0:
136,256,36910,6,0,B|120:312|84:348|84:348|160:364,1,175
384,340,37153,6,0,B|324:328|324:328|300:304|300:304|272:320|272:320|188:304,2,175,0|10|0,0:0|0:0|0:0,0:0:0:0:
384,340,37559,6,0,B|408:272|408:272|404:255|404:255|416:248|416:248|448:152,1,175
232,204,37802,6,0,B|290:176|290:176|294:159|294:159|310:165|310:165|392:125,1,161.000003070831,0|10,0:0|0:0,0:0:0:0:
256,16,38045,6,0,B|310:35|310:35|323:28|323:28|330:41|330:41|407:67,1,146.999995513916
256,16,38289,6,0,B|253:42|253:42|234:58|234:58|228:76|228:76|172:76|188:36,1,132.999996448517,2|0,0:3|0:0,0:0:0:0:
176,292,38532,6,0,B|170:269|170:269|196:236|196:236|176:196|124:204,1,119.000002269745,2|0,0:3|0:0,0:0:0:0:
32,12,38775,6,0,B|48:48|48:48|60:59|60:59|88:118,1,105.000004005432,2|2,0:3|0:0,0:0:0:0:
0,239,39018,6,0,B|33:222|33:222|51:229|51:229|100:202,1,90.9999958343508,2|2,0:3|0:0,0:0:0:0:
81,213,39262,6,0,L|67:291,1,45.4999979171754,10|0,0:0|0:0,0:0:0:0:
84,352,39424,2,0,L|143:403,1,45.4999979171754,0|0,0:0|0:0,0:0:0:0:
296,316,39586,6,0,B|256:308|256:308|252:296|252:296|240:304|240:304|156:288,1,132.999996448517,2|0,0:3|0:0,0:0:0:0:
388,248,39829,6,0,B|352:240|352:240|348:230|348:230|337:237|337:237|262:222,1,119.000002269745,2|0,0:3|0:0,0:0:0:0:
480,180,40072,6,0,B|447:173|447:173|444:163|444:163|434:170|434:170|366:157,1,105.000004005432,2|2,0:3|0:0,0:0:0:0:
368,0,40316,6,0,B|362:29|362:29|353:32|353:32|360:41|360:41|348:102,1,90.9999958343508,2|0,0:3|0:0,0:0:0:0:
261,168,40559,6,0,L|266:123,1,45.4999979171754,10|0,0:0|0:0,0:0:0:0:
224,40,40721,2,0,L|187:14,1,45.4999979171754,8|0,0:0|0:0,0:0:0:0:
100,32,40883,5,2,0:0:0:0:
100,32,40964,1,0,0:0:0:0:
100,32,41045,6,0,B|104:64|120:84|120:84|120:108|100:132|100:132|140:172|100:248,1,175,0|8,0:0|0:0,0:0:0:0:
152,276,41289,2,0,B|97:298|49:254|49:254|1:298,2,175
274,174,41694,6,0,B|254:179|229:174|229:174|199:208|199:208|165:188|111:193,1,175,0|10,0:0|0:0,0:0:0:0:
117,192,41937,5,0,0:0:0:0:
117,192,42018,1,0,0:0:0:0:
117,192,42099,2,0,B|144:104|144:104|92:20,1,175
296,84,42343,2,0,B|340:68|340:68|380:108|380:108|436:84|480:116,2,175,0|10|0,0:0|0:0|0:0,0:0:0:0:
493,327,42748,6,0,B|466:272|466:272|473:263|473:263|463:263|463:263|413:165,1,175
303,319,42991,6,0,B|248:324|248:324|238:319|238:319|229:326|229:326|124:335,1,175,0|10,0:0|0:0,0:0:0:0:
133,335,43235,5,0,0:0:0:0:
133,335,43316,1,0,0:0:0:0:
133,335,43397,1,0,0:0:0:0:
133,335,43478,2,0,L|200:244,1,87.5,2|0,0:0|0:0,0:0:0:0:
44,92,43640,2,0,B|48:124|64:144|64:144|64:168|44:192|44:192|84:232|44:308,1,175,0|10,0:0|0:0,0:0:0:0:
176,128,43883,6,0,B|204:112|217:90|217:90|239:82|269:92|269:92|292:40|377:50,2,175
352,136,44289,2,0,B|350:150|350:150|326:166|326:166|314:258|410:262,1,175,0|10,0:0|0:0,0:0:0:0:
393,260,44532,5,0,0:0:0:0:
393,260,44613,1,0,0:0:0:0:
393,260,44694,2,0,B|306:238|306:238|186:294,1,175
72,288,44937,2,0,B|87:277|87:277|100:276|100:276|108:268|108:268|118:268|118:268|132:256|132:256|144:192|228:180,2,175,0|10|0,0:0|0:0|0:0,0:0:0:0:
397,308,45343,6,0,B|379:296|350:296|350:296|343:299|343:299|338:293|338:293|292:301|213:266,1,175
32,211,45586,6,0,B|61:214|79:204|79:204|85:208|85:208|91:203|91:203|132:186|205:187,1,175,0|10,0:0|0:0,0:0:0:0:
269,177,45829,1,0,0:0:0:0:
338,169,45910,1,8,0:0:0:0:
407,160,45991,1,0,0:0:0:0:
476,151,46072,5,6,0:0:0:0:
480,156,46153,1,0,0:0:0:0:
484,160,46235,2,0,B|464:120|464:120|476:88|476:88|456:60|456:60|484:-8|428:-32,1,175,0|10,0:0|0:0,0:0:0:0:
340,60,46478,2,0,B|264:76|264:76|152:36,2,175
276,329,46883,6,0,B|296:281|296:281|294:273|294:273|300:268|300:268|340:164,1,175,0|10,0:0|0:0,0:0:0:0:
338,169,47126,5,0,0:0:0:0:
338,169,47208,1,0,0:0:0:0:
337,169,47289,6,0,B|298:177|283:214|283:214|243:272|188:261,1,175,0|0,0:0|0:0,0:0:0:0:
222,0,47532,6,0,B|195:29|204:68|204:68|206:138|155:162,1,175,2|8,0:0|0:0,0:0:0:0:
164,156,47775,5,0,0:0:0:0:
164,156,47856,1,0,0:0:0:0:
164,156,47937,2,0,B|140:84|140:84|132:84|132:84|136:76|136:76|112:-4,1,175
300,164,48181,6,0,B|322:98|322:98|331:98|331:98|325:91|325:91|347:19,1,161.000003070831,0|10,0:0|0:0,0:0:0:0:
374,262,48424,6,0,B|439:239|439:239|440:231|440:231|446:236|446:236|518:214,1,146.999995513916
505,217,48667,6,0,B|499:239|508:260|508:260|483:280|483:280|499:310|486:338,1,132.999996448517,2|0,0:3|0:0,0:0:0:0:
370,192,48910,6,0,B|351:199|332:193|332:193|316:217|316:217|288:206|266:219,1,119.000002269745,2|0,0:3|0:0,0:0:0:0:
149,65,49153,6,0,B|149:82|161:96|161:96|147:118|147:118|167:137|164:162,1,105.000004005432,2|0,0:3|0:0,0:0:0:0:
0,70,49397,6,0,B|11:81|28:82|28:82|32:105|32:105|57:104|71:122,1,90.9999958343508,2|0,0:3|0:0,0:0:0:0:
24,244,49640,6,0,L|44:180,1,45.4999979171754,10|0,0:0|0:0,0:0:0:0:
136,267,49802,2,0,L|200:287,1,45.4999979171754,0|0,0:0|0:0,0:0:0:0:
162,156,49964,6,0,B|156:187|184:211|184:211|168:243|180:281,1,132.999996448517,2|0,0:3|0:0,0:0:0:0:
356,240,50208,6,0,B|340:263|307:260|307:260|297:291|266:306,1,119.000002269745,2|0,0:3|0:0,0:0:0:0:
432,364,50451,6,0,B|407:358|387:381|387:381|362:368|331:378,1,105.000004005432,2|2,0:3|0:0,0:0:0:0:
496,288,50694,6,0,B|483:269|489:245|489:245|464:232|463:208,1,90.9999958343508,2|0,0:3|0:0,0:0:0:0:
480,68,50937,6,0,L|468:112,1,45.4999979171754,10|0,0:0|0:0,0:0:0:0:
364,160,51099,2,0,L|352:116,1,45.4999979171754,8|0,0:0|0:0,0:0:0:0:
328,40,51262,5,2,0:0:0:0:
328,40,51343,1,0,0:0:0:0:
328,40,51424,2,0,B|304:44|276:32|276:32|236:56|236:56|200:32|152:48,1,175,0|10,0:0|0:0,0:0:0:0:
216,272,51667,6,0,B|220:232|204:200|204:200|218:184|218:184|174:156|194:104,2,175
128,240,52072,6,0,B|113:265|60:262|60:262|62:288|62:288|29:299|3:330,1,175,0|10,0:0|0:0,0:0:0:0:
3,330,52316,5,0,0:0:0:0:
3,330,52397,1,0,0:0:0:0:
3,330,52478,2,0,B|32:256|32:256|33:245|33:245|40:240|40:240|72:152,1,175
72,56,52721,6,0,B|116:12|116:12|140:168,2,175,0|10|0,0:0|0:0|0:0,0:0:0:0:
206,100,53126,6,0,B|255:107|255:107|262:116|262:116|270:108|270:108|394:128,1,175
261,0,53370,6,0,B|290:35|290:35|289:48|289:48|306:50|306:50|386:141,1,175,0|10,0:0|0:0,0:0:0:0:
416,192,53613,5,0,0:0:0:0:
460,260,53694,1,0,0:0:0:0:
508,320,53775,1,0,0:0:0:0:
444,368,53856,6,0,L|336:360,1,87.5,2|0,0:0|0:0,0:0:0:0:
269,182,54018,2,0,B|293:190|293:190|313:174|331:163|331:163|334:210|437:189,1,175,0|10,0:0|0:0,0:0:0:0:
220,256,54262,6,0,B|188:236|180:200|180:200|144:316,2,175
307,34,54667,6,0,B|303:47|303:47|312:51|312:51|350:131|258:190,1,175,0|10,0:0|0:0,0:0:0:0:
220,116,54910,5,0,0:0:0:0:
220,116,54991,1,0,0:0:0:0:
220,116,55072,2,0,B|260:104|276:112|276:112|296:136|320:144|320:144|344:136|384:136|384:136|444:184,1,175,0|0,0:0|0:0,0:0:0:0:
472,280,55316,6,0,B|480:232|480:232|448:192|448:192|472:140|444:84,2,175,0|8|4,0:0|0:0|0:2,0:0:0:0:
368,336,55721,6,0,B|292:352|292:352|168:328,1,175,0|0,0:0|0:0,0:0:0:0:
112,300,55964,1,0,0:0:0:0:
280,52,56126,5,8,0:0:0:0:
292,64,56451,5,4,0:0:0:0:
292,64,56613,1,0,0:0:0:0:
292,64,56775,1,8,0:0:0:0:
292,64,56937,6,0,L|284:136,1,52.5000020027161
400,256,57099,2,0,L|341:213,1,52.5000020027161,0|0,0:0|0:0,0:0:0:0:
131,274,57262,1,8,0:0:0:0:
240,244,57424,1,0,0:0:0:0:
240,244,57748,5,0,0:0:0:0:
240,244,57910,1,0,0:0:0:0:
240,244,58072,1,8,0:0:0:0:
240,244,58235,6,0,L|232:172,1,52.5000020027161
348,52,58397,2,0,L|289:95,1,52.5000020027161
174,76,58559,1,0,0:0:0:0:
44,256,58721,6,0,L|8:248,1,26.2500010013581,8|2,1:0|2:0,0:0:0:0:
56,272,58802,6,0,L|20:272,1,26.2500010013581,2|2,2:2|2:0,0:0:0:0:
72,284,58883,6,0,L|36:292,1,26.2500010013581,2|2,2:2|2:0,0:0:0:0:
92,296,58964,6,0,L|59:311,1,26.2500010013581,2|2,2:2|2:0,0:0:0:0:
80,264,59045,6,0,L|104:152,1,105.000004005432,4|0,0:0|0:0,0:0:0:0:
316,212,59370,5,8,0:0:0:0:
240,244,59451,1,0,0:0:0:0:
272,320,59532,1,4,0:0:0:0:
348,288,59613,6,0,L|484:300,1,105.000004005432
404,132,59856,2,0,L|428:200,1,52.5000020027161,8|0,0:0|0:0,0:0:0:0:
484,72,60018,6,0,B|448:12|372:12|328:68,1,157.500006008148,12|0,0:0|0:0,0:0:0:0:
301,108,60343,6,0,L|317:216,1,105.000004005432
272,320,60667,2,0,L|268:368,7,26.2500010013581,8|0|0|0|0|0|0|0,0:0|0:0|0:0|0:0|0:0|0:0|0:0|0:0,0:0:0:0:
240,244,60991,6,0,L|180:228,1,52.5000020027161
24,352,61153,2,0,L|41:234,1,105.000004005432,0|8,0:0|0:0,0:0:0:0:
20,8,61478,1,8,0:0:0:0:
328,188,61640,5,0,0:0:0:0:
108,112,61802,1,8,0:0:0:0:
256,20,61964,2,0,P|312:8|376:40,1,105.000004005432,8|0,0:0|0:0,0:0:0:0:
380,40,62208,1,8,0:0:0:0:
396,64,62289,1,0,0:0:0:0:
328,188,62451,1,0,0:0:0:0:
148,180,62613,6,0,L|116:32,1,105.000004005432,8|0,0:0|0:0,0:0:0:0:
256,20,62937,5,0,0:0:0:0:
267,39,63099,1,0,0:0:0:0:
280,56,63262,1,8,0:0:0:0:
416,104,63424,6,0,L|392:160,1,52.5000020027161,8|0,0:0|0:0,0:0:0:0:
336,248,63586,2,0,L|308:196,1,52.5000020027161
256,96,63748,2,0,L|209:132,1,52.5000020027161
76,208,63910,6,0,P|76:144|128:112,1,105.000004005432,8|0,0:0|0:0,0:0:0:0:
88,228,64235,5,4,0:0:0:0:
168,296,64397,1,0,0:0:0:0:
184,292,64478,1,0,0:0:0:0:
200,292,64559,1,8,0:0:0:0:
296,336,64721,1,4,0:0:0:0:
296,336,64802,1,0,0:0:0:0:
296,336,64883,1,8,0:0:0:0:
296,336,64964,1,0,0:0:0:0:
296,336,65045,6,0,L|416:344,1,105.000004005432,0|12,0:0|0:0,0:0:0:0:
472,328,65289,1,0,0:0:0:0:
424,276,65370,1,0,0:0:0:0:
416,204,65451,1,8,0:0:0:0:
416,204,65532,5,4,0:3:0:0:
464,24,65694,1,0,0:0:0:0:
332,224,65856,1,8,0:0:0:0:
238,62,66018,1,0,0:0:0:0:
286,297,66181,6,0,L|248:316,1,26.2500010013581
268,272,66262,6,0,L|241:304,1,26.2500010013581
240,256,66343,6,0,L|228:296,1,26.2500010013581
208,244,66424,6,0,L|214:286,1,26.2500010013581
176,248,66505,6,0,L|232:360,1,105.000004005432
200,368,66748,5,0,0:0:0:0:
168,368,66829,1,4,0:0:0:0:
156,172,66991,1,0,0:0:0:0:
300,46,67153,1,8,0:0:0:0:
400,180,67316,5,4,0:0:0:0:
368,200,67397,1,0,0:0:0:0:
457,338,67559,1,0,0:0:0:0:
420,344,67640,1,0,0:0:0:0:
240,368,67802,2,0,L|260:260,1,105.000004005432,12|0,0:0|3:0,0:0:0:0:
248,196,68045,1,0,3:0:0:0:
288,140,68126,6,0,P|224:132|180:184,1,105.000004005432
176,220,68370,1,0,0:0:0:0:
192,288,68451,2,0,P|160:343|92:349,1,105.000004005432,8|0,0:0|0:0,0:0:0:0:
56,340,68694,2,0,P|24:284|53:222,1,105.000004005432,0|0,0:0|0:0,0:0:0:0:
96,224,68937,2,0,P|64:184|4:184,1,105.000004005432,0|8,0:0|0:0,0:0:0:0:
148,20,69262,1,0,0:0:0:0:
148,20,69343,1,0,0:0:0:0:
148,20,69424,6,0,L|120:144,1,105.000004005432,4|0,0:0|0:0,0:0:0:0:
356,148,69748,1,8,0:0:0:0:
208,72,69910,2,0,L|264:132,1,52.5000020027161
332,232,70072,6,0,L|314:281,1,52.5000020027161,8|0,0:0|0:0,0:0:0:0:
456,344,70235,1,0,0:0:0:0:
448,348,70316,1,0,0:0:0:0:
440,352,70397,1,12,0:0:0:0:
265,300,70559,6,0,L|349:268,1,52.5000020027161,8|0,0:0|0:0,0:0:0:0:
448,228,70721,5,4,0:0:0:0:
224,152,70883,1,0,0:0:0:0:
80,344,71045,1,8,0:0:0:0:
88,336,71126,1,0,0:0:0:0:
92,324,71208,1,4,0:0:0:0:
92,312,71289,1,0,0:0:0:0:
88,300,71370,1,0,0:0:0:0:
80,288,71451,6,0,L|64:264,2,26.2500010013581
164,76,71694,6,0,L|188:92,2,26.2500010013581,12|0|0,0:0|0:0|0:0,0:0:0:0:
68,56,71856,6,0,L|73:27,2,26.2500010013581,8|0|0,0:0|0:0|0:0,0:0:0:0:
0,112,72018,6,0,P|68:146|106:130,1,105.000004005432,4|0,0:0|0:0,0:0:0:0:
232,16,72343,1,8,0:0:0:0:
236,24,72424,1,0,0:0:0:0:
280,180,72586,1,0,0:0:0:0:
288,188,72667,1,4,0:0:0:0:
432,256,72829,1,0,0:0:0:0:
444,252,72910,1,0,0:0:0:0:
456,244,72991,1,8,0:0:0:0:
352,88,73153,1,0,0:0:0:0:
264,288,73316,5,0,0:0:0:0:
264,288,73478,1,0,0:0:0:0:
264,288,73640,1,8,0:0:0:0:
264,288,73802,2,0,L|184:296,1,52.5000020027161
124,128,73964,2,0,L|116:208,1,52.5000020027161,4|0,0:0|0:0,0:0:0:0:
240,216,74126,6,0,L|160:224,1,52.5000020027161,0|0,0:0|0:0,0:0:0:0:
48,92,74289,2,0,L|40:212,1,105.000004005432,8|0,0:0|0:0,0:0:0:0:
44,80,74613,5,0,0:0:0:0:
192,12,74775,1,0,0:0:0:0:
352,60,74937,1,8,0:0:0:0:
388,224,75099,5,0,0:0:0:0:
376,252,75181,1,0,0:0:0:0:
512,208,75343,1,0,0:0:0:0:
500,236,75424,1,0,0:0:0:0:
284,144,75586,5,8,0:0:0:0:
312,156,75667,1,0,0:0:0:0:
340,168,75748,1,0,0:0:0:0:
148,213,75910,5,8,0:0:0:0:
176,225,75991,1,0,0:0:0:0:
204,236,76072,1,0,0:0:0:0:
56,176,76235,5,8,0:0:0:0:
84,188,76316,1,0,0:0:0:0:
112,199,76397,1,0,0:0:0:0:
20,92,76559,5,0,0:0:0:0:
32,120,76640,1,0,0:0:0:0:
43,148,76721,1,0,0:0:0:0:
56,176,76802,1,0,0:0:0:0:
68,204,76883,6,0,L|56:276,1,52.5000020027161,8|0,0:0|0:0,0:0:0:0:
240,108,77045,2,0,L|228:180,1,52.5000020027161,8|0,0:0|0:0,0:0:0:0:
412,12,77208,6,0,L|388:156,1,105.000004005432,4|0,0:0|0:0,0:0:0:0:
452,316,77532,1,8,0:0:0:0:
328,176,77694,1,0,0:0:0:0:
336,200,77775,1,0,0:0:0:0:
225,252,77937,1,0,0:0:0:0:
248,264,78018,1,0,0:0:0:0:
196,376,78181,1,8,0:0:0:0:
196,376,78505,5,0,0:0:0:0:
316,8,78667,1,0,0:0:0:0:
280,12,78748,1,0,0:0:0:0:
244,16,78829,1,8,0:0:0:0:
100,172,78991,1,0,0:0:0:0:
112,148,79072,1,0,0:0:0:0:
244,152,79235,1,0,0:0:0:0:
256,128,79316,1,0,0:0:0:0:
24,196,79478,2,0,P|92:252|132:240,1,105.000004005432,8|0,0:0|0:0,0:0:0:0:
268,108,79802,5,4,0:0:0:0:
44,336,79964,1,0,0:0:0:0:
259,234,80126,2,0,L|83:254,1,157.500006008148,8|0,0:0|0:0,0:0:0:0:
100,64,80451,2,0,L|68:4,1,52.5000020027161
236,108,80613,2,0,L|296:76,1,52.5000020027161
260,236,80775,2,0,L|316:341,1,105.000004005432,8|8,0:0|0:0,0:0:0:0:
332,352,81018,5,0,0:0:0:0:
344,320,81099,1,4,0:0:0:0:
448,104,81262,1,0,0:0:0:0:
64,280,81424,2,0,L|200:320,1,105.000004005432,0|4,0:0|0:0,0:0:0:0:
232,372,81667,1,0,0:0:0:0:
172,160,81829,6,0,L|184:128,2,26.2500010013581
156,32,82072,6,0,L|140:-4,1,26.2500010013581,12|0,0:0|0:0,0:0:0:0:
188,32,82153,6,0,L|179:-6,1,26.2500010013581
220,40,82235,6,0,L|220:0,1,26.2500010013581
248,56,82316,6,0,L|256:17,1,26.2500010013581
276,76,82397,5,4,0:0:0:0:
346,361,82559,1,0,0:0:0:0:
64,280,82721,2,0,L|40:160,1,105.000004005432,8|0,0:0|0:0,0:0:0:0:
24,152,82964,1,0,0:0:0:0:
12,124,83045,1,0,0:0:0:0:
16,92,83126,1,0,0:0:0:0:
28,64,83208,1,8,0:0:0:0:
332,152,83370,5,0,0:0:0:0:
332,152,83451,2,0,B|284:140|284:140|212:192,1,105.000004005432,0|0,0:0|2:0,0:0:0:0:
64,280,83694,5,0,0:0:0:0:
460,336,83856,1,0,0:0:0:0:
64,280,84018,1,8,0:0:0:0:
256,304,84181,5,0,0:0:0:0:
264,284,84262,1,0,0:0:0:0:
272,264,84343,2,0,P|272:220|236:172,1,105.000004005432
144,352,84667,6,0,L|212:364,1,52.5000020027161,8|0,0:0|0:0,0:0:0:0:
316,361,84829,2,0,L|368:352,1,52.5000020027161,8|0,0:0|0:0,0:0:0:0:
460,336,84991,5,4,0:0:0:0:
256,304,85153,1,0,0:0:0:0:
64,280,85316,1,8,0:0:0:0:
76,260,85397,1,0,0:0:0:0:
84,240,85478,1,4,0:0:0:0:
84,216,85559,1,0,0:0:0:0:
40,72,85721,5,0,0:0:0:0:
56,84,85802,1,8,0:0:0:0:
76,92,85883,1,8,0:0:0:0:
96,96,85964,1,4,0:0:0:0:
412,288,86289,5,0,0:0:0:0:
96,96,86451,1,0,0:0:0:0:
256,336,86613,6,0,L|264:296,9,26.2500010013581,0|0|0|0|4|0|0|0|0|0,0:0|0:0|0:0|0:0|0:3|0:0|0:0|0:0|0:0|0:2,0:0:0:0:
328,152,87099,1,0,0:0:0:0:
216,32,87262,1,8,0:0:0:0:
256,336,87586,5,4,0:0:0:0:
256,336,87829,6,0,P|184:368|156:352,1,105
212,252,88153,2,0,P|196:196|216:164,2,70
312,260,88559,6,0,L|376:264,1,35
432,216,88721,2,0,L|496:220,1,35
512,132,88883,5,0,0:0:0:0:
512,132,88964,2,0,P|500:68|496:48,1,70
384,104,89208,2,0,P|372:40|368:20,1,70
256,76,89451,2,0,P|244:12|240:-8,2,70
220,176,89856,6,0,P|204:200|188:212,1,35
112,244,90018,2,0,P|83:242|64:234,1,35,0|0,0:0|0:0,0:0:0:0:
8,152,90181,5,0,0:0:0:0:
8,152,90262,2,0,P|56:128|88:136,1,70
164,324,90505,2,0,P|204:356|232:360,1,70
328,260,90748,2,0,P|372:224|400:220,2,70
408,312,91153,6,0,L|464:320,1,35
472,184,91316,2,0,L|528:192,1,35,0|0,0:0|0:0,0:0:0:0:
340,80,91478,5,0,0:0:0:0:
332,72,91559,2,0,L|296:160,1,70
180,128,91802,2,0,L|144:216,1,70
28,184,92045,2,0,L|-8:272,2,70
140,368,92451,6,0,P|188:348|196:352,1,35
256,324,92613,2,0,P|297:355|297:364,1,35,0|0,0:0|0:0,0:0:0:0:
464,272,92775,5,0,0:0:0:0:
464,272,92856,2,0,L|368:288,1,70
472,160,93099,6,0,L|376:176,1,70,0|0,0:0|0:0,0:0:0:0:
480,48,93343,6,0,L|384:64,1,70,0|0,0:0|0:0,0:0:0:0:
300,76,93586,6,0,L|334:70,1,35
292,188,93748,6,0,L|326:182,1,35
284,300,93910,6,0,L|318:294,1,35
160,144,94072,6,0,L|194:138,1,35
152,256,94235,6,0,L|186:250,1,35
0,216,94397,6,0,L|68:204,1,70
160,144,94640,6,0,L|148:76,1,70
320,296,94883,6,0,L|308:228,1,70
472,160,95126,6,0,L|460:92,1,70
288,168,95370,6,0,L|345:129,1,70
292,188,95613,6,0,L|360:176,1,70
287,209,95856,6,0,L|349:240,1,70
270,225,96099,6,0,L|303:285,1,70
248,227,96343,6,0,L|243:261,1,35
224,352,96505,2,0,L|200:376,1,35,0|0,0:0|0:0,0:0:0:0:
100,376,96667,6,0,L|4:380,1,70
104,364,96910,6,0,L|23:310,1,70
114,356,97153,6,0,L|80:265,1,70
124,355,97397,6,0,L|149:262,1,70
132,361,97640,6,0,L|176:328,1,35,0|0,0:0|0:0,0:0:0:0:
240,292,97802,2,0,L|294:291,1,35,0|0,0:0|0:0,0:0:0:0:
367,299,97964,5,0,0:0:0:0:
367,299,98045,1,0,0:0:0:0:
367,299,98126,2,0,L|392:240,1,35
412,192,98289,2,0,L|437:133,1,35
457,85,98451,1,0,0:0:0:0:
460,88,98532,6,0,L|372:96,1,70
280,48,98775,6,0,L|328:44,1,35
252,132,98937,2,0,L|288:163,1,35,0|0,0:0|0:0,0:0:0:0:
172,171,99099,2,0,L|175:219,1,35,0|0,0:0|0:0,0:0:0:0:
87,143,99262,6,0,L|55:179,1,35,0|0,0:0|0:0,0:0:0:0:
32,256,99424,2,0,L|35:304,1,35,0|0,0:0|0:0,0:0:0:0:
80,368,99586,2,0,L|164:384,1,70
264,296,99829,6,0,L|195:282,1,70
311,198,100072,6,0,L|380:212,1,70
496,128,100316,6,0,L|427:114,1,70
416,46,100559,6,0,L|432:138,1,70
404,36,100802,6,0,L|420:128,1,70
392,28,101045,6,0,L|408:120,1,70
380,20,101289,6,0,L|396:112,1,70
432,184,101532,6,0,L|440:230,1,35
460,344,101694,2,0,L|454:309,1,35,0|0,0:0|0:0,0:0:0:0:
352,328,101856,6,0,L|268:324,1,70
328,232,102099,6,0,L|244:228,1,70
304,136,102343,6,0,L|220:132,1,70
280,40,102586,6,0,L|196:36,1,70
112,128,102829,6,0,L|120:84,1,35
92,232,102991,2,0,L|100:276,1,35,0|0,0:0|0:0,0:0:0:0:
164,344,103153,5,0,0:0:0:0:
180,356,103235,1,0,0:0:0:0:
200,360,103316,1,0,0:0:0:0:
220,356,103397,1,0,0:0:0:0:
236,344,103478,1,0,0:0:0:0:
244,324,103559,1,0,0:0:0:0:
244,304,103640,1,0,0:0:0:0:
236,284,103721,1,0,0:0:0:0:
224,268,103802,5,0,0:0:0:0:
216,248,103883,1,0,0:0:0:0:
216,228,103964,1,0,0:0:0:0:
220,208,104045,1,0,0:0:0:0:
232,192,104126,1,0,0:0:0:0:
252,184,104208,1,0,0:0:0:0:
272,184,104289,1,0,0:0:0:0:
292,188,104370,1,0,0:0:0:0:
308,200,104451,5,0,0:0:0:0:
316,220,104532,1,0,0:0:0:0:
328,236,104613,1,0,0:0:0:0:
348,248,104694,1,0,0:0:0:0:
368,252,104775,1,0,0:0:0:0:
388,248,104856,1,0,0:0:0:0:
408,240,104937,1,0,0:0:0:0:
424,228,105018,1,0,0:0:0:0:
436,212,105099,5,0,0:0:0:0:
440,192,105181,1,0,0:0:0:0:
436,172,105262,1,0,0:0:0:0:
428,152,105343,1,0,0:0:0:0:
412,136,105424,1,0,0:0:0:0:
396,124,105505,1,0,0:0:0:0:
376,116,105586,6,0,L|320:112,1,35
256,40,105748,5,0,0:0:0:0:
244,72,105829,1,0,0:0:0:0:
232,104,105910,1,0,0:0:0:0:
220,136,105991,1,0,0:0:0:0:
204,168,106072,5,0,0:0:0:0:
172,184,106153,1,0,0:0:0:0:
136,180,106235,1,0,0:0:0:0:
104,164,106316,1,0,0:0:0:0:
88,132,106397,5,0,0:0:0:0:
56,144,106478,1,0,0:0:0:0:
36,172,106559,1,0,0:0:0:0:
32,208,106640,1,0,0:0:0:0:
44,240,106721,5,0,0:0:0:0:
68,264,106802,1,0,0:0:0:0:
104,272,106883,1,0,0:0:0:0:
140,268,106964,1,0,0:0:0:0:
176,264,107045,5,0,0:0:0:0:
208,276,107126,1,0,0:0:0:0:
240,288,107208,1,0,0:0:0:0:
272,300,107289,1,0,0:0:0:0:
304,312,107370,5,0,0:0:0:0:
336,296,107451,1,0,0:0:0:0:
352,264,107532,1,0,0:0:0:0:
356,228,107613,1,0,0:0:0:0:
344,196,107694,5,0,0:0:0:0:
356,164,107775,1,0,0:0:0:0:
368,132,107856,1,0,0:0:0:0:
380,100,107937,1,0,0:0:0:0:
364,68,108018,5,0,0:0:0:0:
384,40,108099,1,0,0:0:0:0:
420,32,108181,1,0,0:0:0:0:
456,32,108262,1,0,0:0:0:0:
508,100,108343,5,0,0:0:0:0:
508,100,108424,1,0,0:0:0:0:
508,100,108505,1,0,0:0:0:0:
508,100,108586,1,0,0:0:0:0:
508,100,108667,2,0,L|500:224,1,105.000004005432,8|0,0:0|0:0,0:0:0:0:
480,280,108910,1,0,0:0:0:0:
436,344,108991,2,0,P|352:352|312:312,1,105.000004005432,0|8,0:0|0:0,0:0:0:0:
272,196,109316,1,0,0:0:0:0:
288,192,109397,1,0,0:0:0:0:
300,184,109478,1,0,0:0:0:0:
312,172,109559,1,0,0:0:0:0:
324,160,109640,6,0,P|332:145|324:61,1,105.000004005432,0|0,0:0|0:0,0:0:0:0:
256,20,109883,1,0,0:0:0:0:
180,32,109964,2,0,L|56:60,1,105.000004005432
28,120,110208,2,0,L|0:232,1,105.000004005432
112,300,110451,2,0,L|136:352,2,52.5000020027161
80,228,110694,2,0,L|100:152,1,52.5000020027161,8|0,0:0|0:0,0:0:0:0:
136,112,110856,1,0,0:0:0:0:
208,84,110937,6,0,L|280:68,1,52.5000020027161
336,76,111099,2,0,L|412:96,1,52.5000020027161
448,140,111262,1,8,0:0:0:0:
456,156,111343,1,0,0:0:0:0:
464,172,111424,1,4,0:0:0:0:
380,332,111586,1,8,0:0:0:0:
388,312,111667,1,0,0:0:0:0:
396,292,111748,1,0,0:0:0:0:
404,272,111829,1,0,0:0:0:0:
412,252,111910,6,0,L|336:272,1,52.5000020027161,4|0,0:0|0:0,0:0:0:0:
280,304,112072,2,0,L|204:324,1,52.5000020027161,0|0,0:0|0:0,0:0:0:0:
160,348,112235,6,0,P|160:284|200:252,1,105.000004005432,4|0,0:0|0:0,0:0:0:0:
264,232,112478,2,0,P|232:192|152:192,1,105.000004005432
92,216,112721,6,0,L|68:248,1,26.2500010013581
80,192,112802,6,0,L|40:197,1,26.2500010013581
72,160,112883,5,0,0:0:0:0:
172,40,113045,1,0,0:0:0:0:
328,16,113208,1,8,0:0:0:0:
476,72,113370,1,8,0:0:0:0:
508,224,113532,5,0,0:0:0:0:
500,304,113613,1,0,0:0:0:0:
448,364,113694,2,0,L|344:376,1,105.000004005432
352,296,113937,2,0,L|248:308,1,105.000004005432
256,228,114181,2,0,L|152:240,1,105.000004005432
80,208,114424,1,0,0:0:0:0:
92,236,114505,1,0,0:0:0:0:
104,264,114586,1,0,0:0:0:0:
116,292,114667,6,0,L|108:360,2,52.5000020027161
256,228,114910,2,0,L|263:176,2,52.5000020027161
332,248,115153,6,0,P|296:296|244:304,1,105.000004005432
163,252,115397,6,0,P|139:196|158:147,1,105.000004005432
244,104,115640,6,0,P|303:111|336:152,1,105.000004005432
156,56,115883,2,0,L|88:60,2,52.5000020027161
244,104,116126,6,0,P|251:45|292:12,1,105.000004005432
364,8,116370,1,0,0:0:0:0:
416,68,116451,2,0,P|409:127|368:160,1,105.000004005432,4|0,0:0|0:0,0:0:0:0:
300,164,116694,1,0,0:0:0:0:
232,208,116775,6,0,L|219:156,1,52.5000020027161
92,284,116937,2,0,L|79:335,1,52.5000020027161,4|0,0:0|0:0,0:0:0:0:
236,384,117099,5,0,0:0:0:0:
280,368,117181,1,0,0:0:0:0:
316,336,117262,1,0,0:0:0:0:
332,292,117343,1,0,0:0:0:0:
403,208,117424,6,0,L|375:124,1,52.5000020027161,4|0,0:0|0:0,0:0:0:0:
344,36,117586,2,0,L|316:120,1,52.5000020027161
208,104,117748,2,0,L|135:52,1,52.5000020027161,4|4,0:0|0:2,0:0:0:0:
24,56,117910,2,0,L|63:135,1,52.5000020027161
56,364,118072,6,0,L|104:340,1,35,0|0,0:0|0:0,0:0:0:0:
48,352,118153,6,0,L|89:318,1,35
36,344,118235,6,0,L|70:302,1,35
24,336,118316,6,0,L|48:288,1,35
12,328,118397,5,0,0:0:0:0:
92,28,118721,5,2,0:0:0:0:
92,28,118802,1,4,0:0:0:0:
92,28,118883,2,0,L|112:140,1,87.5
252,180,119045,6,0,B|180:152|180:152|132:224|60:176,1,175,14|0,0:0|0:0,0:0:0:0:
58,361,119289,6,0,B|72:303|72:303|79:297|79:297|77:289|77:289|101:189,1,175
241,91,119532,6,0,B|267:99|297:75|297:75|241:211,1,175,0|4,0:0|0:0,0:0:0:0:
253,179,119775,1,0,0:0:0:0:
253,179,119856,1,0,0:0:0:0:
253,179,119937,6,0,B|313:153|313:153|371:203|428:158,1,175
332,328,120181,6,0,B|392:316|392:316|405:305|405:305|424:312|424:312|516:292,2,175,0|14|0,0:0|0:0|0:0,0:0:0:0:
196,240,120586,6,0,B|160:188|184:136|184:136|172:120|172:120|192:100|192:100|176:84|192:52,1,175
47,47,120829,6,0,B|111:27|111:27|203:99,1,161.000003070831,0|4,0:0|0:0,0:0:0:0:
322,276,121072,6,0,B|264:293|264:293|181:229,1,146.999995513916
140,188,121316,6,0,P|200:164|232:180,1,66.4999982242585,4|0,0:0|0:0,0:0:0:0:
281,192,121478,2,0,P|326:227|327:259,1,66.4999982242585,0|2,0:0|0:3,0:0:0:0:
344,316,121640,2,0,P|335:372|308:390,1,59.5000011348725,10|0,0:0|0:0,0:0:0:0:
148,348,121802,2,0,L|219:344,1,52.5000020027161,2|0,0:3|0:0,0:0:0:0:
256,280,121964,1,2,0:0:0:0:
256,280,122126,5,0,0:0:0:0:
256,280,122208,1,0,0:0:0:0:
256,280,122289,2,0,L|284:184,1,90.9999958343508,10|0,0:0|0:0,0:0:0:0:
280,156,122532,1,0,0:0:0:0:
260,124,122613,6,0,L|188:116,2,66.4999982242585,2|0|0,0:3|0:0|0:0,0:0:0:0:
360,136,122856,6,0,L|424:128,2,59.5000011348725,2|10|0,0:3|0:0|0:0,0:0:0:0:
304,232,123099,6,0,L|239:224,2,52.5000020027161,2|0|2,0:3|0:0|0:0,0:0:0:0:
404,264,123343,6,0,L|424:304,2,26.2500010013581,2|0|0,0:3|0:0|0:0,0:0:0:0:
212,344,123586,6,0,L|232:384,1,26.2500010013581,10|0,0:0|0:0,0:0:0:0:
212,344,123667,2,0,L|116:360,1,52.5000020027161
72,344,123829,1,0,0:0:0:0:
72,344,123910,5,6,0:0:0:0:
72,344,123991,1,0,0:0:0:0:
72,344,124072,2,0,B|76:288|36:256|36:256|88:200,1,167.999994873047,0|8,0:0|0:0,0:0:0:0:
28,54,124316,6,0,B|97:127|97:127|38:124|6:169,2,167.999994873047
178,59,124721,6,0,B|239:80|239:80|254:79|254:79|264:89|264:89|358:122,1,167.999994873047,0|8,0:0|0:0,0:0:0:0:
333,114,124964,1,0,0:0:0:0:
333,114,125045,1,0,0:0:0:0:
333,114,125126,6,0,L|208:284,1,167.999994873047
300,312,125370,2,0,P|380:344|480:312,2,167.999994873047,0|10|0,0:0|0:0|0:0,0:0:0:0:
356,160,125775,6,0,P|336:184|428:184,1,167.999994873047,4|0,0:0|0:0,0:0:0:0:
458,328,126018,6,0,P|502:272|474:160,1,154.000004699707,0|10,0:0|0:0,0:0:0:0:
412,84,126262,6,0,P|341:73|258:154,1,154.000004699707,4|0,0:0|0:0,0:0:0:0:
228,200,126505,6,0,L|152:364,1,161.000003070831,4|0,0:0|0:0,0:0:0:0:
92,248,126748,6,0,B|56:212|68:152|68:152|-16:184,1,175,2|0,0:3|0:0,0:0:0:0:
28,60,126991,6,0,B|108:76|108:76|204:12,1,189.000000720978,2|2,0:3|0:0,0:0:0:0:
296,48,127235,6,0,B|220:104|220:104|268:256,1,203.000006195069,2|0,0:3|0:0,0:0:0:0:
348,344,127478,6,0,P|360:308|332:244,1,87.5,10|0,0:0|0:0,0:0:0:0:
232,132,127640,2,0,P|196:120|132:148,1,87.5,0|0,0:0|0:0,0:0:0:0:
92,248,127802,5,2,0:0:0:0:
104,280,127883,1,0,0:0:0:0:
116,312,127964,1,0,0:0:0:0:
312,172,128126,5,10,0:0:0:0:
324,140,128208,1,0,0:0:0:0:
336,108,128289,2,0,L|364:208,1,80.5000015354157
464,304,128451,6,0,L|508:328,15,40.2500007677078,10|0|0|0|0|0|0|0|0|0|0|0|0|0|0|0,0:0|0:0|0:0|0:0|0:0|0:0|0:0|0:0|0:0|0:0|0:0|0:0|0:0|0:0|0:0|0:0,0:0:0:0:
448,324,129099,6,0,P|408:352|356:344,1,87.5,6|0,0:0|0:0,0:0:0:0:
332,114,129262,6,0,B|349:163|349:163|356:165|356:165|353:171|353:171|401:315,1,175,0|14,0:0|0:0,0:0:0:0:
260,224,129505,6,0,B|208:200|208:200|88:272,2,175
272,56,129910,6,0,B|324:16|380:48|380:48|464:12,1,175,4|14,0:3|0:0,0:0:0:0:
449,44,130153,1,0,0:0:0:0:
449,44,130235,1,0,0:0:0:0:
449,44,130316,6,0,B|424:136|424:136|356:148|332:128,1,175
196,168,130559,6,0,B|164:220|188:268|188:268|228:364,2,175,0|10|0,0:0|0:0|0:0,0:0:0:0:
308,288,130964,6,0,P|376:320|460:292,1,161.000003070831
480,176,131208,6,0,B|456:72|456:72|380:112,1,146.999995513916,0|10,0:0|0:0,0:0:0:0:
319,155,131451,6,0,B|239:187|239:187|155:147,1,132.999996448517
112,44,131694,6,0,L|64:204,1,132.999996448517,2|0,0:3|0:0,0:0:0:0:
360,224,131937,6,0,L|219:287,1,119.000002269745,2|0,0:3|0:0,0:0:0:0:
301,13,132181,6,0,L|262:68,1,52.5000020027161,2|0,0:3|0:0,0:0:0:0:
228,124,132343,2,0,L|189:179,1,52.5000020027161,2|0,0:0|0:0,0:0:0:0:
380,328,132505,6,0,L|416:392,2,45.4999979171754,0|0|10,0:3|0:0|0:0,0:0:0:0:
380,328,132829,1,8,0:0:0:0:
380,328,132910,1,0,0:0:0:0:
380,328,132991,6,0,B|407:278|407:278|409:268|409:268|418:265|418:265|468:176,1,146.999995513916,2|0,0:3|0:0,0:0:0:0:
264,176,133235,6,0,B|314:162|314:162|323:156|323:156|334:157|334:157|416:135,1,132.999996448517,2|0,0:3|0:0,0:0:0:0:
300,4,133478,6,0,B|342:26|342:26|351:26|351:26|354:33|354:33|422:75,1,119.000002269745,2|2,0:3|0:0,0:0:0:0:
180,72,133721,6,0,L|144:124,2,43.75
0,244,133964,6,0,P|0:216|20:180,2,43.75
76,360,134126,6,0,L|21:390,2,43.75
80,284,134289,5,2,0:0:0:0:
96,272,134370,1,0,0:0:0:0:
116,260,134451,2,0,B|168:236|212:252|212:252|280:364,1,175,0|10,0:0|0:0,0:0:0:0:
292,184,134694,6,0,B|320:72|320:72|392:136,2,175
180,160,135099,2,0,B|119:155|95:98|95:98|57:199,1,175,0|10,0:0|0:0,0:0:0:0:
72,157,135343,1,0,0:0:0:0:
72,157,135424,1,0,0:0:0:0:
72,157,135505,6,0,L|116:364,1,175
328,356,135748,2,0,L|291:184,2,175,0|10|0,0:0|0:0|0:0,0:0:0:0:
380,156,136153,6,0,P|448:136|500:256,1,175
444,300,136397,1,0,0:0:0:0:
408,368,136478,1,0,0:0:0:0:
328,356,136559,1,10,0:0:0:0:
316,280,136640,1,0,0:0:0:0:
384,240,136721,2,0,L|408:336,1,87.5
256,216,136883,5,2,0:0:0:0:
256,216,136964,1,0,0:0:0:0:
256,216,137045,2,0,B|200:192|200:192|112:244|56:188,1,175,0|10,0:0|0:0,0:0:0:0:
64,24,137289,6,0,B|36:4|8:28|8:28|16:88|28:152,2,175,4|0|0,0:0|0:0|0:0,0:0:0:0:
195,161,137694,6,0,B|235:109|235:109|263:249,1,175,2|8,0:0|0:0,0:0:0:0:
219,298,137937,1,0,0:0:0:0:
219,298,138018,1,0,0:0:0:0:
220,298,138099,6,0,B|278:289|278:289|289:283|289:283|302:286|302:286|408:270,1,175
420,7,138343,6,0,B|431:41|412:67|412:67|417:85|417:85|380:127|392:195,1,175,0|10,0:0|0:0,0:0:0:0:
432,232,138586,1,0,0:0:0:0:
432,232,138667,6,0,L|473:187,7,43.75
388,172,138991,6,4,P|288:104|224:132,1,175,0|8,0:0|0:0,0:2:0:0:
248,120,139478,5,2,0:0:0:0:
276,208,139559,1,0,0:0:0:0:
232,292,139640,2,0,P|132:312|80:264,1,175,0|10,0:0|0:0,0:0:0:0:
264,372,139883,6,0,B|296:356|312:328|312:328|444:356,2,175
360,236,140289,6,0,B|340:160|340:160|348:124|348:124|324:32,1,175,0|10,0:0|0:0,0:0:0:0:
308,36,140532,1,0,0:0:0:0:
308,36,140613,1,0,0:0:0:0:
308,36,140694,6,0,P|288:96|380:160,1,175
504,88,140937,6,0,B|460:32|404:44|404:44|340:112,2,175,0|10|0,0:0|0:0|0:0,0:0:0:0:
436,128,141343,6,0,B|448:184|448:184|444:204|444:204|448:240|468:264|468:264|444:312,1,175
452,136,141586,6,0,B|462:186|462:186|459:204|459:204|462:236|480:258|480:258|459:301,1,161.000003070831,0|10,0:0|0:0,0:0:0:0:
468,144,141829,6,0,B|476:188|476:188|474:205|474:205|476:233|493:253|493:253|474:292,1,146.999995513916
351,304,142072,6,0,B|369:300|369:300|377:293|377:293|387:296|387:296|487:280,1,132.999996448517,2|0,0:3|0:0,0:0:0:0:
285,235,142316,6,0,B|293:225|293:225|295:214|295:214|306:212|306:212|371:145,1,119.000002269745,2|0,0:3|0:0,0:0:0:0:
185,308,142559,6,0,P|213:308|253:280,1,52.5000020027161,2|8,0:3|0:0,0:0:0:0:
364,152,142721,2,0,P|372:125|358:78,1,52.5000020027161,8|0,0:0|0:0,0:0:0:0:
244,40,142883,6,0,L|252:104,1,45.4999979171754
176,8,143045,1,10,0:0:0:0:
180,188,143208,1,8,0:0:0:0:
16,112,143370,6,0,P|88:96|144:140,1,132.999996448517,2|0,0:3|0:0,0:0:0:0:
180,188,143613,6,0,P|115:202|64:162,1,119.000002269745,2|0,0:3|0:0,0:0:0:0:
59,66,143856,6,0,P|118:91|135:152,1,105.000004005432,2|0,0:3|0:0,0:0:0:0:
248,156,144099,6,0,P|254:214|215:254,1,90.9999958343508,2|0,0:3|0:0,0:0:0:0:
120,232,144343,6,0,L|72:244,7,35,10|0|0|0|0|0|0|0,0:0|0:0|0:0|0:0|0:0|0:0|0:0|0:0,0:0:0:0:
104,264,144667,5,2,0:0:0:0:
104,264,144748,1,0,0:0:0:0:
104,264,144829,2,0,P|96:328|200:368,1,175,0|10,0:0|0:0,0:0:0:0:
312,304,145072,6,0,B|256:252|256:252|224:292|168:300,2,175
400,360,145478,6,0,B|468:380|500:336|500:336|460:204,1,175,0|10,0:0|0:0,0:0:0:0:
436,204,145721,1,0,0:0:0:0:
440,116,145802,1,0,0:0:0:0:
400,36,145883,6,0,B|344:12|296:32|296:32|212:8,1,175
92,49,146126,6,0,B|116:63|136:61|136:61|140:69|140:69|275:113,2,175,0|10|0,0:0|0:0|0:0,0:0:0:0:
88,146,146532,6,0,B|132:187|132:187|140:245|132:275,1,87.5,0|2,0:0|0:0,0:0:0:0:
64,260,146694,1,0,0:0:0:0:
64,260,146775,2,0,P|128:292|220:236,1,175,0|8,0:0|0:0,0:0:0:0:
213,247,147018,1,0,0:0:0:0:
213,247,147099,1,0,0:0:0:0:
213,247,147181,1,0,0:0:0:0:
213,247,147262,6,0,L|248:348,1,87.5,2|0,0:0|0:0,0:0:0:0:
404,340,147424,2,0,B|336:316|336:316|288:364|232:324,1,175,0|10,0:0|0:0,0:0:0:0:
140,200,147667,6,0,P|216:164|304:240,2,175,0|4|0,0:0|0:0|0:0,0:0:0:0:
168,96,148072,6,0,B|228:80|280:104|280:104|244:48,1,175,0|6,0:0|0:0,0:0:0:0:
247,53,148316,1,0,0:0:0:0:
247,53,148397,1,0,0:0:0:0:
247,53,148478,6,0,B|242:81|257:101|257:101|253:113|253:113|260:120|260:120|284:165|272:240,1,175,0|4,0:0|0:0,0:0:0:0:
512,255,148721,6,0,B|490:237|453:254|453:254|443:240|443:240|406:251|354:195,1,175,0|2,0:0|0:0,0:0:0:0:
316,272,148964,1,0,0:0:0:0:
272,340,149045,2,0,L|292:400,3,43.75
240,272,149208,6,0,P|200:305|200:362,1,87.5,8|0,0:0|0:0,0:0:0:0:
200,124,149370,2,0,P|251:138|297:107,1,87.5
112,52,149532,6,0,B|168:28|168:28|128:92|128:92|112:124|128:164|128:164|96:216|92:248|92:248|56:244|24:276|24:276|8:228,1,420.000016021729,8|4,0:0|1:0,0:0:0:0:
