osu file format v14

[General]
AudioFilename: Renard-TU4AR(188.138.9.30).mp3
AudioLeadIn: 0
PreviewTime: 102186
Countdown: 0
SampleSet: None
StackLeniency: 0.7
Mode: 3
LetterboxInBreaks: 0
SpecialStyle: 0
WidescreenStoryboard: 1

[Editor]
DistanceSpacing: 0.8
BeatDivisor: 4
GridSize: 8
TimelineZoom: 2.1

[Metadata]
Title:TU4AR
TitleUnicode:TU4AR
Artist:Renard
ArtistUnicode:Renard
Creator:aitor98
Version:NM
Source:
Tags:
BeatmapID:419869
BeatmapSetID:172364

[Difficulty]
HPDrainRate:6
CircleSize:4
OverallDifficulty:6
ApproachRate:5
SliderMultiplier:1.4
SliderTickRate:1

[Events]
//Background and Video events
0,0,"Renard-Wallpaper-lapfox-30504537-900-563.jpg",0,0
//Break Periods
//Storyboard Layer 0 (Background)
//Storyboard Layer 1 (Fail)
//Storyboard Layer 2 (Pass)
//Storyboard Layer 3 (Foreground)
//Storyboard Sound Samples

[TimingPoints]
1186,250,4,3,1,40,1,0
102186,-100,4,3,0,50,0,1
134186,-100,4,3,0,50,0,0

[HitObjects]
448,192,1186,128,0,1561:0:0:0:66:
192,192,1561,128,0,1936:0:0:0:66:
64,192,1936,1,0,0:0:0:66:
64,192,2186,1,4,0:0:0:33:
320,192,2186,1,4,0:0:0:33:
192,192,2686,1,0,0:0:0:66:
64,192,3186,1,4,0:0:0:33:
448,192,3186,1,4,0:0:0:33:
192,192,3436,1,0,0:0:0:66:
320,192,3686,1,0,0:0:0:66:
64,192,3936,1,0,0:0:0:66:
448,192,4186,1,4,0:0:0:33:
192,192,4186,1,4,0:0:0:33:
320,192,4686,1,0,0:0:0:66:
64,192,5186,1,4,0:0:0:33:
448,192,5186,1,4,0:0:0:33:
64,192,5436,1,0,0:0:0:66:
320,192,5686,1,0,0:0:0:66:
192,192,5936,1,0,0:0:0:66:
64,192,6186,1,4,0:0:0:33:
320,192,6186,1,4,0:0:0:33:
448,192,6686,1,0,0:0:0:66:
448,192,7186,1,4,0:0:0:33:
64,192,7186,1,4,0:0:0:33:
320,192,7436,1,0,0:0:0:66:
192,192,7686,1,0,0:0:0:66:
448,192,7936,1,0,0:0:0:33:
192,192,8186,1,4,0:0:0:33:
64,192,8186,1,4,0:0:0:33:
448,192,8436,1,0,0:0:0:66:
64,192,8686,1,0,0:0:0:66:
64,192,9186,128,4,9686:0:0:0:33:
448,192,9186,1,4,0:0:0:33:
320,192,9686,1,0,0:0:0:66:
64,192,10186,1,4,0:0:0:33:
448,192,10186,1,4,0:0:0:33:
448,192,10686,1,0,0:0:0:66:
64,192,11186,1,4,0:0:0:33:
448,192,11186,1,4,0:0:0:33:
192,192,11436,1,0,0:0:0:66:
320,192,11686,1,0,0:0:0:66:
448,192,11936,1,0,0:0:0:66:
64,192,12186,1,4,0:0:0:33:
448,192,12186,1,4,0:0:0:33:
192,192,12686,1,0,0:0:0:66:
192,192,13186,1,4,0:0:0:33:
64,192,13186,1,4,0:0:0:33:
448,192,13436,1,0,0:0:0:66:
64,192,13686,1,0,0:0:0:66:
320,192,13936,1,0,0:0:0:66:
192,192,14186,1,4,0:0:0:33:
64,192,14186,1,4,0:0:0:33:
448,192,14686,1,0,0:0:0:66:
448,192,15186,1,4,0:0:0:33:
320,192,15186,1,4,0:0:0:33:
64,192,15436,1,0,0:0:0:66:
320,192,15686,1,0,0:0:0:66:
64,192,15936,1,0,0:0:0:66:
192,192,16186,1,4,0:0:0:33:
448,192,16186,1,4,0:0:0:33:
320,192,16436,128,0,16686:0:0:0:66:
64,192,16686,1,0,0:0:0:66:
64,192,17186,128,4,18186:0:0:0:33:
448,192,17186,1,4,0:0:0:33:
320,192,17686,1,0,0:0:0:66:
448,192,18186,1,4,0:0:0:33:
320,192,18186,1,4,0:0:0:33:
448,192,18686,1,4,0:0:0:66:
320,192,19186,1,4,0:0:0:66:
448,192,19686,1,4,0:0:0:66:
192,192,20186,1,4,0:0:0:66:
64,192,20686,1,4,0:0:0:66:
192,192,21186,1,4,0:0:0:66:
64,192,21686,1,4,0:0:0:66:
192,192,22186,1,4,0:0:0:66:
320,192,22686,1,4,0:0:0:66:
192,192,23186,1,4,0:0:0:66:
192,192,23686,1,4,0:0:0:66:
320,192,24186,1,4,0:0:0:66:
320,192,24686,1,4,0:0:0:66:
448,192,25186,1,4,0:0:0:66:
448,192,25686,1,4,0:0:0:66:
64,192,25936,1,0,0:0:0:66:
448,192,26186,1,4,0:0:0:33:
320,192,26186,1,4,0:0:0:33:
64,192,26686,1,0,0:0:0:66:
448,192,26936,1,0,0:0:0:66:
192,192,27186,1,4,0:0:0:33:
320,192,27186,1,4,0:0:0:33:
192,192,27686,1,0,0:0:0:66:
448,192,27936,1,0,0:0:0:66:
192,192,28186,1,4,0:0:0:33:
320,192,28186,1,4,0:0:0:33:
448,192,28686,1,0,0:0:0:66:
64,192,28936,1,0,0:0:0:66:
192,192,29186,1,4,0:0:0:33:
448,192,29186,1,4,0:0:0:33:
192,192,29686,1,0,0:0:0:66:
320,192,29936,1,0,0:0:0:66:
192,192,30186,1,4,0:0:0:33:
448,192,30186,1,4,0:0:0:33:
448,192,30686,1,0,0:0:0:66:
320,192,30936,1,0,0:0:0:66:
64,192,31186,1,4,0:0:0:33:
192,192,31186,1,4,0:0:0:33:
64,192,31686,1,0,0:0:0:66:
448,192,31936,1,0,0:0:0:66:
64,192,32186,1,4,0:0:0:33:
192,192,32186,1,4,0:0:0:33:
192,192,32686,1,0,0:0:0:66:
448,192,32936,1,0,0:0:0:66:
64,192,33186,128,4,33686:0:0:0:33:
192,192,33186,1,4,0:0:0:33:
448,192,33686,1,0,0:0:0:66:
448,192,34186,1,4,0:0:0:33:
192,192,34186,1,4,0:0:0:33:
448,192,34686,1,0,0:0:0:66:
320,192,35186,1,4,0:0:0:33:
192,192,35186,1,4,0:0:0:33:
64,192,35436,1,0,0:0:0:66:
448,192,35686,1,0,0:0:0:66:
64,192,35936,1,0,0:0:0:66:
192,192,36186,1,4,0:0:0:33:
448,192,36186,1,4,0:0:0:33:
64,192,36686,1,0,0:0:0:66:
320,192,37186,1,4,0:0:0:33:
192,192,37186,1,4,0:0:0:33:
64,192,37436,1,0,0:0:0:66:
448,192,37686,1,0,0:0:0:66:
192,192,37936,1,0,0:0:0:66:
64,192,38186,1,4,0:0:0:33:
448,192,38186,1,4,0:0:0:33:
64,192,38561,1,0,0:0:0:66:
448,192,38686,1,0,0:0:0:66:
448,192,39186,1,4,0:0:0:33:
320,192,39186,1,4,0:0:0:33:
64,192,39436,1,0,0:0:0:66:
64,192,39686,1,0,0:0:0:66:
320,192,39936,1,0,0:0:0:66:
64,192,40186,1,4,0:0:0:33:
448,192,40186,1,4,0:0:0:33:
320,192,40686,1,0,0:0:0:66:
192,192,41186,1,4,0:0:0:33:
64,192,41186,1,4,0:0:0:33:
320,192,41436,1,0,0:0:0:66:
320,192,41686,1,0,0:0:0:66:
64,192,41936,1,0,0:0:0:66:
448,192,42186,1,4,0:0:0:33:
192,192,42186,1,4,0:0:0:33:
448,192,42561,1,0,0:0:0:66:
64,192,42686,1,0,0:0:0:66:
192,192,43186,1,4,0:0:0:33:
64,192,43186,1,4,0:0:0:33:
448,192,43436,1,0,0:0:0:66:
64,192,43686,1,0,0:0:0:66:
192,192,43936,1,0,0:0:0:66:
320,192,44186,1,4,0:0:0:33:
448,192,44186,1,4,0:0:0:33:
64,192,44686,1,0,0:0:0:66:
448,192,45186,1,4,0:0:0:33:
64,192,45186,1,4,0:0:0:33:
192,192,45436,1,0,0:0:0:66:
448,192,45686,1,0,0:0:0:66:
192,192,45936,1,0,0:0:0:66:
448,192,46186,1,4,0:0:0:33:
320,192,46186,1,4,0:0:0:33:
64,192,46686,1,0,0:0:0:66:
64,192,47186,1,4,0:0:0:33:
448,192,47186,1,4,0:0:0:33:
320,192,47436,1,0,0:0:0:66:
448,192,47686,1,0,0:0:0:66:
192,192,47936,1,0,0:0:0:66:
320,192,48186,1,4,0:0:0:33:
448,192,48186,1,4,0:0:0:33:
320,192,48686,1,0,0:0:0:66:
448,192,48936,1,0,0:0:0:66:
64,192,49186,128,4,50186:0:0:0:33:
192,192,49186,1,4,0:0:0:33:
448,192,50186,1,4,2:0:0:33:
320,192,50186,1,4,2:0:0:33:
192,192,50686,1,0,0:0:0:66:
64,192,51186,1,0,0:0:0:66:
448,192,51436,1,0,0:0:0:66:
64,192,51686,1,0,0:0:0:66:
192,192,51936,1,0,0:0:0:66:
320,192,52186,1,0,0:0:0:33:
448,192,52186,1,0,0:0:0:33:
64,192,52686,1,0,0:0:0:66:
64,192,53186,1,0,0:0:0:66:
320,192,53436,1,0,0:0:0:66:
448,192,53686,1,0,0:0:0:66:
192,192,53936,1,0,0:0:0:66:
448,192,54186,1,0,0:0:0:33:
320,192,54186,1,0,0:0:0:33:
192,192,54686,1,0,0:0:0:66:
320,192,55186,1,0,0:0:0:66:
192,192,55436,1,0,0:0:0:66:
448,192,55686,1,0,0:0:0:66:
192,192,55936,1,0,0:0:0:66:
320,192,56186,1,0,0:0:0:33:
64,192,56186,1,0,0:0:0:33:
192,192,56686,1,0,0:0:0:66:
64,192,57186,1,0,0:0:0:66:
448,192,57436,1,0,0:0:0:66:
64,192,57686,1,0,0:0:0:66:
320,192,57936,1,0,0:0:0:66:
192,192,58186,1,0,0:0:0:33:
64,192,58186,1,0,0:0:0:33:
448,192,58686,1,0,0:0:0:66:
320,192,59186,1,0,0:0:0:66:
320,192,59436,1,0,0:0:0:66:
448,192,59686,1,0,0:0:0:66:
64,192,59936,1,0,0:0:0:66:
192,192,60186,1,0,0:0:0:33:
320,192,60186,1,0,0:0:0:33:
192,192,60686,1,0,0:0:0:66:
192,192,61186,1,0,0:0:0:66:
192,192,61436,1,0,0:0:0:66:
320,192,61686,1,0,0:0:0:66:
64,192,61936,1,0,0:0:0:66:
320,192,62186,1,0,0:0:0:33:
448,192,62186,1,0,0:0:0:33:
192,192,62686,1,0,0:0:0:66:
64,192,63186,1,0,0:0:0:66:
192,192,63436,1,0,0:0:0:66:
320,192,63686,1,0,0:0:0:66:
448,192,63936,1,0,0:0:0:66:
192,192,64186,1,0,0:0:0:33:
320,192,64186,1,0,0:0:0:33:
192,192,64686,1,0,0:0:0:66:
64,192,65186,1,0,0:0:0:66:
192,192,65436,1,0,0:0:0:66:
448,192,65686,1,0,0:0:0:66:
320,192,65936,1,0,0:0:0:66:
448,192,66436,1,0,0:0:0:66:
320,192,66686,1,0,0:0:0:66:
64,192,66936,1,0,0:0:0:66:
192,192,67186,1,0,0:0:0:66:
448,192,67436,1,0,0:0:0:66:
192,192,67686,1,0,0:0:0:33:
448,192,68436,128,0,68936:0:0:0:66:
64,192,68686,128,0,68936:0:0:0:66:
192,192,69186,1,0,0:0:0:33:
448,192,69186,128,0,70186:0:0:0:33:
192,192,69686,1,0,0:0:0:66:
64,192,70186,128,4,70936:0:0:0:33:
320,192,70186,1,4,0:0:0:33:
192,192,70936,128,0,71686:0:0:0:66:
448,192,72186,1,4,0:0:0:33:
64,192,72186,1,4,0:0:0:33:
320,192,72436,1,0,0:0:0:66:
192,192,72686,1,0,0:0:0:66:
64,192,72936,1,0,0:0:0:66:
448,192,73061,1,0,0:0:0:66:
192,192,73186,1,4,0:0:0:66:
320,192,73436,1,0,0:0:0:66:
448,192,73686,1,0,0:0:0:66:
192,192,73936,128,0,74436:0:0:0:66:
320,192,74436,128,0,74686:0:0:0:66:
448,192,74686,128,0,74936:0:0:0:66:
64,192,74936,128,0,75436:0:0:0:66:
448,192,75436,128,0,75686:0:0:0:66:
192,192,75686,128,0,75936:0:0:0:66:
64,192,75936,128,0,76686:0:0:0:66:
64,192,77186,1,4,0:0:0:33:
320,192,77186,1,4,0:0:0:33:
64,192,77561,1,4,0:0:0:33:
320,192,77561,1,4,0:0:0:33:
448,192,78186,128,4,78436:0:0:0:66:
320,192,78186,1,4,0:0:0:0:
64,192,78436,128,0,78936:0:0:0:0:
192,192,78936,128,0,79686:0:0:0:66:
320,192,80186,1,4,0:0:0:33:
64,192,80186,1,4,0:0:0:33:
192,192,80561,1,0,0:0:0:66:
320,192,80561,1,0,0:0:0:0:
192,192,81186,1,4,0:0:0:33:
448,192,81186,1,4,0:0:0:33:
320,192,81561,1,0,0:0:0:66:
64,192,81686,1,0,0:0:0:66:
192,192,81811,1,0,0:0:0:66:
320,192,81936,1,0,0:0:0:66:
64,192,82061,1,0,0:0:0:66:
448,192,82186,128,4,82436:0:0:0:33:
192,192,82186,1,4,0:0:0:33:
320,192,82436,128,0,82686:0:0:0:66:
192,192,82686,128,0,82936:0:0:0:66:
448,192,82936,128,0,83436:0:0:0:66:
320,192,83436,128,0,83686:0:0:0:66:
192,192,83686,128,0,83936:0:0:0:66:
64,192,83936,128,0,84436:0:0:0:66:
64,192,85186,1,4,0:0:0:33:
320,192,85186,1,4,0:0:0:33:
64,192,85561,1,4,0:0:0:33:
320,192,85561,1,4,0:0:0:33:
64,192,86186,1,4,0:0:0:33:
448,192,86186,1,4,0:0:0:33:
320,192,86686,1,0,0:0:0:66:
320,192,87186,1,4,0:0:0:33:
448,192,87186,1,4,0:0:0:33:
64,192,87436,1,0,0:0:0:66:
320,192,87686,1,0,0:0:0:66:
64,192,87936,1,0,0:0:0:66:
192,192,88186,1,4,0:0:0:33:
448,192,88186,1,4,0:0:0:33:
64,192,88686,1,0,0:0:0:66:
64,192,89186,1,4,0:0:0:33:
448,192,89186,1,4,0:0:0:33:
192,192,89436,1,0,0:0:0:66:
320,192,89686,1,0,0:0:0:66:
448,192,89936,1,0,0:0:0:66:
192,192,90186,1,4,0:0:0:33:
64,192,90186,128,4,90436:0:0:0:33:
448,192,90436,128,0,90686:0:0:0:66:
320,192,90686,128,0,90936:0:0:0:66:
192,192,90936,128,0,91436:0:0:0:66:
448,192,91436,128,0,91686:0:0:0:66:
192,192,91686,128,0,91936:0:0:0:66:
64,192,91936,128,0,92436:0:0:0:66:
448,192,92436,1,0,0:0:0:66:
64,192,93186,1,4,0:0:0:33:
448,192,93186,1,4,0:0:0:33:
192,192,93561,1,4,0:0:0:33:
320,192,93561,1,4,0:0:0:33:
448,192,94186,128,4,94936:0:0:0:33:
320,192,94186,1,4,0:0:0:33:
192,192,94936,128,0,96186:0:0:0:66:
448,192,96186,5,4,0:0:0:33:
64,192,96186,1,4,0:0:0:33:
448,192,96436,1,0,0:0:0:66:
320,192,96686,1,0,0:0:0:66:
192,192,96936,1,0,0:0:0:66:
64,192,97186,1,4,0:0:0:66:
448,192,97186,1,4,0:0:0:0:
192,192,97436,1,0,0:0:0:66:
320,192,97686,1,0,0:0:0:66:
448,192,97936,1,0,0:0:0:66:
320,192,98186,1,4,0:0:0:33:
64,192,98186,1,4,0:0:0:33:
320,192,98686,1,0,0:0:0:66:
448,192,99186,1,4,0:0:0:33:
64,192,99186,1,4,0:0:0:33:
320,192,99436,1,0,0:0:0:66:
448,192,99686,1,0,0:0:0:66:
64,192,99936,1,0,0:0:0:66:
192,192,100186,5,4,2:0:0:33:
448,192,100186,1,4,2:0:0:33:
64,192,101186,1,0,0:0:0:66:
192,192,101436,1,0,0:0:0:66:
448,192,101686,1,0,0:0:0:66:
320,192,101936,1,0,0:0:0:66:
64,192,102186,128,4,102686:0:0:0:33:
192,192,102186,1,4,0:0:0:33:
192,192,102686,1,4,0:0:0:66:
448,192,102936,128,4,103436:0:0:0:33:
320,192,102936,1,4,0:0:0:33:
64,192,103436,1,4,0:0:0:66:
192,192,103686,128,4,104436:0:0:0:66:
64,192,104436,128,4,104936:0:0:0:66:
320,192,104936,1,4,0:0:0:66:
448,192,105186,128,4,105936:0:0:0:33:
192,192,105186,1,4,0:0:0:33:
192,192,105936,1,4,0:0:0:66:
320,192,106186,128,4,106686:0:0:0:33:
64,192,106186,1,4,0:0:0:33:
192,192,106686,128,4,107436:0:0:0:66:
448,192,107436,128,4,108186:0:0:0:66:
192,192,108186,128,4,108936:0:0:0:66:
448,192,108936,1,4,0:0:0:66:
64,192,109186,1,4,0:0:0:33:
192,192,109186,128,4,110186:0:0:0:33:
448,192,110186,128,4,111186:0:0:0:66:
192,192,111186,1,4,0:0:0:66:
320,192,111436,128,4,111936:0:0:0:33:
64,192,111436,1,4,0:0:0:33:
64,192,111936,128,4,112186:0:0:0:66:
192,192,112186,128,4,112936:0:0:0:66:
320,192,112936,1,4,0:0:0:66:
192,192,113186,128,4,113936:0:0:0:33:
448,192,113186,1,4,0:0:0:33:
64,192,113936,128,4,114436:0:0:0:66:
192,192,114436,128,4,114936:0:0:0:66:
448,192,114936,128,4,115936:0:0:0:66:
192,192,115936,128,4,117186:0:0:0:66:
320,192,116936,1,4,0:0:0:66:
64,192,117186,1,4,0:0:0:66:
192,192,117436,1,4,0:0:0:66:
320,192,117686,1,4,0:0:0:66:
448,192,117936,1,4,0:0:0:66:
192,192,118186,1,4,0:0:0:33:
320,192,118186,1,4,0:0:0:33:
64,192,118436,1,4,0:0:0:66:
448,192,118686,1,4,0:0:0:33:
320,192,118686,1,4,0:0:0:33:
192,192,118936,1,4,0:0:0:66:
64,192,119186,1,4,0:0:0:33:
448,192,119186,1,4,0:0:0:33:
192,192,119436,1,4,0:0:0:66:
320,192,119686,1,4,0:0:0:33:
448,192,119686,1,4,0:0:0:33:
64,192,119936,1,4,0:0:0:66:
192,192,120186,1,4,0:0:0:33:
448,192,120186,1,4,0:0:0:33:
320,192,120436,1,4,0:0:0:66:
64,192,120686,1,4,0:0:0:33:
448,192,120686,1,4,0:0:0:33:
192,192,120936,1,4,0:0:0:66:
320,192,121186,1,4,0:0:0:33:
448,192,121186,1,4,0:0:0:33:
192,192,121436,1,4,0:0:0:66:
320,192,121686,1,4,0:0:0:33:
64,192,121686,1,4,0:0:0:33:
192,192,121936,1,4,0:0:0:66:
320,192,122186,1,4,0:0:0:33:
448,192,122186,1,4,0:0:0:33:
192,192,122436,1,4,0:0:0:66:
64,192,122686,1,4,0:0:0:33:
448,192,122686,1,4,0:0:0:33:
320,192,122936,1,4,0:0:0:66:
448,192,123186,1,4,0:0:0:33:
192,192,123186,1,4,0:0:0:33:
320,192,123436,1,4,0:0:0:66:
192,192,123686,1,4,0:0:0:33:
448,192,123686,1,4,0:0:0:33:
320,192,123936,1,4,0:0:0:66:
64,192,124186,1,4,0:0:0:33:
192,192,124186,1,4,0:0:0:33:
320,192,124436,1,4,0:0:0:66:
192,192,124686,1,4,0:0:0:33:
448,192,124686,1,4,0:0:0:33:
64,192,124936,1,4,0:0:0:66:
320,192,125186,1,4,0:0:0:33:
448,192,125186,1,4,0:0:0:33:
192,192,125436,1,4,0:0:0:66:
448,192,125686,1,4,0:0:0:33:
64,192,125686,1,4,0:0:0:33:
320,192,125936,1,4,0:0:0:66:
64,192,126186,1,4,0:0:0:33:
448,192,126186,1,4,0:0:0:33:
192,192,126436,1,4,0:0:0:66:
320,192,126686,1,4,0:0:0:33:
448,192,126686,1,4,0:0:0:33:
64,192,126936,1,4,0:0:0:66:
192,192,127186,1,4,0:0:0:33:
448,192,127186,1,4,0:0:0:33:
320,192,127436,1,4,0:0:0:66:
64,192,127686,1,4,0:0:0:33:
192,192,127686,1,4,0:0:0:33:
448,192,127936,1,4,0:0:0:66:
192,192,128186,1,4,0:0:0:33:
320,192,128186,1,4,0:0:0:33:
64,192,128436,1,4,0:0:0:66:
448,192,128686,1,4,0:0:0:33:
192,192,128686,1,4,0:0:0:33:
320,192,128936,1,4,0:0:0:66:
64,192,129186,1,4,0:0:0:33:
448,192,129186,1,4,0:0:0:33:
320,192,129436,1,4,0:0:0:66:
192,192,129686,1,4,0:0:0:33:
64,192,129686,1,4,0:0:0:33:
320,192,129936,1,4,0:0:0:66:
64,192,130186,128,4,130936:0:0:0:33:
192,192,130186,1,4,0:0:0:33:
320,192,130436,1,4,0:0:0:66:
448,192,130686,1,4,0:0:0:66:
448,192,130936,128,4,131686:0:0:0:66:
320,192,131186,1,4,0:0:0:66:
64,192,131436,1,4,0:0:0:66:
192,192,131686,128,4,132061:0:0:0:66:
448,192,131936,1,4,0:0:0:66:
64,192,132186,1,4,0:0:0:33:
320,192,132186,1,4,0:0:0:33:
192,192,132436,1,4,0:0:0:66:
448,192,132686,1,4,0:0:0:33:
64,192,132686,1,4,0:0:0:33:
320,192,132936,1,4,0:0:0:66:
192,192,133186,1,4,0:0:0:33:
448,192,133186,1,4,0:0:0:33:
320,192,133436,1,4,0:0:0:66:
448,192,133686,1,4,0:0:0:66:
64,192,133936,1,4,0:0:0:66:
320,192,134186,1,4,0:0:0:0:
448,192,134186,1,4,0:0:0:0:
