osu file format v12

[General]
AudioFilename: Renard-TU4AR(188.138.9.30).mp3
AudioLeadIn: 3000
PreviewTime: 102187
Countdown: 0
SampleSet: None
StackLeniency: 0.7
Mode: 0
LetterboxInBreaks: 0
WidescreenStoryboard: 0

[Editor]
DistanceSpacing: 1
BeatDivisor: 2
GridSize: 4

[Metadata]
Title:TU4AR
TitleUnicode:TU4AR
Artist:Renard
ArtistUnicode:Renard
Creator:P o M u T a
Version:Hard
Source:
Tags:BECAUSE MAYBE! lapfox Niva hibarirailwayz Trauma Nivalis pomuta
BeatmapID:334212
BeatmapSetID:82802

[Difficulty]
HPDrainRate:5
CircleSize:4
OverallDifficulty:5
ApproachRate:7
SliderMultiplier:0.999999999999999
SliderTickRate:1

[Events]
//Background and Video events
0,0,"new_Renard_Ref_by_squeedgemonster.jpg",0,0
//Break Periods
2,18387,25287
2,50187,57287
2,66262,68287
2,100387,101287
//Storyboard Layer 0 (Background)
//Storyboard Layer 1 (Fail)
//Storyboard Layer 2 (Pass)
//Storyboard Layer 3 (Foreground)
//Storyboard Sound Samples
//Background Colour Transformations
3,100,163,162,255

[TimingPoints]
1187,250,4,3,1,80,1,0
34187,-100,4,3,1,80,0,1
50187,-100,4,3,1,80,0,0
69187,-100,4,3,1,80,0,1
70187,-100,4,3,1,80,0,0
118187,-100,4,3,1,80,0,1
134187,-100,4,3,1,80,0,0

[Colours]
Combo1 : 255,128,64
Combo2 : 255,0,0
Combo3 : 128,64,64

[HitObjects]
184,100,1187,2,0,B|256:108|256:108|333:100,2,150,2|2|4,0:0|0:0|2:0,0:0:0:0:
96,52,2187,6,0,P|52:116|60:184,1,150,6|0,0:0|0:0,0:0:0:0:
188,264,2937,2,0,L|164:312,1,50,0|0,0:0|0:0,0:0:0:0:
148,356,3187,2,0,B|184:336|184:336|292:336,1,150,2|0,0:0|0:0,0:0:0:0:
444,300,3937,2,0,L|496:276,1,50,0|0,0:0|0:0,0:0:0:0:
464,236,4187,6,0,P|464:160|428:96,1,150,2|0,0:0|0:0,0:0:0:0:
292,32,4937,2,0,L|264:76,1,50,0|0,0:0|0:0,0:0:0:0:
232,112,5187,2,0,B|144:120|144:120|92:88,2,150,2|0|0,0:0|0:0|0:0,0:0:0:0:
292,32,6187,6,0,P|332:84|320:164,1,150,2|0,0:0|0:0,0:0:0:0:
216,272,6937,1,2,0:0:0:0:
166,280,7062,1,0,0:0:0:0:
116,289,7187,2,0,B|88:332|88:332|43:352,1,99.9999999999999,2|2,0:0|0:0,0:0:0:0:
7,258,7687,2,0,B|35:215|35:215|80:195,1,99.9999999999999,2|0,0:0|0:0,0:0:0:0:
179,183,8187,5,2,0:0:0:0:
179,183,8437,2,0,P|175:132|145:96,2,99.9999999999999,0|2|0,0:0|0:0|0:0,0:0:0:0:
166,280,9187,2,0,P|208:309|256:310,1,99.9999999999999,2|0,0:0|0:0,0:0:0:0:
303,295,9562,1,0,0:0:0:0:
349,276,9687,2,0,P|395:274|445:290,1,99.9999999999999,2|0,0:0|0:0,0:0:0:0:
501,207,10187,6,0,P|483:134|429:85,1,150,2|0,0:0|0:0,0:0:0:0:
289,29,10937,2,0,L|238:35,1,50,0|0,0:0|0:0,0:0:0:0:
190,24,11187,2,0,B|144:22|144:22|74:99,1,150,2|0,0:0|0:0,0:0:0:0:
31,243,11937,2,0,L|81:254,1,50,0|0,0:0|0:0,0:0:0:0:
128,239,12187,6,0,B|178:234|178:234|273:262,1,150,2|0,0:0|0:0,0:0:0:0:
418,222,12937,2,0,L|387:181,1,50,0|0,0:0|0:0,0:0:0:0:
402,134,13187,2,0,B|336:89|336:89|264:86,2,150,2|0|0,0:0|0:0|0:0,0:0:0:0:
490,181,14187,6,0,L|503:331,1,150,2|0,0:0|0:0,0:0:0:0:
357,290,14937,1,2,0:0:0:0:
308,301,15062,1,0,0:0:0:0:
259,312,15187,2,0,B|210:323|210:323|162:311,1,99.9999999999999,2|2,0:0|0:0,0:0:0:0:
103,229,15687,2,0,B|55:217|55:217|6:228,2,99.9999999999999,2|0|2,0:0|0:0|0:0,0:0:0:0:
202,237,16437,6,0,P|192:192|154:157,2,99.9999999999999,0|2|0,0:0|0:0|0:0,0:0:0:0:
129,306,17187,2,0,P|172:330|207:367,1,99.9999999999999,2|0,0:0|0:0,0:0:0:0:
256,360,17562,1,0,0:0:0:0:
305,366,17687,2,0,P|339:330|383:306,1,99.9999999999999,2|0,0:0|0:0,0:0:0:0:
481,192,18187,1,4,2:0:0:0:
256,53,26187,5,6,0:0:0:0:
395,192,26687,1,2,0:0:0:0:
256,331,27187,1,2,0:0:0:0:
117,192,27687,1,2,0:0:0:0:
256,53,28187,6,0,B|343:24|343:24|448:42,1,200,2|2,0:0|0:0,0:0:0:0:
316,192,29187,2,0,B|229:221|229:221|122:202,1,200,2|2,0:0|0:0,0:0:0:0:
358,115,30187,6,0,P|394:150|403:200,1,99.9999999999999,2|0,0:0|0:0,0:0:0:0:
387,296,30687,2,0,P|352:331|304:341,1,99.9999999999999,2|0,0:0|0:0,0:0:0:0:
256,254,31187,2,0,P|278:204|277:160,2,99.9999999999999,2|0|2,0:0|0:0|0:0,0:0:0:0:
178,317,31937,1,0,0:0:0:0:
82,348,32187,6,0,P|8:319|42:225,2,200,2|2|2,0:0|0:0|0:0,0:0:0:0:
362,62,34187,6,0,P|316:81|267:79,1,99.9999999999999,4|2,2:0|0:0,0:0:0:0:
220,59,34562,1,0,0:0:0:0:
170,51,34687,2,0,P|118:72|88:105,1,99.9999999999999,4|2,2:0|0:0,0:0:0:0:
87,154,35062,1,0,0:0:0:0:
118,192,35187,2,0,B|101:261|101:261|44:318,1,150,4|0,2:0|0:0,0:0:0:0:
192,344,35937,2,0,L|242:349,1,50,2|4,0:0|2:0,0:0:0:0:
289,335,36187,6,0,L|323:297,2,50,4|0|2,2:0|0:0|0:0,0:0:0:0:
255,297,36562,2,0,P|218:274|188:223,1,99.9999999999999
187,176,36937,1,2,0:0:0:0:
289,182,37187,2,0,P|338:177|379:150,1,99.9999999999999,0|2,0:0|0:0,0:0:0:0:
407,108,37562,2,0,P|357:91|322:60,2,99.9999999999999,0|0|0,0:0|0:0|0:0,0:0:0:0:
447,78,38187,6,0,L|460:177,1,99.9999999999999,4|2,2:0|0:0,0:0:0:0:
467,226,38562,1,0,0:0:0:0:
475,275,38687,2,0,P|434:306|385:317,1,99.9999999999999,4|2,2:0|0:0,0:0:0:0:
337,317,39062,1,0,0:0:0:0:
287,309,39187,2,0,P|269:258|267:213,1,99.9999999999999,4|2,2:0|0:0,0:0:0:0:
299,174,39562,2,0,P|349:181|398:164,2,99.9999999999999,0|0|4,0:0|0:0|2:0,0:0:0:0:
256,147,40187,5,4,2:0:0:0:
187,74,40437,1,2,0:0:0:0:
187,74,40562,1,0,0:0:0:0:
93,108,40812,1,0,0:0:0:0:
106,207,41062,2,0,P|83:221|57:225,2,50,0|0|0,0:0|0:0|0:0,0:0:0:0:
205,221,41562,2,0,P|195:272|166:311,2,99.9999999999999,0|0|0,0:0|0:0|0:0,0:0:0:0:
184,173,42187,6,0,L|187:74,1,99.9999999999999,4|2,2:0|0:0,0:0:0:0:
176,25,42562,1,0,0:0:0:0:
222,44,42687,2,0,P|271:46|322:34,1,99.9999999999999,4|2,2:0|0:0,0:0:0:0:
370,27,43062,1,0,0:0:0:0:
419,20,43187,2,0,B|466:75|466:75|466:153,1,150,4|0,2:0|0:0,0:0:0:0:
466,302,43937,2,0,L|418:316,1,50,2|4,0:0|2:0,0:0:0:0:
369,329,44187,6,0,L|398:369,2,50,4|0|2,2:0|0:0|0:0,0:0:0:0:
319,329,44562,2,0,P|268:320|233:290,1,99.9999999999999
218,241,44937,1,2,0:0:0:0:
319,242,45187,2,0,L|318:136,1,99.9999999999999,0|2,0:0|0:0,0:0:0:0:
318,91,45562,2,0,P|362:72|415:77,2,99.9999999999999,0|0|0,0:0|0:0|0:0,0:0:0:0:
279,122,46187,6,0,P|235:129|179:126,1,99.9999999999999,4|2,2:0|0:0,0:0:0:0:
129,119,46562,1,0,0:0:0:0:
83,97,46687,2,0,P|51:137|38:184,1,99.9999999999999,4|2,2:0|0:0,0:0:0:0:
54,230,47062,1,0,0:0:0:0:
74,275,47187,2,0,P|116:299|146:340,1,99.9999999999999,4|2,2:0|0:0,0:0:0:0:
186,310,47562,2,0,L|169:208,2,99.9999999999999,0|0|4,0:0|0:0|2:0,0:0:0:0:
226,340,48187,5,4,2:0:0:0:
317,299,48437,1,2,0:0:0:0:
317,299,48562,1,0,0:0:0:0:
408,340,48812,1,0,0:0:0:0:
499,299,49062,2,0,L|499:231,1,50,4|4,2:0|2:0,0:0:0:0:
112,83,58187,6,0,P|152:109|202:123,1,99.9999999999999,4|2,2:0|0:0,0:0:0:0:
288,72,58687,2,0,L|272:25,2,50,0|0|2,0:0|0:0|0:0,0:0:0:0:
334,91,59062,1,0,0:0:0:0:
427,55,59312,1,0,0:0:0:0:
496,127,59562,1,0,0:0:0:0:
496,127,59687,2,0,L|510:176,2,50,0|0|2,0:0|0:0|0:0,0:0:0:0:
399,153,60187,6,0,L|380:252,1,99.9999999999999,0|2,0:0|0:0,0:0:0:0:
369,350,60687,2,0,L|423:356,2,50,0|0|2,0:0|0:0|0:0,0:0:0:0:
320,362,61062,2,0,P|275:333|247:297,1,99.9999999999999,0|0,0:0|0:0,0:0:0:0:
212,202,61562,1,0,0:0:0:0:
212,202,61687,2,0,L|228:153,1,50,0|0,0:0|0:0,0:0:0:0:
208,108,61937,2,0,L|158:120,2,50,2|0|4,0:0|0:0|2:0,0:0:0:0:
256,20,62437,5,2,0:0:0:0:
304,108,62687,2,0,L|285:158,2,50,0|0|2,0:0|0:0|0:0,0:0:0:0:
352,94,63062,1,0,0:0:0:0:
413,173,63312,1,0,0:0:0:0:
352,252,63562,1,0,0:0:0:0:
386,288,63687,2,0,P|406:276|432:268,2,50,0|0|2,0:0|0:0|0:0,0:0:0:0:
300,339,64187,6,0,P|251:352|198:348,1,99.9999999999999,0|2,0:0|0:0,0:0:0:0:
119,291,64687,2,0,L|84:249,1,50,0|0,0:0|0:0,0:0:0:0:
53,215,64937,2,0,L|88:173,1,50,2|0,0:0|0:0,0:0:0:0:
146,98,65312,2,0,P|193:121|217:161,1,99.9999999999999,0|0,0:0|0:0,0:0:0:0:
217,210,65687,2,0,L|166:210,2,50,0|0|2,0:0|0:0|0:0,0:0:0:0:
256,240,66062,1,0,0:0:0:0:
256,84,69187,6,0,L|355:94,1,99.9999999999999,2|0,0:0|0:0,0:0:0:0:
406,181,69562,2,0,L|307:171,1,99.9999999999999,2|0,0:0|0:0,0:0:0:0:
256,258,69937,1,4,2:0:0:0:
256,258,70187,6,0,P|211:283|157:290,1,99.9999999999999,4|0,0:0|0:0,0:0:0:0:
113,283,70562,2,0,P|68:301|30:335,1,99.9999999999999,4|0,0:0|0:0,0:0:0:0:
30,335,70937,1,2,0:0:0:0:
29,234,71187,2,0,L|18:134,1,99.9999999999999,4|0,0:0|0:0,0:0:0:0:
65,119,71562,2,0,L|76:19,1,99.9999999999999,4|0,0:0|0:0,0:0:0:0:
76,19,71937,1,2,0:0:0:0:
159,72,72187,6,0,P|215:114|295:126,1,150,4|4,0:0|0:0,0:0:0:0:
150,172,72937,1,2,0:0:0:0:
150,172,73062,1,2,0:0:0:0:
150,172,73187,2,0,L|167:323,2,150,4|4|2,0:0|0:0|0:0,0:0:0:0:
236,222,74187,6,0,P|270:256|319:269,1,99.9999999999999,4|2,0:0|0:0,0:0:0:0:
410,229,74687,2,0,P|374:195|327:183,1,99.9999999999999,0|2,0:0|0:0,0:0:0:0:
414,133,75187,2,0,B|448:108|448:108|512:100,2,99.9999999999999,4|2|0,0:0|0:0|0:0,0:0:0:0:
327,183,75937,1,2,0:0:0:0:
256,112,76187,6,0,B|176:91|176:91|120:131,1,150,4|4,0:0|0:0,0:0:0:0:
32,176,76812,2,0,L|15:128,2,50,0|2|2,0:0|0:0|0:0,0:0:0:0:
54,220,77187,2,0,B|82:286|82:286|34:348,1,150,4|4,0:0|0:0,0:0:0:0:
134,347,77812,2,0,L|167:305,2,50,0|2|2,0:0|0:0|0:0,0:0:0:0:
134,347,78187,6,0,P|185:356|233:349,1,99.9999999999999,4|0,0:0|0:0,0:0:0:0:
273,320,78562,2,0,P|344:311|417:337,1,150,4|2,0:0|0:0,0:0:0:0:
476,255,79187,2,0,L|440:160,1,99.9999999999999,4|0,0:0|0:0,0:0:0:0:
466,118,79562,2,0,P|389:127|332:89,1,150,4|2,0:0|0:0,0:0:0:0:
233,67,80187,6,0,L|131:63,1,99.9999999999999,4|0,0:0|0:0,0:0:0:0:
82,61,80562,2,0,P|40:122|27:200,1,150,4|2,0:0|0:0,0:0:0:0:
50,292,81187,2,0,L|152:296,1,99.9999999999999,4|0,0:0|0:0,0:0:0:0:
201,298,81562,2,0,P|243:237|256:159,1,150,4|2,0:0|0:0,0:0:0:0:
256,63,82187,6,0,P|208:47|154:48,2,99.9999999999999,4|2|0,0:0|0:0|0:0,0:0:0:0:
344,110,82937,1,2,0:0:0:0:
443,100,83187,2,0,P|478:63|486:15,1,99.9999999999999,4|2,0:0|0:0,0:0:0:0:
497,166,83687,2,0,P|462:203|454:251,1,99.9999999999999,0|2,0:0|0:0,0:0:0:0:
473,347,84187,6,0,P|422:361|374:355,1,99.9999999999999,4|0,0:0|0:0,0:0:0:0:
328,339,84562,2,0,P|253:324|183:343,1,150,4|2,0:0|0:0,0:0:0:0:
85,363,85187,2,0,L|43:271,1,99.9999999999999,4|0,0:0|0:0,0:0:0:0:
64,226,85562,2,0,P|76:157|36:92,1,150,4|2,0:0|0:0,0:0:0:0:
1,55,86062,1,2,0:0:0:0:
37,20,86187,6,0,L|139:17,1,99.9999999999999,4|2,2:0|0:0,0:0:0:0:
187,16,86562,2,0,B|263:36|263:36|334:29,1,150,0|2,0:0|0:0,0:0:0:0:
433,20,87187,2,0,L|375:108,1,99.9999999999999,0|2,0:0|0:0,0:0:0:0:
350,145,87562,2,0,B|274:125|274:125|203:132,1,150,0|2,0:0|0:0,0:0:0:0:
103,142,88187,6,0,P|58:168|30:205,2,99.9999999999999,0|2|0,0:0|0:0|0:0,0:0:0:0:
165,220,88937,1,2,0:0:0:0:
83,277,89187,2,0,P|123:305|175:313,1,99.9999999999999,0|2,0:0|0:0,0:0:0:0:
211,281,89562,2,0,P|274:295|360:283,1,150,0|2,0:0|0:0,0:0:0:0:
448,240,90187,5,0,0:0:0:0:
488,148,90437,1,2,0:0:0:0:
440,60,90687,2,0,P|392:72|340:68,1,99.9999999999999,0|2,0:0|0:0,0:0:0:0:
244,52,91187,2,0,P|247:101|235:149,1,99.9999999999999,0|2,0:0|0:0,0:0:0:0:
192,240,91687,1,0,0:0:0:0:
100,280,91937,1,2,0:0:0:0:
20,220,92187,6,0,P|20:168|36:124,1,99.9999999999999,0|2,0:0|0:0,0:0:0:0:
88,120,92562,2,0,P|112:72|120:24,1,99.9999999999999,0|0,0:0|0:0,0:0:0:0:
120,27,92937,1,2,0:0:0:0:
212,68,93187,2,0,P|260:84|316:76,1,99.9999999999999,0|2,0:0|0:0,0:0:0:0:
352,52,93562,2,0,L|392:196,1,150,0|2,0:0|0:0,0:0:0:0:
408,244,94062,1,2,0:0:0:0:
424,292,94187,6,0,P|380:312|320:316,1,99.9999999999999,0|2,0:0|0:0,0:0:0:0:
280,304,94562,2,0,B|208:296|208:296|128:316,1,150,0|2,0:0|0:0,0:0:0:0:
32,328,95187,2,0,L|48:228,1,99.9999999999999,0|2,0:0|0:0,0:0:0:0:
76,188,95562,2,0,B|148:208|148:208|224:200,1,150,0|2,0:0|0:0,0:0:0:0:
320,184,96187,6,0,P|356:216|376:264,2,99.9999999999999,0|2|0,0:0|0:0|0:0,0:0:0:0:
256,104,96937,1,2,0:0:0:0:
256,104,97062,1,0,0:0:0:0:
164,60,97312,1,0,0:0:0:0:
164,60,97437,1,2,0:0:0:0:
64,80,97687,2,0,L|52:180,1,99.9999999999999,0|2,0:0|0:0,0:0:0:0:
48,280,98187,6,0,B|48:328|48:328|0:368,2,99.9999999999999,0|2|0,0:0|0:0|0:0,0:0:0:0:
148,280,98937,2,0,B|148:328|148:328|196:368,2,99.9999999999999,2|0|2,0:0|0:0|0:0,0:0:0:0:
98,192,99687,2,0,L|98:140,3,50,2|0|2|0,0:0|0:0|0:0|0:0,0:0:0:0:
98,92,100187,5,4,2:0:0:0:
464,285,102187,6,0,P|422:317|375:322,1,99.9999999999999,4|2,2:0|0:0,0:0:0:0:
334,231,102687,2,0,P|376:199|423:194,2,99.9999999999999,0|2|0,0:0|0:0|0:0,0:0:0:0:
256,294,103437,1,2,0:0:0:0:
167,339,103687,1,0,0:0:0:0:
71,310,103937,1,2,0:0:0:0:
15,226,104187,6,0,L|4:127,1,99.9999999999999,0|2,0:0|0:0,0:0:0:0:
74,55,104687,2,0,L|85:154,1,99.9999999999999,0|2,0:0|0:0,0:0:0:0:
99,253,105187,2,0,P|195:277|256:209,1,200,0|0,0:0|0:0,0:0:0:0:
284,113,105937,1,2,0:0:0:0:
371,63,106187,6,0,P|420:56|470:63,1,99.9999999999999,4|2,2:0|0:0,0:0:0:0:
470,163,106687,2,0,P|420:169|371:162,1,99.9999999999999,0|2,0:0|0:0,0:0:0:0:
284,113,107187,1,0,0:0:0:0:
191,76,107437,1,2,0:0:0:0:
93,98,107687,1,0,0:0:0:0:
34,179,107937,1,2,0:0:0:0:
52,277,108187,6,0,P|36:323|1:362,2,99.9999999999999,0|2|0,0:0|0:0|0:0,0:0:0:0:
34,179,108937,1,2,0:0:0:0:
128,212,109187,2,0,P|170:237|224:248,1,99.9999999999999,0|2,0:0|0:0,0:0:0:0:
296,312,109687,2,0,P|326:266|323:221,1,99.9999999999999,0|2,0:0|0:0,0:0:0:0:
310,123,110187,6,0,P|361:127|408:115,2,99.9999999999999,4|2|0,2:0|0:0|0:0,0:0:0:0:
256,38,110937,1,2,0:0:0:0:
202,123,111187,2,0,P|151:127|104:115,2,99.9999999999999,0|2|0,0:0|0:0|0:0,0:0:0:0:
256,38,111937,1,2,0:0:0:0:
310,123,112187,6,0,L|330:223,1,99.9999999999999,0|2,0:0|0:0,0:0:0:0:
398,148,112687,2,0,L|418:248,1,99.9999999999999,0|2,0:0|0:0,0:0:0:0:
486,173,113187,2,0,L|506:273,2,99.9999999999999,0|2|0,0:0|0:0|0:0,0:0:0:0:
466,74,113937,1,2,0:0:0:0:
256,192,114187,12,0,117187,0:0:0:0:
432,284,117687,5,0,0:0:0:0:
352,344,117937,1,0,0:0:0:0:
256,312,118187,6,0,P|204:316|160:332,1,99.9999999999999,4|2,2:0|0:0,0:0:0:0:
64,364,118687,1,0,0:0:0:0:
22,273,118937,1,2,0:0:0:0:
80,192,119187,2,0,P|57:145|63:98,1,99.9999999999999,0|2,0:0|0:0,0:0:0:0:
140,35,119687,2,0,P|163:82|157:129,1,99.9999999999999,0|2,0:0|0:0,0:0:0:0:
80,192,120187,5,0,0:0:0:0:
157,255,120437,1,2,0:0:0:0:
257,255,120687,1,4,2:0:0:0:
334,192,120937,1,4,2:0:0:0:
411,255,121187,2,0,L|411:357,2,99.9999999999999,0|2|4,0:0|0:0|2:0,0:0:0:0:
488,192,121937,1,6,2:0:0:0:
411,129,122187,6,0,L|482:60,1,99.9999999999999,0|2,3:0|0:0,0:0:0:0:
383,46,122687,2,0,L|312:115,1,99.9999999999999,0|2,0:0|0:0,0:0:0:0:
243,188,123187,1,0,3:0:0:0:
148,170,123437,1,2,0:0:0:0:
81,239,123687,1,0,0:0:0:0:
102,332,123937,1,2,0:0:0:0:
178,267,124187,6,0,L|205:363,1,99.9999999999999,0|2,0:0|0:0,0:0:0:0:
307,363,124687,2,0,L|334:267,1,99.9999999999999,0|2,0:0|0:0,0:0:0:0:
400,192,125187,1,4,2:0:0:0:
456,110,125437,1,6,2:0:0:0:
375,52,125687,1,4,2:0:0:0:
317,134,125937,1,6,2:0:0:0:
217,132,126187,6,0,P|163:134|122:152,1,99.9999999999999,0|2,0:0|0:0,0:0:0:0:
26,120,126687,2,0,P|28:174|46:215,1,99.9999999999999,0|2,0:0|0:0,0:0:0:0:
117,286,127187,1,0,0:0:0:0:
205,239,127437,1,2,0:0:0:0:
117,286,127687,1,0,0:0:0:0:
205,239,127937,1,2,0:0:0:0:
256,324,128187,6,0,P|303:344|351:343,1,99.9999999999999,0|2,0:0|0:0,0:0:0:0:
439,296,128687,2,0,L|459:198,1,99.9999999999999,0|2,0:0|0:0,0:0:0:0:
507,110,129187,1,4,2:0:0:0:
421,58,129437,1,4,2:0:0:0:
507,110,129687,1,6,2:0:0:0:
421,58,129937,1,6,2:0:0:0:
321,61,130187,6,0,P|272:72|220:70,1,99.9999999999999,0|2,0:0|0:0,0:0:0:0:
124,52,130687,2,0,L|73:137,1,99.9999999999999,0|2,0:0|0:0,0:0:0:0:
34,230,131187,2,0,P|83:241|135:239,1,99.9999999999999,0|2,0:0|0:0,0:0:0:0:
231,221,131687,2,0,L|282:306,1,99.9999999999999,0|2,0:0|0:0,0:0:0:0:
371,353,132187,5,4,2:0:0:0:
455,299,132437,1,4,2:0:0:0:
481,202,132687,1,4,2:0:0:0:
441,110,132937,1,4,2:0:0:0:
349,70,133187,2,0,L|295:79,3,50,4|0|4|0,2:0|3:0|2:0|0:0,0:0:0:0:
250,72,133687,2,0,L|198:64,3,50,4|0|4|0,2:0|0:0|2:0|0:0,0:0:0:0:
150,70,134187,5,4,1:0:0:0:
