osu file format v9

[General]
AudioFilename: LapFox Trax - Rainbow Dash Likes Girls - 03 TRUXXXXXXTON.mp3
AudioLeadIn: 0
PreviewTime: -1
Countdown: 0
SampleSet: Normal
StackLeniency: 0.8
Mode: 0
LetterboxInBreaks: 1
CountdownOffset: 3

[Editor]
Bookmarks: 0,2133,2400,2700,2933,3066,3500,4066,4266,4566,4800,4933,5100,5233,5366,5466,5633,6200,6400,6666,6966,7233,7466,7766,8033,8300,8533,8833,9066,9466,9866,10133,10666,10733,10833,10933,11066,11200,11366,11500,11600,11733,11866,12000,12166,12300,12433,12566,12666,12800,12966,13100,13233,13333,13466,13633,13733,13866,14033,14166,14266,14933,15100,15233,15366,15466,15600,15733,15866,16000,16433,16533,16700,16833,16966,17066,17233,17366,17500,17600,17733,17866,19066,19200,19866,20000,20133,20266,20400,21233,21333,21500,21600,21733,21833,22000,22133,22266,22400,22500,22666,22800,22866,22966,23066,23200,23333,23400,23466,23600,23733,23866,24033,24166,24266,24400,24533,24600,24666,24766,24933,25000,25066,25200,25333,25466,25533,25600,25733,25866,26000,26166,26266,26400,26533,26600,26666,26733,26800,26866,26933,27066,27133,27200,27333,27466,27600,27666,27733,27800,27866,28000,28133,28233,28300,28400,28533,28666,28800,28900,28966,29066,29200,29366,29433,29500,29633,29766,29866,30000,30133,30266,30333,30366,30433,30500,30533,30666,30833,30933,31066,31200,31333,31433,31600,31733,31833,32000,32133,32233,32366,32533,32666,32800,32933,33066,33200,33333,33466,33600,33733,33866,34000,34133,34266,34400,34533,34666,34800,34933,35066,35200,35333,35466,35600,35733,35866,36000,36133,36266,36400,36533,36666,36800,36933,37066,37200,37333,37466,37600,37733,37866,38000,38133,38266,38400,38533,38666,38800,38933,39066,39200,39333,39466,39600,39733,39866,40000,40133,40266,40400,40533,40666,40800,40933,41066,41200,41333,41466,41600,41733,41866,42000,42133,42266,42400,42533,42666,42800,42933,43066,43200,43333,43466,43600,43733,43866,44000,44133,44266,44400,44533,44666,44800,44933,45066,45200,45333,45466,45600,45733,45866,46000,46133,46266,46400,46533,46666,46800,46933,47200,47333,48000,49066,49900,50133,50533,51200,52266,53333,54400,54433,54466,54500,55466,56533,57600,58666,59733,60800,61866,62933,63333,64000,66133,72000,98133,98166,98200,98233,98266,98300,98333,98366,98400,98433,98466,98500,98533,98566,98600,98633,98666,98700,98733,98766,98800,98833,98866,98900,98933,98966,99000,99033,99066,99100,99133,99166,99200,99233,99266,99300,99333,99366,99400,99433,99466,99500,99533,99566,99600,99633,99666,99700,99733,99766,99800,99833,99866
DistanceSpacing: 0.8
BeatDivisor: 8
GridSize: 8

[Metadata]
Title:TRUXXXXXXTON
Artist:Renard
Creator:Dragon Fx
Version:Brownies Collab
Source:
Tags:Andruchon,DontBrownieMir,rainbow dash likes girls

[Difficulty]
HPDrainRate:6
CircleSize:4
OverallDifficulty:8
ApproachRate:9
SliderMultiplier:1.4
SliderTickRate:1

[Events]
//Background and Video events
Video,-10000,"My Little Pony - Rainbow Dash - Youre Gonna Go Far Kid [Explicit] [www.keepvid.com].flv"
0,0,"Rainbow-Dash-electric-750x600.png"
//Break Periods
2,54599,63400
2,66300,97533
//Storyboard Layer 0 (Background)
//Storyboard Layer 1 (Fail)
//Storyboard Layer 2 (Pass)
//Storyboard Layer 3 (Foreground)
//Storyboard Sound Samples
//Background Colour Transformations
3,100,163,162,255

[TimingPoints]
0,266.666666666667,4,1,0,100,1,0

[Colours]
Combo1 : 17,1,211
Combo2 : 244,0,0
Combo3 : 244,226,0
Combo4 : 5,239,12
Combo5 : 0,255,185

[HitObjects]
256,192,2133,1,0
144,224,2400,1,2
256,328,2700,5,0
304,80,2933,1,0
400,168,3066,1,2
152,288,3500,6,2,B|400:112,1,297.5
256,40,4266,6,2,B|88:56|104:16,1,157.5
64,208,4800,5,0
168,112,4933,1,0
304,104,5100,1,0
336,208,5233,1,0
280,208,5366,1,0
224,208,5466,1,0
168,208,5633,1,2
120,248,5700,6,2,B|376:192,1,262.5
376,88,6400,5,0
128,64,6666,1,0
208,168,6933,1,2
88,120,7266,5,0
320,40,7466,1,0
464,128,7766,1,0
304,240,8033,1,2
152,176,8300,5,0
296,128,8533,1,0
192,96,8833,1,0
432,192,9066,1,0
272,48,9466,1,10
448,64,9866,6,2,B|320:144|32:112,1,420
216,240,10733,5,2
216,176,10833,1,2
288,240,10933,1,2
288,176,11066,1,2
288,240,11200,5,8
288,176,11366,1,2
216,240,11500,1,2
216,176,11600,1,2
216,240,11733,5,8
288,240,11866,1,2
288,176,12000,1,2
216,176,12166,5,0
216,176,12300,5,0
288,176,12433,1,0
288,240,12566,1,0
216,240,12800,2,0,B|304:288|368:208|352:120|240:80|168:128|160:232,1,385
64,48,13733,6,0,B|488:352,1,507.5
296,344,14833,6,0,B|472:64,1,332.5
352,48,15600,1,0
272,144,15866,1,0
224,152,16000,6,0,B|152:160|136:232|200:280,1,175
272,256,16433,1,0
208,176,17066,1,0
72,176,18000,6,0,B|248:48|424:168|408:320|288:296,1,472.5
112,296,19200,6,0,B|136:136|320:72,1,315
384,120,19866,5,0
312,240,20266,1,0
256,192,20400,12,0,21066
256,192,21333,5,0
408,184,21500,1,0
352,136,21600,1,0
288,112,21733,1,0
224,96,21833,1,0
160,88,22000,1,0
256,192,22133,5,0
304,272,22400,2,0,B|208:264|184:200,1,140
168,184,22800,1,0
134,190,22866,1,0
72,298,23066,1,0
300,262,23200,5,0
394,125,23333,1,0
394,125,23400,1,0
394,125,23466,1,0
192,96,23600,5,0
200,264,23733,1,0
344,224,23866,1,0
360,120,24033,1,0
424,336,24166,5,0
296,320,24266,1,0
160,224,24400,1,0
160,224,24533,1,0
160,224,24600,1,0
160,224,24666,1,0
160,224,24766,1,0
304,176,24933,5,0
408,272,25066,1,0
408,272,25200,1,0
272,304,25333,1,0
192,128,25466,5,0
232,120,25533,1,0
264,120,25600,1,0
312,128,25733,1,0
408,272,25866,2,0,B|328:264,1,70
176,304,26166,5,0
176,304,26266,1,0
64,336,26400,1,0
112,184,26533,5,0
144,168,26600,1,0
136,120,26700,1,0
96,120,26800,1,0
56,144,26866,1,0
40,192,26933,1,0
112,320,27100,6,0,B|240:288,1,122.5
320,272,27466,1,0
480,208,27600,5,0
480,160,27666,1,0
432,136,27733,1,0
384,120,27800,1,0
352,144,27900,1,0
312,200,28000,2,0,B|368:232,1,52.5
392,344,28233,5,0
336,344,28300,1,0
224,360,28400,2,0,B|112:256,1,140
88,216,28800,1,0
88,216,28900,1,0
88,216,28966,1,0
88,216,29066,1,0
128,336,29200,6,0,B|208:288,1,87.5
240,280,29433,1,0
272,280,29500,1,0
336,288,29633,6,0,B|384:224,1,70
360,184,29866,1,0
296,160,30000,1,0
240,136,30166,1,0
208,192,30266,1,0
56,280,30333,5,0
56,280,30366,1,0
80,320,30433,1,0
96,352,30500,1,0
96,352,30533,1,0
160,360,30666,6,0,B|256:336,1,87.5
280,328,30933,1,0
352,352,31066,1,0
440,176,31200,1,0
400,80,31333,1,0
272,64,31433,1,0
144,224,31600,5,0
96,160,31733,1,0
80,80,31833,1,0
216,80,32000,1,0
256,208,32133,1,0
352,280,32233,6,0,B|408:224,1,70
400,160,32533,1,0
352,144,32666,1,0
232,256,32800,1,0
184,288,32933,1,0
144,304,33066,6,0,B|104:272,1,52.5
103,271,33333,1,0
72,240,33466,1,0
48,192,33600,1,0
56,160,33733,1,0
248,160,33866,5,0
248,160,34000,2,0,B|320:176,1,70
316,175,34266,1,0
352,224,34400,1,0
464,336,34533,5,0
288,352,34666,1,0
256,352,34800,2,0,B|200:352,1,52.5
128,208,35066,1,0
240,112,35200,1,0
256,224,35333,5,0
296,216,35466,1,0
316,175,35600,1,0
288,128,35733,1,0
240,112,35866,1,0
200,160,36000,1,0
144,264,36133,6,0,B|80:208,1,70
91,217,36400,1,0
80,176,36533,1,0
96,136,36666,1,0
128,104,36800,2,0,B|184:112,1,52.5
179,111,37066,1,0
152,272,37200,6,0,B|224:232,1,70
248,312,37466,1,0
288,344,37600,1,0
336,344,37733,1,0
376,312,37866,1,0
400,264,38000,1,0
416,224,38133,2,0,B|336:200,1,70
80,336,38400,5,0
80,304,38533,1,0
96,248,38666,1,0
256,360,38800,1,0
160,344,38933,2,0,B|200:280,1,70
197,284,39200,5,0
168,224,39333,1,0
384,368,39466,1,0
424,328,39600,1,0
256,192,39733,1,0
480,32,40000,5,0
256,32,40133,2,0,B|192:88,1,70
203,78,40400,1,0
72,312,40533,5,0
256,192,40666,1,0
256,192,40800,1,0
256,192,40933,1,0
296,272,41066,1,0
352,200,41200,1,0
352,200,41333,5,0
192,280,41466,2,0,B|168:224,1,52.5
171,231,41733,1,0
136,152,42000,2,0,B|192:120,4,52.5
181,125,42533,5,0
256,192,42666,1,0
248,312,42800,1,0
144,320,42933,1,0
104,208,43066,1,0
184,56,43200,5,0
328,168,43333,1,0
288,328,43466,1,0
104,328,43600,1,0
72,160,43733,1,0
181,125,43866,5,0
256,192,44000,1,0
248,312,44133,1,0
144,320,44266,1,0
104,208,44400,1,0
184,232,44533,5,0
288,328,44666,1,0
384,216,44800,1,0
288,128,44933,1,0
288,128,45066,1,0
288,128,45200,1,0
288,128,45333,2,0,B|176:216,1,140
224,344,45733,5,0
256,344,45866,1,0
288,328,46000,1,0
288,328,46133,1,0
472,352,46266,1,0
472,352,46400,1,0
472,288,46533,5,0
472,288,46666,1,0
472,288,46800,1,0
88,304,46933,1,0
88,304,47066,1,0
88,304,47200,1,0
384,128,47333,5,0
384,128,47566,2,0,B|376:184|464:136|440:72|344:56|320:136|352:208,1,227.5
256,192,48300,5,0
208,312,48366,1,0
208,312,48700,1,0
208,312,48800,1,0
56,352,48966,1,0
352,112,49066,5,0
352,112,49200,1,0
352,112,49333,1,0
128,216,49466,1,0
128,216,49633,1,0
168,144,49733,6,0,B|240:208,1,87.5
233,202,50000,1,0
424,336,50133,1,0
272,336,50200,1,0
128,344,50266,1,0
56,352,50400,6,0,B|48:272,1,70
272,104,50633,1,0
272,104,50800,2,0,B|296:72|336:120|304:168|264:168|224:152|208:112,1,175
32,40,51200,5,0
184,256,51333,1,0
184,256,51466,1,0
424,336,51600,5,0
424,336,51766,2,0,B|464:304|408:272|360:288|360:328,1,122.5
361,316,52133,1,0
256,24,52266,5,0
256,24,52333,1,0
256,24,52400,1,0
256,24,52533,1,0
144,104,52666,6,0,B|200:144,1,70
200,144,52933,1,0
232,176,53066,1,0
232,176,53233,1,0
448,328,53333,5,0
448,328,53466,2,0,B|448:288|448:344,1,35
392,336,53600,1,0
344,352,53733,2,0,B|288:352|296:288|208:304,1,140
218,302,54133,1,0
32,352,54266,1,0
216,272,54399,1,0
256,192,64000,12,0,66100
256,192,98133,12,12,99866
