osu file format v13

[General]
AudioFilename: Renard - T-PONIES.mp3
AudioLeadIn: 0
PreviewTime: 22852
Countdown: 1
SampleSet: Normal
StackLeniency: 0.7
Mode: 0
LetterboxInBreaks: 1
WidescreenStoryboard: 1

[Editor]
Bookmarks: 47365
DistanceSpacing: 1.1
BeatDivisor: 4
GridSize: 8
TimelineZoom: 1

[Metadata]
Title:T-PONIES
TitleUnicode:T-PONIES
Artist:Renard
ArtistUnicode:Renard
Creator:DJVinyl
Version:T-Hard
Source:
Tags:lapfox trax VULPvibe my little pony friendship is magic MLP twilight applejack rarity rainbow dash rd pinkie pie winter
BeatmapID:570489
BeatmapSetID:247905

[Difficulty]
HPDrainRate:6
CircleSize:4
OverallDifficulty:5
ApproachRate:6
SliderMultiplier:1.6
SliderTickRate:1

[Events]
//Background and Video events
0,0,"wallpaper___winter_wrap_up_by_romus91-d6mxlmj.jpg",0,0
//Break Periods
//Storyboard Layer 0 (Background)
//Storyboard Layer 1 (Fail)
//Storyboard Layer 2 (Pass)
//Storyboard Layer 3 (Foreground)
//Storyboard Sound Samples

[TimingPoints]
0.491228070175341,352.941176470588,4,1,0,100,1,0
22804,-133.333333333333,4,1,0,100,0,1
27716,-66.6666666666667,4,1,0,100,0,1
28243,-133.333333333333,4,1,0,100,0,1
34032,-66.6666666666667,4,1,0,100,0,0
34909,-133.333333333333,4,1,0,100,0,0
35611,-100,4,1,0,100,0,0
37015,-50,4,1,0,100,0,0
38593,-133.333333333333,4,1,0,100,0,0
39120,-100,4,1,0,100,0,0

[HitObjects]
32,272,353,6,0,P|88:304|176:256,1,160,0|0,0:0|0:0,0:0:0:0:
96,224,1059,1,0,0:0:0:0:
240,312,1412,1,0,0:0:0:0:
240,208,1765,2,0,P|304:224|360:320,1,160
144,128,2471,5,0,0:0:0:0:
240,80,2824,2,0,P|304:104|400:72,2,160,0|0|0,0:0|0:0|0:0,0:0:0:0:
48,152,3882,2,0,P|48:224|96:328,1,160
176,352,5647,2,0,P|248:336|232:240,1,160
208,16,6352,2,0,P|160:48|208:128,1,160
96,152,7058,5,0,0:0:0:0:
176,312,7411,1,0,0:0:0:0:
320,224,7764,1,0,0:0:0:0:
48,224,8117,2,0,P|104:232|184:152,1,160
120,120,8823,2,0,P|168:80|248:136,1,160
40,80,9529,1,0,0:0:0:0:
184,160,9882,1,0,0:0:0:0:
152,296,10941,6,0,P|240:304|320:272,1,160
136,80,11647,2,0,B|96:40|96:40|32:152,1,160
40,208,12353,1,0,0:0:0:0:
56,288,12706,2,0,P|112:344|256:312,1,240
256,200,13765,6,0,P|312:224|368:216,2,80,0|0|0,0:0|0:0|0:0,0:0:0:0:
136,80,14471,1,0,0:0:0:0:
40,168,14824,2,0,P|32:232|96:320,1,160
192,320,15530,2,0,B|240:320|240:320|280:336|280:336|360:336,1,160,0|0,0:0|0:0,0:0:0:0:
80,208,16412,5,0,0:0:0:0:
120,128,16588,2,0,P|168:96|264:128,1,160
192,176,17117,1,0,0:0:0:0:
240,248,17294,2,0,P|288:280|328:288,1,80
328,160,17647,2,0,P|288:136|256:120,1,80
104,240,18176,6,0,B|72:296|80:352|80:352|128:368,1,160
16,224,18706,2,0,P|40:176|152:160,1,160
328,160,19412,1,0,0:0:0:0:
120,88,19765,2,0,P|80:48|40:40,1,80
200,88,20118,2,0,P|240:48|248:8,1,80
192,160,20471,2,0,P|232:200|272:208,1,80
120,160,20824,2,0,P|80:200|72:240,1,80
168,312,21353,6,0,B|224:312|240:352|240:352|264:336|312:328,1,160
112,152,22413,1,0,0:0:0:0:
256,248,22765,1,0,0:0:0:0:
160,120,23118,1,0,0:0:0:0:
296,208,23471,1,0,0:0:0:0:
200,96,23824,1,0,0:0:0:0:
336,288,24177,2,0,P|376:248|368:168,1,120.000004577637
216,288,24883,2,0,B|168:288|168:288|144:312|112:344|40:336,1,180.000006866455
88,64,25765,6,0,P|72:112|104:184,1,120.000004577637
32,232,26471,2,0,P|88:256|160:224,1,120.000004577637
136,344,27176,2,0,P|112:304|160:232,1,120.000004577637
304,168,27882,2,0,L|248:312,1,120.000004577637
304,344,28235,1,0,0:0:0:0:
400,304,28588,6,0,P|432:248|424:176,1,120.000004577637
464,360,29294,2,0,P|480:296|344:240,1,240.000009155274
240,88,30353,6,0,P|216:144|224:208,1,120.000004577637
160,256,31059,2,0,P|96:256|32:216,2,120.000004577637,0|0|0,0:0|0:0|0:0,0:0:0:0:
200,352,32118,2,0,P|256:320|264:256,1,120.000004577637
192,104,32824,2,0,B|128:96|104:144|112:200|72:224,1,180.000006866455
288,272,34235,2,0,P|352:208|368:152,1,120.000004577637
240,144,34765,1,0,0:0:0:0:
88,112,35118,6,0,P|64:152|48:232,1,120.000004577637
128,288,35824,2,0,B|176:288|176:288|208:320|208:320|288:320,1,160
312,232,36706,1,0,0:0:0:0:
48,32,37412,1,0,0:0:0:0:
104,80,37765,1,0,0:0:0:0:
120,152,38118,1,0,0:0:0:0:
40,160,38471,1,0,0:0:0:0:
72,256,38647,2,0,B|80:304|64:344|64:344|112:344,1,120.000004577637
256,192,39529,5,0,0:0:0:0:
168,136,39882,2,0,B|112:96|64:112|56:152|48:200,1,160
128,304,40588,2,0,L|320:336,1,160,0|0,0:0|0:0,0:0:0:0:
344,240,41294,1,0,0:0:0:0:
280,160,41471,2,0,P|280:104|200:40,1,160
96,56,42353,5,0,0:0:0:0:
96,56,42706,1,0,0:0:0:0:
48,168,43412,2,0,B|32:232|80:280|80:280|144:280,1,160,0|0,0:0|0:0,0:0:0:0:
464,216,44118,2,0,B|480:152|432:104|432:104|368:104,1,160,0|0,0:0|0:0,0:0:0:0:
256,192,44824,1,0,0:0:0:0:
256,192,45176,12,0,47294,0:0:0:0:
