osu file format v9

[General]
AudioFilename: Renard - Rainbow Dash Likes Girls (Stay Gay Pony Girl).mp3
AudioLeadIn: 0
PreviewTime: 23549
Countdown: 0
SampleSet: Soft
StackLeniency: 0.7
Mode: 0
LetterboxInBreaks: 0

[Editor]
Bookmarks: 6027,23481,40936,80208,106458,132640,150163,167549,185004,191549
DistanceSpacing: 0.8
BeatDivisor: 4
GridSize: 4

[Metadata]
Title:Rainbow Dash Likes Girls (Stay Gay Pony Girl)
Artist:Renard
Creator:ztrot
Version:Holy Shit! It's Rainbow Dash!!
Source:My Little Pony: Friendship is Magic
Tags:MMzz Blue Dragon lapfox Taiko

[Difficulty]
HPDrainRate:5
CircleSize:4
OverallDifficulty:8
ApproachRate:9
SliderMultiplier:2
SliderTickRate:1

[Events]
//Background and Video events
0,0,"RD-Salute1.png"
//Break Periods
2,41204,57858
2,115385,123313
//Storyboard Layer 0 (Background)
//Storyboard Layer 1 (Fail)
//Storyboard Layer 2 (Pass)
//Storyboard Layer 3 (Foreground)
Sprite,Foreground,Centre,"SB\ztrot.png",320,240 L,23481,1 F,2,0,69,0.4,1 S,0,0,69,0.6,0.73 S,1,69,205,0.73,0.6 L,80208,1 F,2,0,69,0.4,1 S,0,0,69,0.6,0.73 S,1,69,205,0.73,0.6 L,167481,1 F,2,0,69,0.4,1 S,0,0,69,0.6,0.73 S,1,69,205,0.73,0.6 L,167822,28 S,1,0,136,0.73,0.6 S,1,136,273,0.6 S,1,273,409,0.73,0.6 S,1,409,545,0.6 L,141367,1 F,2,0,69,0.4,1 S,0,0,69,0.6,0.73 S,1,69,205,0.73,0.6 L,132640,31 F,0,0,,0.24 F,0,35,,0.44 F,0,69,,0.23 F,0,103,,0.15 F,0,137,,0.4 F,0,171,,0.2 F,0,205,,0.41 F,0,239,,0.15 F,0,273,,0.24 M,0,0,,136,420 F,0,0,,0 R,0,0,,0 F,0,39879,,0 F,0,39913,,1 F,0,39981,,0 F,0,40049,,1 F,0,40117,,0 F,0,40185,,1 F,0,40254,,0 F,0,40322,,1 F,0,40390,,0 F,0,40458,,1 F,0,40526,,0 F,0,40595,,1 F,0,40663,,0 F,0,40731,,1 S,0,40731,,0.7 F,0,40765,,0 F,0,40799,,1 S,0,40799,,0.8 F,0,40833,,0 F,0,40867,,1 S,0,40867,,0.9 F,0,40901,,0 F,0,40935,,1 S,0,40935,,1 F,0,40970,,0 S,0,41004,,1.1 F,0,41004,41549,1,0 S,0,41822,,0.6 F,1,106185,106458,1,0 R,0,132640,140276,0.12,0 F,0,150026,,0 F,0,167550,,1 F,0,184901,,0
Sprite,Foreground,Centre,"SB\blue dragon.png",320,240 L,6026,1 F,2,0,69,0.4,1 S,0,0,69,0.6,0.73 S,1,69,205,0.73,0.6 L,106390,1 F,2,0,69,0.4,1 S,0,0,69,0.6,0.73 S,1,69,205,0.73,0.6 L,115185,64 F,0,0,,0.24 F,0,35,,0.44 F,0,69,,0.23 F,0,103,,0.15 F,0,137,,0.4 F,0,171,,0.2 F,0,205,,0.41 F,0,239,,0.15 F,0,273,,0.24 L,150026,1 F,2,0,69,0.4,1 S,0,0,69,0.6,0.9 S,1,69,205,0.9,0.6 L,184935,1 F,2,0,69,0.4,1 S,0,0,69,0.6,0.9 S,1,69,205,0.9,0.6 M,0,0,,217,420 F,0,0,,0 R,0,0,,0 F,0,22424,,0 F,0,22458,,1 F,0,22526,,0 F,0,22595,,1 F,0,22663,,0 F,0,22731,,1 F,0,22799,,0 F,0,22867,,1 F,0,22935,,0 F,0,23004,,1 F,0,23038,,0 F,0,23072,,1 F,0,23106,,0 F,0,23140,,1 F,0,23208,,0 F,0,23276,,1 F,0,23310,,0 F,0,23345,,1 F,0,23379,,0 F,0,23413,23481,1,0 F,0,57367,58458,0,0.6200001 F,0,69367,70424,0.6200001,0.1034536 F,0,70458,,1 F,0,70492,,0 F,0,70526,,1 F,0,70560,,0 F,0,70595,,1 F,0,70595,,1 F,0,70595,,0 F,0,70663,,0 F,0,70731,,1 F,0,70765,,0 F,0,70799,,1 F,0,70833,,0 F,0,70867,,1 F,0,70935,,0 F,0,71004,,1 S,0,71004,,0.75 S,0,71038,,0.6 S,0,71072,,0.75 S,0,71106,,0.5 S,0,71140,,0.75 S,0,71174,,0.6 S,0,71208,,0.75 S,0,71242,,0.5 S,0,71276,,0.75 S,0,71310,,0.6 S,0,71345,,0.75 S,0,71379,,0.5 S,0,71413,,0.75 S,0,71447,,0.6 S,0,71481,,0.75 S,0,71515,,0.5 S,2,71549,71685,0.75,0.6 F,0,79970,,0 F,0,80004,,1 F,0,80038,,0 F,0,80072,,1 F,0,80106,,0 F,0,80140,80208,1,0 R,0,115185,,0.12 M,0,132640,,122,633 R,0,132640,140276,0.12,0 F,0,132708,,0 M,0,132776,,217,420 F,0,166424,,0 F,0,166458,,1 F,0,166526,,0 F,0,166595,,1 F,0,166663,,0 F,0,166731,,1 F,0,166799,,0 F,0,166867,,1 F,0,166935,,0 F,0,167004,,1 F,0,167038,,0 F,0,167072,,1 F,0,167106,,0 F,0,167140,,1 F,0,167174,,0 F,0,167208,,1 F,0,167242,,0 F,0,167276,,1 F,0,167310,,0 F,0,167345,,1 F,0,167379,,0 F,0,167413,,1 F,0,167447,,0 F,0,167481,,1 F,0,167515,,0 S,0,189367,189640,0.7,0.6 S,0,189913,190185,0.8,0.6 S,0,190458,190731,0.9,0.6 S,0,191004,191276,1,0.6 F,0,191549,195913,1,0 S,0,191549,195913,1.1,0.1 R,0,191549,195913,0,0.7999994
//Storyboard Sound Samples
//Background Colour Transformations
3,100,163,162,255

[TimingPoints]
6095,272.727272727273,4,2,0,100,1,0
9845,-100,4,1,0,60,0,0
10390,-100,4,1,0,100,0,0
58458,-200,4,2,0,100,0,0
69367,-100,4,2,0,100,0,0

[Colours]
Combo1 : 251,77,207
Combo2 : 77,251,77
Combo3 : 251,112,77
Combo4 : 77,77,251
Combo5 : 251,251,77

[HitObjects]
32,36,6094,2,4,B|80:68|124:36,1,100,4|0
181,91,6367,1,2
256,64,6504,1,0
316,116,6640,1,0
316,116,6708,1,0
316,116,6776,1,2
384,76,6913,1,0
464,60,7049,1,0
440,136,7185,6,8,B|432:192|480:220,1,100,8|0
368,188,7458,1,0
296,232,7594,2,8,B|240:224|212:272,1,100,8|0
284,308,7867,1,0
320,328,7935,1,0
356,348,8004,1,2
144,232,8140,1,0
196,140,8276,5,8
61,189,8413,1,0
11,55,8549,1,8
146,5,8685,1,0
366,5,8822,5,0
501,55,8958,1,8
451,189,9094,1,0
316,140,9231,1,8
180,320,9367,5,0
180,320,9435,1,0
180,320,9504,1,2
332,320,9640,5,0
332,320,9708,1,0
332,320,9776,1,2
132,192,9913,6,0,B|124:252|68:260,1,100
380,192,10185,2,0,B|388:132|444:124,1,100,0|0
256,28,10458,5,2
216,96,10594,1,0
296,96,10731,1,0
180,28,10867,1,0
332,28,11004,1,2
256,160,11140,1,0
256,232,11276,2,0,B|256:336,1,100
184,300,11549,5,2
180,308,11617,1,0
176,316,11685,1,0
328,256,11822,5,0
332,264,11890,1,0
336,272,11958,1,0
184,212,12094,5,8
180,220,12163,1,0
176,228,12231,1,0
328,172,12367,5,0
332,180,12435,1,0
336,188,12504,1,0
184,136,12640,5,2
332,32,12776,1,0
165,63,12913,5,0
342,104,13049,1,2
256,88,13185,1,0
256,88,13254,1,0
256,88,13322,1,2
112,116,13458,6,0,B|104:176|152:200,1,100
180,336,13731,2,0,B|240:344|264:296,1,100,2|0
332,48,14004,2,0,B|272:40|248:88,1,100
400,268,14276,2,0,B|408:208|360:184,1,100,2|0
256,192,14549,1,0
260,204,14617,1,0
264,220,14685,1,0
268,232,14754,1,0
272,244,14822,1,2
196,264,14958,6,0,B|180:212,2,50
316,264,15231,1,0
316,120,15367,2,0,B|296:72,2,50,2|0|0
196,120,15640,1,0
256,368,15776,1,0
132,192,15913,5,2
380,192,16049,1,0
132,107,16185,5,2
379,274,16322,1,0
166,37,16458,5,2
345,345,16594,1,0
256,68,16731,5,0
256,316,16867,1,0
388,96,17004,5,2
352,324,17140,1,0
124,288,17276,1,2
160,60,17413,1,0
312,112,17549,5,2
336,248,17685,1,0
200,272,17822,1,2
176,136,17958,1,0
144,212,18095,6,0,B|88:204|56:248,1,100,8|0
368,172,18367,2,0,B|424:180|456:136,1,100,8|0
256,72,18640,2,0,B|256:44,4,25
256,312,18913,2,0,B|256:340,4,25
328,256,19185,6,2,B|348:308|408:308,1,100,2|0
256,192,19458,1,0
328,128,19595,1,0
184,128,19731,2,2,B|164:76|104:76,1,100,2|0
184,256,20004,1,0
369,187,20140,6,2,B|396:176|416:136|412:84|359:57|359:57|312:48,1,200
284,324,20549,2,2,B|287:349|318:384|363:374,1,100,2|0
142,196,20822,2,2,B|120:208|96:248|120:288,1,100,2|0
252,80,21095,2,2,B|244:57|216:49,2,50
200,140,21367,5,8
88,140,21504,1,0
88,248,21640,1,0
196,256,21776,6,0,B|212:316|168:348,1,100,0|8
120,284,22049,1,0
256,144,22185,1,0
392,284,22322,1,0
120,72,22458,5,8
376,56,22595,1,8
392,312,22731,1,8
136,328,22867,1,8
104,192,23004,5,0
64,196,23072,1,0
24,200,23140,1,0
408,192,23276,5,0
448,188,23345,1,0
488,184,23413,1,0
256,32,23549,5,12
192,352,23822,5,0
320,328,23958,1,2
330,91,24231,5,0
330,91,24299,1,0
330,91,24367,1,2
304,281,24504,1,0
141,158,24640,1,2
370,194,24776,1,0
208,72,24913,1,10
177,261,25049,1,0
330,91,25185,1,10
256,176,25322,1,0
256,176,25390,1,0
256,176,25458,1,0
80,224,25595,5,0
80,224,25663,1,0
80,224,25731,2,0,B|76:288|128:320,1,100,2|0
256,176,26004,1,0
348,336,26140,1,0
168,244,26276,1,0
344,244,26413,1,0
256,352,26549,1,0
164,156,26685,1,0
348,156,26822,1,2
164,336,26958,5,0
168,344,27026,1,0
172,352,27095,1,2
348,336,27231,5,0
344,344,27299,1,0
340,352,27368,1,2
256,264,27504,5,0
76,264,27640,1,0
164,156,27776,1,0
256,264,27913,1,2
348,156,28049,1,0
348,156,28117,1,0
348,156,28185,1,0
436,264,28322,1,0
436,264,28390,1,0
436,264,28458,1,8
256,160,28595,6,0,B|256:60,1,100
176,120,28867,2,0,B|165:63|100:53,1,100,0|10
336,264,29140,2,0,B|346:320|411:330,1,100,0|10
336,120,29413,2,0,B|346:63|411:53,1,100,0|10
176,264,29685,2,0,B|165:320|100:330,1,100,0|10
416,192,29958,2,0,B|473:205|503:155,1,100,0|0
96,192,30231,6,0,B|40:178|10:228,1,100,0|2
256,112,30504,1,0
256,260,30640,1,8
124,188,30776,1,0
124,36,30913,1,0
256,112,31049,1,0
388,36,31185,1,2
388,188,31322,1,0
144,304,31458,5,2
388,188,31595,1,0
124,36,31731,1,2
388,36,31867,1,0
124,188,32004,1,0
132,188,32072,1,0
140,188,32140,1,0
148,188,32208,1,0
156,188,32276,5,4
256,312,32413,1,0
256,232,32549,1,2
324,272,32685,1,0
188,272,32822,2,0,B|159:318|104:316,1,100,0|2
324,272,33095,2,0,B|353:225|408:228,1,100,0|0
156,128,33367,5,2
324,272,33504,1,0
188,272,33640,1,2
356,128,33776,1,0
256,352,33913,1,2
256,184,34049,1,0
256,16,34185,1,8
256,16,34254,1,0
256,16,34322,1,0
256,16,34390,1,0
256,16,34458,6,2,B|144:8|60:72|40:192,1,300
120,344,35004,1,0
256,244,35140,1,8
392,344,35276,1,0
256,352,35413,1,0
352,264,35549,2,2,B|348:176|256:126|164:176|160:264,1,300
160,264,36095,1,2
352,264,36231,1,0
256,352,36367,5,0
256,352,36435,1,0
256,352,36504,1,0
256,352,36572,1,0
256,352,36640,1,0
176,344,36776,1,0
256,264,36913,1,2
336,344,37049,1,0
176,344,37185,1,8
336,344,37322,1,0
256,264,37458,5,0
256,264,37526,1,0
256,264,37595,1,0
184,216,37731,6,0,B|120:216|100:280,1,100,8|0
328,216,38004,2,0,B|392:216|412:280,1,100,8|0
184,136,38276,2,0,B|128:132|88:168,1,100,8|0
328,136,38549,2,0,B|356:136|384:152,4,50,8|0|0|0|0
496,72,38958,5,2
304,72,39095,1,0
400,224,39231,1,0
400,16,39367,1,2
304,184,39504,1,0
496,184,39640,1,0
400,124,39776,1,0
116,160,39913,5,0
212,312,40049,1,0
20,312,40186,1,2
212,200,40322,1,0
20,204,40458,1,0
116,368,40595,1,2
116,260,40731,1,0
116,260,40799,1,0
116,260,40867,1,0
116,260,40935,1,0
116,260,41004,1,4
48,32,58458,6,2,B|91:128|5:128|48:224,1,200
116,268,59276,2,0,B|104:320,2,50,0|0|2
220,204,59821,1,0
220,204,59958,2,2,B|228:260|184:296,1,100
260,328,60504,1,0
260,328,60641,2,2,B|312:320|352:364,1,100
384,340,61049,1,0
420,324,61185,2,2,B|472:300|480:244,1,100
456,164,61731,2,2,B|400:184|400:248,1,100
332,280,62276,1,0
328,200,62549,1,2
368,132,62822,6,0,B|376:80,2,50
292,104,63367,2,8,B|236:92|196:124,1,100,8|0
168,92,63776,2,8,B|119:123|114:174,1,100,8|0
128,212,64185,2,0,B|132:264,2,50,0|0|2
204,188,64731,1,0
208,268,65004,2,2,B|240:316|296:308,1,100
364,272,65549,2,2,B|332:224|276:232,1,100
304,156,66095,5,2
220,144,66368,1,2
208,228,66640,1,2
292,240,66913,1,2
428,44,67185,6,2,B|420:48|424:48|424:48|416:44|420:44|420:44|412:48|416:48|416:48|408:44|412:44|412:44|404:48|408:48|408:48|400:44|404:44|404:44|396:48|400:48|400:48|392:44|396:44|396:44|388:48|392:48|392:48|384:44|388:44|388:44|380:48|384:48|384:48|376:44|380:44|380:44|372:48|376:48|376:48|368:44|372:44|372:44|364:48|368:48|368:48|358:45|328:45,1,150
256,180,68004,1,2
84,44,68276,6,2,B|92:48|88:48|88:48|96:44|92:44|92:44|100:48|96:48|96:48|104:44|100:44|100:44|108:48|104:48|104:48|112:44|108:44|108:44|116:48|112:48|112:48|120:44|116:44|116:44|124:48|120:48|120:48|128:44|124:44|124:44|132:48|128:48|128:48|136:44|132:44|132:44|140:48|136:48|136:48|144:44|140:44|140:44|148:48|144:48|144:48|154:45|184:45,1,150
256,180,69095,1,2
188,240,69367,6,0,B|164:288|188:336,1,100
323,336,69640,2,0,B|348:288|324:240,1,100,2|0
188,144,69913,5,0
323,47,70049,1,0
188,47,70185,1,2
323,144,70322,1,0
324,224,70458,6,8,B|376:240,2,50
256,268,70663,1,0
188,224,70731,6,8,B|136:240,2,50
256,180,71004,2,2,B|256:152,15,25
256,136,71549,5,4
416,136,71822,5,0
416,300,71958,1,0
256,352,72095,1,2
96,300,72231,1,0
96,136,72367,2,2,B|96:112,4,25
256,136,72640,5,12
192,284,72776,1,0
320,284,72913,1,0
180,196,73049,1,0
332,196,73185,1,8
256,56,73458,2,8,B|256:32,7,25
256,12,73731,5,12
392,12,73867,1,0
328,108,74004,1,0
184,108,74140,1,0
120,12,74276,1,2
256,200,74413,5,0
184,276,74549,1,0
328,276,74685,1,0
392,372,74822,1,2
120,372,74958,1,0
256,372,75095,1,0
400,200,75231,1,0
112,200,75367,2,8,B|88:200,7,25
68,200,75640,1,12
256,200,75913,5,12
352,48,76185,1,0
256,100,76322,1,0
160,48,76458,1,2
256,288,76731,2,2,B|256:312,7,25
256,333,77004,1,12
380,336,77140,5,0
256,200,77276,1,0
132,48,77413,1,12
420,192,77822,2,2,B|448:192,7,25
464,192,78095,1,12
256,52,78231,5,0
48,192,78367,1,0
67,192,78435,1,0
87,192,78504,1,0
106,192,78572,1,0
125,192,78640,1,12
256,332,78776,5,0
464,192,78913,1,0
445,192,78981,1,0
425,192,79050,1,0
406,192,79118,1,0
387,192,79186,1,12
152,92,79322,5,0
360,292,79458,1,12
152,292,79595,1,0
360,92,79731,1,12
256,352,79867,1,12
256,32,80004,1,12
256,356,80276,5,0
316,300,80413,2,0,B|368:312|408:264,1,100,2|0
340,224,80685,1,0
256,180,80822,1,0
172,224,80958,1,2
196,300,81095,2,0,B|144:312|104:264,1,100
120,188,81367,5,2
256,252,81504,1,0
392,188,81640,1,2
256,104,81776,5,4
68,340,82049,1,0
444,340,82322,1,8
184,144,82595,5,0
328,144,82731,1,2
256,252,82867,1,0
144,108,83004,1,2
368,108,83140,1,0
256,308,83276,1,0
256,180,83413,1,0
108,72,83549,6,2,B|24:72|4:180|100:196,1,200,2|0
404,72,83958,2,2,B|488:72|508:180|412:196,1,200,2|0
256,88,84367,5,2
200,176,84504,1,0
312,176,84640,1,4
96,360,84913,5,0
112,280,85049,1,0
172,336,85185,2,0,B|232:324|256:372,1,100,2|0
340,332,85458,1,8
400,280,85595,1,0
416,356,85731,1,4
256,16,86004,5,0
168,104,86140,2,0,B|256:152|256:152|344:104,2,200,4|0|4
256,348,86958,1,0
256,348,87026,1,0
256,348,87095,1,2
320,284,87231,1,0
192,284,87367,1,2
384,352,87504,1,0
128,352,87640,1,2
256,216,87776,5,0
92,32,88049,1,0
420,32,88322,1,2
420,32,88458,1,2
256,32,88595,5,2
256,40,88663,1,0
256,48,88731,1,2
256,56,88799,1,0
256,64,88867,1,2
256,72,88936,1,0
256,80,89004,1,4
72,308,89276,5,0
120,244,89413,1,8
200,260,89549,2,0,B|256:344,1,100
312,264,89822,1,0
392,244,89958,1,0
440,308,90095,1,4
84,88,90367,5,0
84,88,90504,1,4
456,88,90776,5,0
448,88,90845,1,0
440,88,90913,1,2
432,88,90981,1,0
424,88,91049,1,2
184,172,91185,6,0,B|112:132|32:192|36:268,1,200,12|0
328,172,91595,2,0,B|400:132|480:192|476:268,1,200,12|0
476,264,91935,1,0
476,276,92004,1,2
160,304,92140,1,0
352,304,92276,1,12
148,40,92549,5,0
364,40,92685,1,12
256,276,92958,2,0,B|256:328,2,50,0|0|2
208,212,93231,1,0
304,212,93367,1,4
112,340,93640,6,0,B|64:308|84:248,1,100,0|4
400,44,93913,2,0,B|448:76|428:136,1,100,2|0
100,352,94185,2,0,B|52:320|72:260,1,100
256,24,94458,1,4
400,336,94731,1,0
112,340,94867,1,4
112,48,95140,1,0
188,68,95276,1,2
256,24,95413,1,0
324,68,95549,1,4
400,48,95685,1,0
400,48,95754,1,0
400,48,95822,1,0
300,152,95958,6,0,B|388:220,1,100,4|0
212,152,96231,2,0,B|124:220,1,100,0|2
256,280,96504,1,0
156,304,96640,2,0,B|136:312|112:288,2,50,8|0|0
256,368,96913,1,0
356,304,97049,2,0,B|376:312|400:288,2,50,8|0|0
256,196,97322,1,0
156,304,97458,1,2
356,304,97595,1,0
312,180,97731,6,0,B|312:244|252:244,1,100,12|0
204,180,98004,2,0,B|140:180|140:120,1,100,12|0
256,96,98276,2,0,B|256:32|316:32,1,100,12|0
312,180,98549,2,0,B|376:180|376:240,1,100,12|0
44,320,98822,1,4
468,320,99095,1,12
256,192,99231,1,2
256,192,99367,1,12
312,120,99504,6,0,B|364:128|408:68,1,100,0|12
200,264,99776,2,0,B|148:256|104:316,1,100,0|12
344,192,100049,2,0,B|396:196|444:140,1,100,0|12
168,192,100322,2,0,B|116:188|68:244,1,100,0|12
312,264,100595,1,0
200,120,100731,1,14
312,264,100867,1,0
256,192,101004,2,4,B|312:212|364:168|356:84|308:72,2,200,14|12|14
112,108,101685,5,0
256,328,101822,1,12
400,108,101958,1,0
100,268,102095,1,4
412,268,102231,1,0
148,32,102367,5,12
204,96,102504,1,0
256,28,102640,1,14
308,96,102776,1,0
364,32,102913,1,12
256,172,103049,1,0
148,32,103185,2,0,B|64:92|96:216,1,200,4|0
364,32,103595,2,0,B|448:92|416:216,1,200,4|0
344,272,104004,1,2
168,272,104140,1,0
256,360,104276,1,12
256,24,104549,1,0
124,116,104822,5,2
256,184,104958,1,0
120,280,105095,1,2
256,368,105231,1,2
392,280,105367,1,0
256,184,105504,1,0
256,184,105572,1,0
256,184,105640,1,2
388,116,105776,1,0
392,280,105913,5,2
120,280,106049,1,0
388,116,106185,1,2
124,116,106322,1,0
256,368,106458,1,12
0,0,106731,5,0
256,368,107004,1,12
512,384,107276,5,0
256,16,107549,1,12
0,384,107822,5,0
512,192,108095,1,12
512,0,108367,5,0
0,192,108640,5,12
32,264,108776,1,0
92,320,108913,1,0
168,340,109049,1,0
512,192,109185,5,12
480,120,109321,1,0
420,64,109458,1,0
344,44,109594,1,0
0,192,109731,5,12
32,120,109867,1,0
92,64,110004,1,0
168,44,110140,1,0
512,192,110276,5,12
480,264,110412,1,0
420,320,110549,1,0
344,340,110685,1,0
260,0,110822,6,0,B|360:0,1,100,4|2
248,0,111095,2,0,B|148:0,1,100
296,72,111367,6,0,B|404:72,1,100,4|2
216,72,111640,2,0,B|108:72,1,100
324,144,111913,6,0,B|444:144,1,100,4|2
188,144,112185,2,0,B|84:144,1,100
352,216,112458,6,0,B|452:216,1,100,4|2
160,216,112731,2,0,B|32:216,1,100
324,284,113004,5,12
188,284,113140,1,0
324,284,113276,1,12
188,284,113412,1,0
299,352,113549,5,12
219,352,113686,1,0
299,352,113822,1,12
219,352,113959,1,0
116,284,114095,5,12
396,100,114231,1,12
116,100,114367,1,12
396,284,114503,1,12
256,192,114640,5,12
256,211,114708,1,0
256,230,114776,1,12
256,250,114845,1,0
256,269,114913,1,12
256,288,114981,1,0
256,307,115049,1,12
256,327,115118,1,0
256,346,115185,1,2
56,40,123913,6,2,B|68:40|60:36|60:36|72:40|64:44|64:44|76:40|68:36|68:36|80:40|72:44|72:44|88:40|76:36|76:36|84:40|80:44|80:44|92:40|84:36|84:36|96:40|88:44|88:44|100:40|92:36|92:36|104:40|96:44|96:44|108:40|100:36|100:36|112:40|104:44|104:44|116:40|108:36|108:36|120:40|120:40|332:40|332:40,1,400
256,192,124731,1,0
408,0,125004,6,2,B|408:4|412:-4|412:-4|408:8|404:0|404:0|408:12|412:4|412:4|408:16|404:8|404:8|408:24|412:12|412:12|408:20|404:16|404:16|408:28|412:20|412:20|408:32|404:24|404:24|408:36|412:28|412:28|408:40|404:32|404:32|408:44|412:36|412:36|408:48|404:40|404:40|408:52|412:44|412:44|408:56|408:56|408:268|408:268,1,400
256,192,125822,1,0
456,344,126095,6,2,B|444:344|452:348|452:348|440:344|448:340|448:340|436:344|444:348|444:348|432:344|440:340|440:340|424:344|436:348|436:348|428:344|432:340|432:340|420:344|428:348|428:348|416:344|424:340|424:340|412:344|420:348|420:348|408:344|416:340|416:340|404:344|412:348|412:348|400:344|408:340|408:340|396:344|404:348|404:348|392:344|392:344|180:344|180:344,1,400
256,192,126913,1,0
92,372,127186,6,2,B|92:360|88:368|88:368|92:356|96:364|96:364|92:352|88:360|88:360|92:348|96:356|96:356|92:340|88:352|88:352|92:344|96:348|96:348|92:336|88:344|88:344|92:332|96:340|96:340|92:328|88:336|88:336|92:324|96:332|96:332|92:320|88:328|88:328|92:316|96:324|96:324|92:312|88:320|88:320|92:308|92:308|92:96|92:96,1,400
256,180,128004,1,0
176,168,128276,6,2,B|176:156|176:156|180:76|268:0|440:64|444:236|372:324|264:356|168:364|68:332|0:348|-28:144|-40:-8|72:-100|164:-136|388:-88|408:-56|492:4|496:136|488:248|444:328|376:352|296:400|192:388,2,1600
256,36,132913,5,0
324,132,133049,1,0
188,132,133185,1,2
356,344,133458,2,0,B|148:344,1,200,0|8
148,192,134004,5,0
364,192,134140,1,0
100,120,134276,1,2
412,120,134413,1,0
104,264,134549,1,2
408,264,134685,1,0
256,92,134822,1,4
24,368,135095,5,0
488,368,135367,1,8
64,32,135640,5,0
64,224,135776,1,2
448,32,136049,5,0
256,320,136185,1,0
64,32,136322,1,0
256,192,136458,1,2
84,324,136595,1,0
428,324,136731,1,0
64,32,137004,6,0,B|60:40|60:40|68:40|68:40|60:48|60:48|68:48|68:48|60:56|60:56|68:56|68:56|60:68|60:68|68:68|68:68|60:60|60:60|68:60|68:60|60:76|60:76|68:76|68:76|60:84|60:84|68:84|68:84|60:92|60:92|68:92|68:92|60:100|60:100|68:100|68:100|60:108|60:108|64:120|64:120|68:108|68:108|64:100,2,200,8|0|2
256,268,137822,1,0
380,60,137958,1,0
132,60,138095,1,2
32,364,138367,5,0
480,364,138640,1,2
256,16,138913,1,0
192,168,139049,1,0
320,168,139185,1,8
0,172,139458,1,0
512,172,139731,1,2
92,92,140004,5,0
256,264,140140,1,0
420,92,140276,1,2
256,192,140345,12,4,141367
4,376,141640,5,0
512,192,141913,1,8
4,8,142185,1,0
508,376,142458,1,2
0,192,142731,1,0
508,8,143004,1,8
256,384,143276,1,0
256,0,143549,1,4
4,376,143822,1,0
168,264,144095,5,2
256,132,144231,1,2
344,264,144367,1,0
136,144,144504,1,0
376,144,144640,2,0,B|432:132|484:144|504:208|480:268,1,200,2|0
256,308,145049,1,4
348,40,145322,5,0
164,40,145458,1,2
32,372,145731,5,2
256,4,146004,1,0
480,372,146276,1,8
24,192,146549,1,0
488,192,146822,1,2
100,192,147095,1,0
416,192,147367,1,8
24,24,147640,1,8
488,24,147913,1,4
256,364,148185,5,0
120,264,148322,1,0
384,204,148458,1,8
160,136,148595,1,0
352,76,148731,1,2
40,364,149004,5,2
472,364,149276,1,2
256,12,149549,1,10
256,368,149822,1,10
472,40,150095,5,12
468,60,150163,1,0
464,80,150231,1,0
256,108,150367,1,0
48,80,150504,1,12
44,60,150572,1,0
40,40,150640,1,0
132,184,150776,5,0
380,184,150913,1,12
256,32,151049,1,0
256,352,151185,2,12,B|252:304|292:252|344:244|400:272,1,200,12|0
256,32,151595,2,12,B|260:80|220:132|168:140|112:112,1,200,12|0
312,136,152004,5,0
284,164,152072,1,0
256,192,152140,1,0
228,220,152208,1,0
200,248,152276,1,12
64,192,152413,5,0
448,40,152549,1,0
448,344,152685,1,0
64,192,152821,1,12
448,192,152958,2,0,B|408:212|372:192|364:156,2,100
64,40,153367,1,12
64,344,153503,1,0
448,192,153639,1,0
64,192,153776,2,0,B|104:212|140:192|148:156,2,100,0|12|0
162,252,154185,5,2
178,242,154254,1,2
194,231,154322,1,2
210,221,154390,1,2
226,211,154458,5,2
332,76,154595,1,0
180,308,154731,1,0
140,116,154867,1,0
372,268,155003,1,2
252,192,155140,2,0,B|232:96,2,100
391,163,155549,1,2
120,220,155685,1,0
227,56,155821,1,8
284,327,155957,1,0
140,116,156095,2,2,B|40:60,1,100
332,76,156367,2,0,B|408:8,1,100,8|0
188,296,156640,6,2,B|108:360|0:344,1,200
324,296,157049,2,2,B|404:360|512:344,1,200
184,192,157458,1,0
328,192,157595,1,0
108,192,157731,1,2
404,192,157867,1,2
40,192,158004,1,2
472,192,158140,1,2
108,192,158276,1,2
404,192,158412,1,2
256,192,158549,1,2
256,192,158617,1,2
256,192,158686,1,2
256,44,158822,6,2,B|204:24|160:52,1,100
404,192,159095,2,2,B|424:140|396:96,1,100
256,340,159367,1,2
108,192,159504,1,0
256,340,159640,1,2
108,192,159776,1,0
256,340,159913,6,2,B|308:360|352:332,1,100
108,192,160186,2,2,B|88:244|116:288,1,100
256,44,160458,1,2
404,192,160595,1,0
256,44,160731,1,2
404,192,160867,1,0
364,84,161004,5,2
364,300,161140,1,0
148,300,161276,1,2
148,84,161412,1,0
412,28,161549,5,2
412,356,161685,1,0
92,348,161822,1,2
92,36,161958,1,2
68,104,162095,5,2
64,124,162163,1,2
72,144,162231,1,2
344,4,162367,5,2
324,0,162435,1,2
304,8,162503,1,2
444,280,162640,5,2
448,260,162708,1,2
440,240,162776,1,2
168,380,162913,5,2
188,384,162981,1,2
208,376,163049,1,2
256,192,163185,5,12
308,252,163322,1,0
384,224,163458,2,0,B|382:198|383:199|400:178,2,50
256,312,163731,1,2
212,136,163867,2,0,B|204:112|205:112|216:88,2,50
356,312,164140,1,0
316,152,164276,2,2,B|360:120|416:136,1,100
200,236,164549,2,2,B|158:271|161:329,1,100
272,88,164822,1,2
152,180,164958,1,2
272,88,165095,1,2
152,180,165231,1,2
96,328,165367,5,8
416,328,165640,1,8
96,56,165913,1,8
416,56,166186,1,8
256,372,166458,5,2
76,192,166595,1,2
256,16,166731,1,2
436,192,166867,1,2
416,56,167004,5,2
376,64,167072,1,0
340,84,167140,1,2
312,112,167208,1,0
296,148,167276,1,2
272,180,167345,1,0
256,216,167413,1,2
228,244,167481,1,0
192,264,167549,1,12
36,36,167822,5,4
256,36,168095,5,2
344,104,168231,1,0
168,104,168367,1,2
376,196,168504,1,0
136,196,168640,1,4
256,36,168776,2,0,B|256:88,2,50,0|0|2
256,184,169049,1,0
256,304,169185,1,8
360,304,169322,1,0
152,304,169458,1,8
360,304,169595,1,0
152,304,169731,1,4
136,60,169867,6,0,B|40:36,1,100
376,324,170140,2,0,B|472:348,1,100,0|2
256,192,170413,1,0
28,132,170549,1,0
256,56,170685,1,0
484,132,170822,1,2
176,288,170958,5,0
208,328,171026,1,0
256,352,171095,1,0
304,328,171163,1,0
336,288,171231,1,0
336,236,171299,1,0
308,188,171367,1,2
256,192,171435,1,0
204,188,171504,1,0
176,140,171572,1,0
176,88,171640,1,2
208,48,171708,1,0
256,24,171776,1,0
308,48,171845,1,0
336,88,171913,1,4
120,184,172049,6,0,B|28:136,1,100,0|2
392,200,172322,2,0,B|480:246,1,100,0|4
460,68,172595,1,0
256,256,172731,1,0
52,68,172867,1,0
256,256,173004,1,2
392,200,173140,6,0,B|432:232|436:288,1,100,0|2
120,200,173413,2,0,B|80:168|76:112,1,100,0|8
348,308,173685,1,0
164,308,173822,1,8
256,108,173958,1,0
392,200,174095,5,2
120,200,174231,1,0
120,200,174299,1,0
120,200,174367,1,8
204,92,174504,5,0
308,92,174640,1,2
308,192,174776,1,0
204,192,174913,1,8
204,72,175049,1,0
308,72,175185,1,2
308,212,175322,1,0
204,212,175458,1,8
256,48,175595,1,0
308,236,175731,1,8
204,236,175867,1,0
156,136,176004,5,2
204,160,176072,1,0
256,148,176140,1,2
312,168,176208,1,0
356,136,176276,1,4
256,380,176413,6,0,B|200:396|160:364,1,100,0|8
256,4,176685,2,0,B|312:-12|352:20,1,100,0|4
504,192,176958,2,0,B|520:248|488:288,1,100,0|8
8,192,177230,2,0,B|-8:136|24:96,1,100,0|4
256,4,177504,6,0,B|200:-12|160:20,1,100,0|8
256,380,177776,2,0,B|312:396|352:364,1,100,0|4
472,192,178049,2,0,B|488:136|456:96,1,100,0|8
32,192,178321,6,0,B|16:248|48:288,1,100,0|4
256,308,178595,1,0
96,192,178731,1,10
416,192,178867,1,0
256,80,179004,1,12
136,316,179140,1,0
376,316,179276,1,8
96,192,179413,1,0
176,88,179549,5,6
216,16,179685,1,0
296,16,179822,1,10
336,88,179958,1,0
256,80,180095,1,6
256,160,180231,1,0
256,236,180367,5,8
256,316,180503,1,2
176,308,180640,1,4
216,380,180776,1,2
296,380,180913,1,8
336,308,181049,1,2
380,376,181185,2,0,B|444:368|464:316|468:264|412:224,1,200,4|8
256,64,181731,5,6
188,8,181868,1,0
120,64,182004,1,8
52,8,182141,1,0
40,104,182277,1,12
120,156,182413,1,0
192,108,182550,1,8
120,156,182686,1,0
256,236,182822,5,14
492,20,183095,5,0
256,376,183231,1,0
20,24,183367,1,14
500,376,183640,5,2
256,48,183776,1,2
256,36,183844,1,2
256,24,183913,1,12
12,376,184185,1,2
256,24,184458,1,14
400,112,185004,5,6
400,112,185140,2,0,B|448:88|496:112,1,100,0|2
112,112,185413,2,0,B|64:88|16:112,1,100,0|2
208,320,185685,2,0,B|256:344|304:320,1,100,0|2
256,192,185958,1,0
404,280,186095,5,2
436,304,186163,1,0
468,328,186231,1,0
108,280,186367,1,2
76,304,186435,1,0
44,328,186503,1,0
256,84,186640,1,2
256,44,186708,1,0
256,0,186776,1,0
164,192,186913,1,0
348,192,187049,1,0
112,80,187185,5,4
144,336,187322,1,0
400,304,187458,1,0
368,48,187595,1,4
144,336,187867,1,0
420,192,188004,5,12
92,192,188140,1,0
257,274,188276,1,12
256,316,188345,1,0
256,356,188413,1,0
256,192,188549,5,0
256,192,188685,1,0
256,272,188822,1,2
256,112,188958,1,0
336,192,189095,1,2
176,192,189231,1,0
0,0,189367,5,12
512,0,189640,1,0
0,384,189913,5,12
512,384,190186,1,0
112,48,190458,5,12
400,48,190595,1,0
112,336,190731,1,12
400,336,190868,1,0
256,16,191004,5,12
52,192,191141,1,0
459,192,191277,1,12
256,368,191414,1,0
256,192,191549,12,2,195913
