osu file format v12

[General]
AudioFilename: rd.mp3
AudioLeadIn: 0
PreviewTime: -1
Countdown: 0
SampleSet: Soft
StackLeniency: 0.7
Mode: 3
LetterboxInBreaks: 1

[Editor]
DistanceSpacing: 2
BeatDivisor: 1
GridSize: 8

[Metadata]
Title:Rainbow Dash Likes Girls (Stay Gay Pony Girl)
TitleUnicode:Rainbow Dash Likes Girls (Stay Gay Pony Girl)
Artist:Renard
ArtistUnicode:Renard
Creator:NekomataMaster
Version:Sonic Rainboom!!
Source:My Little Pony : Friendship is Magic
Tags:mlp my little pony friendship is magic renard mania
BeatmapID:226451
BeatmapSetID:81521

[Difficulty]
HPDrainRate:7
CircleSize:7
OverallDifficulty:5
ApproachRate:5
SliderMultiplier:1.4
SliderTickRate:1

[Events]
//Background and Video events
0,0,"sonic rainboom.png",1,1
Video,611,"Renard - Rainbow Dash Likes Girls (Stay Gay Pony Girl) - YouTube.FLV"
//Break Periods
2,41655,57710
//Storyboard Layer 0 (Background)
//Storyboard Layer 1 (Fail)
//Storyboard Layer 2 (Pass)
//Storyboard Layer 3 (Foreground)
//Storyboard Sound Samples
Sample,545,0,"pony.wav",70
//Background Colour Transformations
3,100,163,162,255

[TimingPoints]
0,272.727272727273,4,2,0,0,1,0
22909,181.818181818182,4,2,0,0,1,0
22977,545.454545454546,4,2,0,0,1,0
23045,181.818181818182,4,2,0,0,1,0
23113,545.454545454546,4,2,0,0,1,0
23181,181.818181818182,4,2,0,0,1,0
23250,545.454545454546,4,2,0,0,1,0
23318,181.818181818182,4,2,0,0,1,0
23386,545.454545454546,4,2,0,0,1,0
23454,545.454545454546,4,2,0,0,1,0
23522,545.454545454546,4,2,0,0,1,0
24000,272.727272727273,4,2,0,0,1,0
41455,1090.90909090909,4,2,0,0,1,0
58910,545.454545454546,4,2,0,0,1,0
69819,272.727272727273,4,2,0,0,1,0
70910,90.9090909090909,4,2,0,0,1,0
71114,181.818181818182,4,2,0,0,1,0
71250,272.727272727273,4,2,0,0,1,0
71455,128.342245989305,4,2,0,0,1,0
72000,54.5454545454545,4,2,0,0,1,0
72273,545.454545454546,4,2,0,0,1,0
72750,160.239290674073,4,2,0,0,1,0
73091,272.727272727273,4,2,0,0,1,0
73909,0.915527345146984,4,2,0,0,1,0
73913,545.454545454546,4,2,0,0,1,0
73981,0.915527345146984,4,2,0,0,1,0
73985,545.454545454546,4,2,0,0,1,0
74053,0.915527345146984,4,2,0,0,1,0
74057,545.454545454546,4,2,0,0,1,0
74125,0.915527345146984,4,2,0,0,1,0
74129,545.454545454546,4,2,0,0,1,0
74197,272.727272727273,4,2,0,0,1,0
75697,90.9090909090909,4,2,0,0,1,0
76106,90.9090909090909,4,2,0,0,1,0
76242,0.915527345146984,4,2,0,0,1,0
76243,545.454545454546,4,2,0,0,1,0
76379,545.454545454546,4,2,0,0,1,0
76652,233.599377068328,4,2,0,0,1,0
77469,116.874768685354,4,2,0,0,1,0
78287,0.915527345146984,4,2,0,0,1,0
78288,545.454545454546,4,2,0,0,1,0
78443,545.454545454546,4,2,0,0,1,0
78443,0.915527345146984,4,2,0,0,1,0
78571,272.727272727273,4,2,0,0,1,0
79048,545.454545454546,4,2,0,0,1,0
79048,0.915527345146984,4,2,0,0,1,0
79112,272.727272727273,4,2,0,0,1,0
79593,545.454545454546,4,2,0,0,1,0
79593,0.915527345146984,4,2,0,0,1,0
79657,272.727272727273,4,2,0,0,1,0
79793,0.915527345146984,4,2,0,0,1,0
79794,545.454545454546,4,2,0,0,1,0
79930,272.727272727273,4,2,0,0,1,0
80066,0.915527345146984,4,2,0,0,1,0
80067,545.454545454546,4,2,0,0,1,0
80203,272.727272727273,4,2,0,0,1,0
80476,54.5454545454545,4,2,0,0,1,0
80639,40,4,2,0,0,1,0
80719,272.727272727273,4,2,0,0,1,0
88901,150,4,2,0,0,1,0
88929,395.454644318207,4,2,0,0,1,0
89003,272.727272727273,4,2,0,0,1,0
89038,100,4,2,0,0,1,0
89056,445.454471212134,4,2,0,0,1,0
89140,272.727272727273,4,2,0,0,1,0
89174,30,4,2,0,0,1,0
89189,758.181728578523,4,2,0,0,1,0
89378,272.727272727273,4,2,0,0,1,0
106901,181.818181818182,4,2,0,0,1,0
107174,545.454545454546,4,2,0,0,1,0
107447,181.818181818182,4,2,0,0,1,0
107719,545.454545454546,4,2,0,0,1,0
107992,181.818181818182,4,2,0,0,1,0
108265,545.454545454546,4,2,0,0,1,0
108538,181.818181818182,4,2,0,0,1,0
108810,545.454545454546,4,2,0,0,1,0
109083,181.818181818182,4,2,0,0,1,0
109356,545.454545454546,4,2,0,0,1,0
109628,181.818181818182,4,2,0,0,1,0
109901,545.454545454546,4,2,0,0,1,0
110174,181.818181818182,4,2,0,0,1,0
110447,545.454545454546,4,2,0,0,1,0
110719,181.818181818182,4,2,0,0,1,0
110992,545.454545454546,4,2,0,0,1,0
111265,181.818181818182,4,2,0,0,1,0
111538,545.454545454546,4,2,0,0,1,0
111810,181.818181818182,4,2,0,0,1,0
112083,545.454545454546,4,2,0,0,1,0
112356,181.818181818182,4,2,0,0,1,0
112628,545.454545454546,4,2,0,0,1,0
112901,181.818181818182,4,2,0,0,1,0
113174,545.454545454546,4,2,0,0,1,0
113447,181.818181818182,4,2,0,0,1,0
113583,545.454545454546,4,2,0,0,1,0
113719,181.818181818182,4,2,0,0,1,0
113856,545.454545454546,4,2,0,0,1,0
113992,181.818181818182,4,2,0,0,1,0
114128,545.454545454546,4,2,0,0,1,0
114265,181.818181818182,4,2,0,0,1,0
114401,545.454545454546,4,2,0,0,1,0
114538,181.818181818182,4,2,0,0,1,0
114606,545.454545454546,4,2,0,0,1,0
114674,181.818181818182,4,2,0,0,1,0
114742,545.454545454546,4,2,0,0,1,0
114810,181.818181818182,4,2,0,0,1,0
114878,545.454545454546,4,2,0,0,1,0
114947,181.818181818182,4,2,0,0,1,0
115015,545.454545454546,4,2,0,0,1,0
115083,181.818181818182,4,2,0,0,1,0
115151,545.454545454546,4,2,0,0,1,0
115219,181.818181818182,4,2,0,0,1,0
115288,545.454545454546,4,2,0,0,1,0
115356,181.818181818182,4,2,0,0,1,0
115424,545.454545454546,4,2,0,0,1,0
115492,181.818181818182,4,2,0,0,1,0
115560,545.454545454546,4,2,0,0,1,0
115628,2181.81818181818,4,2,0,0,1,0
130901,4363.63636363636,4,2,0,0,1,0
131992,2181.81818181818,4,2,0,0,1,0
131992,0.915527345146984,4,2,0,0,1,0
133083,545.454545454546,4,2,0,0,1,0
140720,0.915527345146984,4,2,0,0,1,0
140721,1090.90909090909,4,2,0,0,1,0
141811,218.181818181818,4,2,0,0,1,0
150539,272.727272727273,4,2,0,0,1,0
166902,121.212121212121,4,2,0,0,1,0
166971,363.636363636364,4,2,0,0,1,0
167039,121.212121212121,4,2,0,0,1,0
167107,363.636363636364,4,2,0,0,1,0
167175,121.212121212121,4,2,0,0,1,0
167243,363.636363636364,4,2,0,0,1,0
167311,121.212121212121,4,2,0,0,1,0
167380,363.636363636364,4,2,0,0,1,0
167448,545.454545454546,4,2,0,0,1,0
167993,272.727272727273,4,2,0,0,1,0
183266,0.915527345146984,4,2,0,0,1,0
183267,545.454545454546,4,2,0,0,1,0
183676,272.727272727273,4,2,0,0,1,0
184358,545.454545454546,4,2,0,0,1,0
184358,0.915527345146984,4,2,0,0,1,0
184767,272.727272727273,4,2,0,0,1,0
189813,181.818181818182,4,2,0,0,1,0
190086,545.454545454546,4,2,0,0,1,0
190358,181.818181818182,4,2,0,0,1,0
190631,545.454545454546,4,2,0,0,1,0
190904,181.818181818182,4,2,0,0,1,0
191176,545.454545454546,4,2,0,0,1,0
191449,181.818181818182,4,2,0,0,1,0
191722,545.454545454546,4,2,0,0,1,0

[HitObjects]
256,192,6545,1,0,0:0:0:1:
402,192,6545,1,0,0:0:0:1:
475,192,6545,1,0,0:0:0:1:
109,192,6545,128,0,6613:0:0:0:1:
182,192,6545,128,0,6886:0:0:0:1:
36,192,6545,128,0,6886:0:0:0:1:
329,192,6613,1,0,0:0:0:1:
402,192,6681,1,0,0:0:0:1:
475,192,6750,1,0,0:0:0:1:
109,192,6818,1,0,0:0:0:1:
256,192,6818,1,0,0:0:0:1:
402,192,6818,1,0,0:0:0:1:
329,192,6886,1,0,0:0:0:1:
402,192,6954,1,0,0:0:0:1:
109,192,6954,128,0,7363:0:0:0:1:
182,192,6954,128,0,7022:0:0:0:1:
256,192,6954,128,0,7363:0:0:0:1:
475,192,7022,1,0,0:0:0:1:
182,192,7090,1,0,0:0:0:1:
402,192,7090,1,0,0:0:0:1:
36,192,7090,1,0,0:0:0:1:
329,192,7159,1,0,0:0:0:1:
402,192,7227,1,0,0:0:0:1:
475,192,7295,1,0,0:0:0:1:
182,192,7363,1,0,0:0:0:1:
329,192,7363,1,0,0:0:0:1:
36,192,7363,1,0,0:0:0:1:
256,192,7431,1,0,0:0:0:1:
182,192,7500,1,0,0:0:0:1:
329,192,7500,1,0,0:0:0:1:
109,192,7568,1,0,0:0:0:1:
402,192,7568,1,0,0:0:0:1:
109,192,7636,1,0,0:0:0:1:
256,192,7636,1,0,0:0:0:1:
36,192,7636,1,0,0:0:0:1:
329,192,7636,128,0,7977:0:0:0:1:
402,192,7636,128,0,7704:0:0:0:1:
475,192,7636,128,0,7977:0:0:0:1:
182,192,7704,1,0,0:0:0:1:
109,192,7772,1,0,0:0:0:1:
36,192,7840,1,0,0:0:0:1:
109,192,7909,1,0,0:0:0:1:
256,192,7909,1,0,0:0:0:1:
402,192,7909,1,0,0:0:0:1:
182,192,7977,1,0,0:0:0:1:
109,192,8045,1,0,0:0:0:1:
256,192,8045,128,0,8454:0:0:0:1:
329,192,8045,128,0,8113:0:0:0:1:
402,192,8045,128,0,8454:0:0:0:1:
36,192,8113,1,0,0:0:0:1:
109,192,8181,1,0,0:0:0:1:
329,192,8181,1,0,0:0:0:1:
475,192,8181,1,0,0:0:0:1:
182,192,8250,1,0,0:0:0:1:
109,192,8318,1,0,0:0:0:1:
36,192,8386,1,0,0:0:0:1:
182,192,8454,1,0,0:0:0:1:
329,192,8454,1,0,0:0:0:1:
475,192,8454,1,0,0:0:0:1:
256,192,8522,1,0,0:0:0:1:
182,192,8590,1,0,0:0:0:1:
329,192,8590,1,0,0:0:0:1:
109,192,8659,1,0,0:0:0:1:
402,192,8659,1,0,0:0:0:1:
256,192,8727,1,0,0:0:0:1:
109,192,8727,128,0,8863:0:0:0:1:
402,192,8727,128,0,8863:0:0:0:1:
36,192,8727,128,0,8863:0:0:0:1:
475,192,8727,128,0,8863:0:0:0:1:
182,192,8795,1,0,0:0:0:1:
329,192,8863,1,0,0:0:0:1:
256,192,8931,1,0,0:0:0:1:
182,192,9000,1,0,0:0:0:1:
329,192,9000,1,0,0:0:0:1:
109,192,9068,1,0,0:0:0:1:
402,192,9068,1,0,0:0:0:1:
36,192,9136,1,0,0:0:0:1:
475,192,9136,1,0,0:0:0:1:
109,192,9136,128,0,9272:0:0:0:1:
182,192,9136,128,0,9272:0:0:0:1:
329,192,9136,128,0,9272:0:0:0:1:
402,192,9136,128,0,9272:0:0:0:1:
256,192,9204,1,0,0:0:0:1:
36,192,9272,1,0,0:0:0:1:
475,192,9272,1,0,0:0:0:1:
109,192,9340,1,0,0:0:0:1:
402,192,9340,1,0,0:0:0:1:
182,192,9409,1,0,0:0:0:1:
329,192,9409,1,0,0:0:0:1:
256,192,9477,1,0,0:0:0:1:
182,192,9545,1,0,0:0:0:1:
329,192,9545,1,0,0:0:0:1:
109,192,9613,1,0,0:0:0:1:
402,192,9613,1,0,0:0:0:1:
36,192,9681,1,0,0:0:0:1:
475,192,9681,1,0,0:0:0:1:
109,192,9750,1,0,0:0:0:1:
402,192,9750,1,0,0:0:0:1:
256,192,9818,1,0,0:0:0:1:
109,192,9818,128,0,9954:0:0:0:1:
182,192,9818,128,0,9954:0:0:0:1:
329,192,9818,128,0,9954:0:0:0:1:
402,192,9818,128,0,9954:0:0:0:1:
36,192,9886,1,0,0:0:0:1:
475,192,9886,1,0,0:0:0:1:
256,192,9954,1,0,0:0:0:1:
182,192,10022,1,0,0:0:0:1:
329,192,10022,1,0,0:0:0:1:
109,192,10090,1,0,0:0:0:1:
402,192,10090,1,0,0:0:0:1:
182,192,10159,1,0,0:0:0:1:
329,192,10159,1,0,0:0:0:1:
256,192,10227,1,0,0:0:0:1:
109,192,10227,128,0,10363:0:0:0:1:
402,192,10227,128,0,10363:0:0:0:1:
36,192,10227,128,0,10363:0:0:0:1:
475,192,10227,128,0,10363:0:0:0:1:
182,192,10295,1,0,0:0:0:1:
329,192,10295,1,0,0:0:0:1:
256,192,10363,1,0,0:0:0:1:
182,192,10431,1,0,0:0:0:1:
329,192,10431,1,0,0:0:0:1:
109,192,10500,1,0,0:0:0:1:
402,192,10500,1,0,0:0:0:1:
36,192,10568,1,0,0:0:0:1:
475,192,10568,1,0,0:0:0:1:
109,192,10636,1,0,0:0:0:1:
402,192,10636,1,0,0:0:0:1:
182,192,10704,1,0,0:0:0:1:
329,192,10704,1,0,0:0:0:1:
109,192,10772,1,0,0:0:0:1:
402,192,10772,1,0,0:0:0:1:
182,192,10840,1,0,0:0:0:1:
329,192,10840,1,0,0:0:0:1:
256,192,10909,1,0,0:0:0:1:
402,192,10909,1,0,0:0:0:1:
475,192,10909,1,0,0:0:0:1:
109,192,10909,128,0,10977:0:0:0:1:
182,192,10909,128,0,11250:0:0:0:1:
36,192,10909,128,0,11250:0:0:0:1:
329,192,10977,1,0,0:0:0:1:
402,192,11045,1,0,0:0:0:1:
475,192,11113,1,0,0:0:0:1:
109,192,11181,1,0,0:0:0:1:
256,192,11181,1,0,0:0:0:1:
402,192,11181,1,0,0:0:0:1:
329,192,11250,1,0,0:0:0:1:
402,192,11318,1,0,0:0:0:1:
109,192,11318,128,0,11727:0:0:0:1:
182,192,11318,128,0,11386:0:0:0:1:
256,192,11318,128,0,11727:0:0:0:1:
475,192,11386,1,0,0:0:0:1:
182,192,11454,1,0,0:0:0:1:
402,192,11454,1,0,0:0:0:1:
36,192,11454,1,0,0:0:0:1:
329,192,11522,1,0,0:0:0:1:
402,192,11590,1,0,0:0:0:1:
475,192,11659,1,0,0:0:0:1:
182,192,11727,1,0,0:0:0:1:
329,192,11727,1,0,0:0:0:1:
36,192,11727,1,0,0:0:0:1:
256,192,11795,1,0,0:0:0:1:
182,192,11863,1,0,0:0:0:1:
329,192,11863,1,0,0:0:0:1:
109,192,11931,1,0,0:0:0:1:
402,192,11931,1,0,0:0:0:1:
109,192,12000,1,0,0:0:0:1:
256,192,12000,1,0,0:0:0:1:
36,192,12000,1,0,0:0:0:1:
329,192,12000,128,0,12340:0:0:0:1:
402,192,12000,128,0,12068:0:0:0:1:
475,192,12000,128,0,12340:0:0:0:1:
182,192,12068,1,0,0:0:0:1:
109,192,12136,1,0,0:0:0:1:
36,192,12204,1,0,0:0:0:1:
109,192,12272,1,0,0:0:0:1:
256,192,12272,1,0,0:0:0:1:
402,192,12272,1,0,0:0:0:1:
182,192,12340,1,0,0:0:0:1:
109,192,12409,1,0,0:0:0:1:
256,192,12409,128,0,12818:0:0:0:1:
329,192,12409,128,0,12477:0:0:0:1:
402,192,12409,128,0,12818:0:0:0:1:
36,192,12477,1,0,0:0:0:1:
109,192,12545,1,0,0:0:0:1:
329,192,12545,1,0,0:0:0:1:
475,192,12545,1,0,0:0:0:1:
182,192,12613,1,0,0:0:0:1:
109,192,12681,1,0,0:0:0:1:
36,192,12750,1,0,0:0:0:1:
182,192,12818,1,0,0:0:0:1:
329,192,12818,1,0,0:0:0:1:
475,192,12818,1,0,0:0:0:1:
256,192,12886,1,0,0:0:0:1:
182,192,12954,1,0,0:0:0:1:
329,192,12954,1,0,0:0:0:1:
109,192,13022,1,0,0:0:0:1:
402,192,13022,1,0,0:0:0:1:
256,192,13090,1,0,0:0:0:1:
109,192,13090,128,0,13227:0:0:0:1:
402,192,13090,128,0,13227:0:0:0:1:
36,192,13090,128,0,13227:0:0:0:1:
475,192,13090,128,0,13227:0:0:0:1:
182,192,13159,1,0,0:0:0:1:
329,192,13227,1,0,0:0:0:1:
256,192,13295,1,0,0:0:0:1:
182,192,13363,1,0,0:0:0:1:
329,192,13363,1,0,0:0:0:1:
109,192,13431,1,0,0:0:0:1:
402,192,13431,1,0,0:0:0:1:
36,192,13500,1,0,0:0:0:1:
475,192,13500,1,0,0:0:0:1:
109,192,13500,128,0,13636:0:0:0:1:
182,192,13500,128,0,13636:0:0:0:1:
329,192,13500,128,0,13636:0:0:0:1:
402,192,13500,128,0,13636:0:0:0:1:
256,192,13568,1,0,0:0:0:1:
36,192,13636,1,0,0:0:0:1:
475,192,13636,1,0,0:0:0:1:
109,192,13704,1,0,0:0:0:1:
402,192,13704,1,0,0:0:0:1:
182,192,13772,1,0,0:0:0:1:
329,192,13772,1,0,0:0:0:1:
256,192,13840,1,0,0:0:0:1:
182,192,13909,1,0,0:0:0:1:
329,192,13909,1,0,0:0:0:1:
109,192,13977,1,0,0:0:0:1:
402,192,13977,1,0,0:0:0:1:
36,192,14045,1,0,0:0:0:1:
475,192,14045,1,0,0:0:0:1:
109,192,14113,1,0,0:0:0:1:
402,192,14113,1,0,0:0:0:1:
256,192,14181,1,0,0:0:0:1:
109,192,14181,128,0,14318:0:0:0:1:
182,192,14181,128,0,14318:0:0:0:1:
329,192,14181,128,0,14318:0:0:0:1:
402,192,14181,128,0,14318:0:0:0:1:
36,192,14250,1,0,0:0:0:1:
475,192,14250,1,0,0:0:0:1:
256,192,14318,1,0,0:0:0:1:
182,192,14386,1,0,0:0:0:1:
329,192,14386,1,0,0:0:0:1:
109,192,14454,1,0,0:0:0:1:
402,192,14454,1,0,0:0:0:1:
182,192,14522,1,0,0:0:0:1:
329,192,14522,1,0,0:0:0:1:
256,192,14590,1,0,0:0:0:1:
109,192,14590,128,0,14727:0:0:0:1:
402,192,14590,128,0,14727:0:0:0:1:
36,192,14590,128,0,14727:0:0:0:1:
475,192,14590,128,0,14727:0:0:0:1:
182,192,14659,1,0,0:0:0:1:
329,192,14659,1,0,0:0:0:1:
256,192,14727,1,0,0:0:0:1:
182,192,14795,1,0,0:0:0:1:
329,192,14795,1,0,0:0:0:1:
109,192,14863,1,0,0:0:0:1:
402,192,14863,1,0,0:0:0:1:
182,192,14931,1,0,0:0:0:1:
329,192,14931,1,0,0:0:0:1:
256,192,15000,1,0,0:0:0:1:
36,192,15000,1,0,0:0:0:1:
109,192,15045,1,0,0:0:0:1:
182,192,15090,1,0,0:0:0:1:
256,192,15136,1,0,0:0:0:1:
329,192,15181,1,0,0:0:0:1:
402,192,15227,1,0,0:0:0:1:
256,192,15272,1,0,0:0:0:1:
402,192,15272,1,0,0:0:0:1:
475,192,15272,1,0,0:0:0:1:
109,192,15272,128,0,15340:0:0:0:1:
182,192,15272,128,0,15613:0:0:0:1:
36,192,15272,128,0,15613:0:0:0:1:
329,192,15340,1,0,0:0:0:1:
402,192,15409,1,0,0:0:0:1:
475,192,15477,1,0,0:0:0:1:
109,192,15545,1,0,0:0:0:1:
256,192,15545,1,0,0:0:0:1:
402,192,15545,1,0,0:0:0:1:
329,192,15613,1,0,0:0:0:1:
402,192,15681,1,0,0:0:0:1:
109,192,15681,128,0,16090:0:0:0:1:
182,192,15681,128,0,15750:0:0:0:1:
256,192,15681,128,0,16090:0:0:0:1:
475,192,15750,1,0,0:0:0:1:
182,192,15818,1,0,0:0:0:1:
402,192,15818,1,0,0:0:0:1:
36,192,15818,1,0,0:0:0:1:
329,192,15886,1,0,0:0:0:1:
402,192,15954,1,0,0:0:0:1:
475,192,16022,1,0,0:0:0:1:
182,192,16090,1,0,0:0:0:1:
329,192,16090,1,0,0:0:0:1:
36,192,16090,1,0,0:0:0:1:
256,192,16159,1,0,0:0:0:1:
182,192,16227,1,0,0:0:0:1:
329,192,16227,1,0,0:0:0:1:
109,192,16295,1,0,0:0:0:1:
402,192,16295,1,0,0:0:0:1:
109,192,16363,1,0,0:0:0:1:
256,192,16363,1,0,0:0:0:1:
36,192,16363,1,0,0:0:0:1:
329,192,16363,128,0,16704:0:0:0:1:
402,192,16363,128,0,16431:0:0:0:1:
475,192,16363,128,0,16704:0:0:0:1:
182,192,16431,1,0,0:0:0:1:
109,192,16500,1,0,0:0:0:1:
36,192,16568,1,0,0:0:0:1:
109,192,16636,1,0,0:0:0:1:
256,192,16636,1,0,0:0:0:1:
402,192,16636,1,0,0:0:0:1:
182,192,16704,1,0,0:0:0:1:
109,192,16772,1,0,0:0:0:1:
256,192,16772,128,0,17181:0:0:0:1:
329,192,16772,128,0,16840:0:0:0:1:
402,192,16772,128,0,17181:0:0:0:1:
36,192,16840,1,0,0:0:0:1:
109,192,16909,1,0,0:0:0:1:
329,192,16909,1,0,0:0:0:1:
475,192,16909,1,0,0:0:0:1:
182,192,16977,1,0,0:0:0:1:
109,192,17045,1,0,0:0:0:1:
36,192,17113,1,0,0:0:0:1:
182,192,17181,1,0,0:0:0:1:
329,192,17181,1,0,0:0:0:1:
475,192,17181,1,0,0:0:0:1:
256,192,17250,1,0,0:0:0:1:
182,192,17318,1,0,0:0:0:1:
329,192,17318,1,0,0:0:0:1:
109,192,17386,1,0,0:0:0:1:
402,192,17386,1,0,0:0:0:1:
256,192,17454,1,0,0:0:0:1:
109,192,17454,128,0,17590:0:0:0:1:
402,192,17454,128,0,17590:0:0:0:1:
36,192,17454,128,0,17590:0:0:0:1:
475,192,17454,128,0,17590:0:0:0:1:
182,192,17522,1,0,0:0:0:1:
329,192,17590,1,0,0:0:0:1:
256,192,17659,1,0,0:0:0:1:
182,192,17727,1,0,0:0:0:1:
329,192,17727,1,0,0:0:0:1:
109,192,17795,1,0,0:0:0:1:
402,192,17795,1,0,0:0:0:1:
36,192,17863,1,0,0:0:0:1:
475,192,17863,1,0,0:0:0:1:
109,192,17863,128,0,18000:0:0:0:1:
182,192,17863,128,0,18000:0:0:0:1:
329,192,17863,128,0,18000:0:0:0:1:
402,192,17863,128,0,18000:0:0:0:1:
256,192,17931,1,0,0:0:0:1:
36,192,18000,1,0,0:0:0:1:
475,192,18000,1,0,0:0:0:1:
109,192,18068,1,0,0:0:0:1:
402,192,18068,1,0,0:0:0:1:
182,192,18136,1,0,0:0:0:1:
329,192,18136,1,0,0:0:0:1:
256,192,18204,1,0,0:0:0:1:
182,192,18272,1,0,0:0:0:1:
329,192,18272,1,0,0:0:0:1:
109,192,18340,1,0,0:0:0:1:
402,192,18340,1,0,0:0:0:1:
36,192,18409,1,0,0:0:0:1:
475,192,18409,1,0,0:0:0:1:
109,192,18477,1,0,0:0:0:1:
402,192,18477,1,0,0:0:0:1:
256,192,18545,1,0,0:0:0:1:
109,192,18545,128,0,18681:0:0:0:1:
182,192,18545,128,0,18681:0:0:0:1:
329,192,18545,128,0,18681:0:0:0:1:
402,192,18545,128,0,18681:0:0:0:1:
36,192,18613,1,0,0:0:0:1:
475,192,18613,1,0,0:0:0:1:
256,192,18681,1,0,0:0:0:1:
182,192,18750,1,0,0:0:0:1:
329,192,18750,1,0,0:0:0:1:
109,192,18818,1,0,0:0:0:1:
402,192,18818,1,0,0:0:0:1:
182,192,18886,1,0,0:0:0:1:
329,192,18886,1,0,0:0:0:1:
256,192,18954,1,0,0:0:0:1:
109,192,18954,128,0,19090:0:0:0:1:
402,192,18954,128,0,19090:0:0:0:1:
36,192,18954,128,0,19090:0:0:0:1:
475,192,18954,128,0,19090:0:0:0:1:
182,192,19022,1,0,0:0:0:1:
329,192,19022,1,0,0:0:0:1:
256,192,19090,1,0,0:0:0:1:
182,192,19159,1,0,0:0:0:1:
329,192,19159,1,0,0:0:0:1:
109,192,19227,1,0,0:0:0:1:
402,192,19227,1,0,0:0:0:1:
36,192,19295,1,0,0:0:0:1:
475,192,19295,1,0,0:0:0:1:
109,192,19363,1,0,0:0:0:1:
402,192,19363,1,0,0:0:0:1:
182,192,19431,1,0,0:0:0:1:
329,192,19431,1,0,0:0:0:1:
109,192,19500,1,0,0:0:0:1:
402,192,19500,1,0,0:0:0:1:
182,192,19568,1,0,0:0:0:1:
329,192,19568,1,0,0:0:0:1:
256,192,19636,1,0,0:0:0:1:
402,192,19636,1,0,0:0:0:1:
475,192,19636,1,0,0:0:0:1:
109,192,19636,128,0,19704:0:0:0:1:
182,192,19636,128,0,19977:0:0:0:1:
36,192,19636,128,0,19977:0:0:0:1:
329,192,19704,1,0,0:0:0:1:
402,192,19772,1,0,0:0:0:1:
475,192,19840,1,0,0:0:0:1:
109,192,19909,1,0,0:0:0:1:
256,192,19909,1,0,0:0:0:1:
402,192,19909,1,0,0:0:0:1:
329,192,19977,1,0,0:0:0:1:
402,192,20045,1,0,0:0:0:1:
109,192,20045,128,0,20454:0:0:0:1:
182,192,20045,128,0,20113:0:0:0:1:
256,192,20045,128,0,20454:0:0:0:1:
475,192,20113,1,0,0:0:0:1:
182,192,20181,1,0,0:0:0:1:
402,192,20181,1,0,0:0:0:1:
36,192,20181,1,0,0:0:0:1:
329,192,20250,1,0,0:0:0:1:
402,192,20318,1,0,0:0:0:1:
475,192,20386,1,0,0:0:0:1:
182,192,20454,1,0,0:0:0:1:
329,192,20454,1,0,0:0:0:1:
36,192,20454,1,0,0:0:0:1:
256,192,20522,1,0,0:0:0:1:
182,192,20590,1,0,0:0:0:1:
329,192,20590,1,0,0:0:0:1:
109,192,20659,1,0,0:0:0:1:
402,192,20659,1,0,0:0:0:1:
109,192,20727,1,0,0:0:0:1:
256,192,20727,1,0,0:0:0:1:
36,192,20727,1,0,0:0:0:1:
329,192,20727,128,0,21068:0:0:0:1:
402,192,20727,128,0,20795:0:0:0:1:
475,192,20727,128,0,21068:0:0:0:1:
182,192,20795,1,0,0:0:0:1:
109,192,20863,1,0,0:0:0:1:
36,192,20931,1,0,0:0:0:1:
109,192,21000,1,0,0:0:0:1:
256,192,21000,1,0,0:0:0:1:
402,192,21000,1,0,0:0:0:1:
182,192,21068,1,0,0:0:0:1:
109,192,21136,1,0,0:0:0:1:
256,192,21136,128,0,21545:0:0:0:1:
329,192,21136,128,0,21204:0:0:0:1:
402,192,21136,128,0,21545:0:0:0:1:
36,192,21204,1,0,0:0:0:1:
109,192,21272,1,0,0:0:0:1:
329,192,21272,1,0,0:0:0:1:
475,192,21272,1,0,0:0:0:1:
182,192,21340,1,0,0:0:0:1:
109,192,21409,1,0,0:0:0:1:
36,192,21477,1,0,0:0:0:1:
182,192,21545,1,0,0:0:0:1:
329,192,21545,1,0,0:0:0:1:
475,192,21545,1,0,0:0:0:1:
256,192,21613,1,0,0:0:0:1:
182,192,21681,1,0,0:0:0:1:
329,192,21681,1,0,0:0:0:1:
109,192,21750,1,0,0:0:0:1:
402,192,21750,1,0,0:0:0:1:
256,192,21818,1,0,0:0:0:1:
109,192,21818,128,0,21954:0:0:0:1:
402,192,21818,128,0,21954:0:0:0:1:
36,192,21818,128,0,21954:0:0:0:1:
475,192,21818,128,0,21954:0:0:0:1:
182,192,21886,1,0,0:0:0:1:
329,192,21954,1,0,0:0:0:1:
256,192,22022,1,0,0:0:0:1:
182,192,22090,1,0,0:0:0:1:
329,192,22090,1,0,0:0:0:1:
109,192,22159,1,0,0:0:0:1:
402,192,22159,1,0,0:0:0:1:
36,192,22227,1,0,0:0:0:1:
475,192,22227,1,0,0:0:0:1:
109,192,22227,128,0,22363:0:0:0:1:
182,192,22227,128,0,22363:0:0:0:1:
329,192,22227,128,0,22363:0:0:0:1:
402,192,22227,128,0,22363:0:0:0:1:
256,192,22295,1,0,0:0:0:1:
36,192,22363,1,0,0:0:0:1:
475,192,22363,1,0,0:0:0:1:
109,192,22431,1,0,0:0:0:1:
402,192,22431,1,0,0:0:0:1:
182,192,22500,1,0,0:0:0:1:
329,192,22500,1,0,0:0:0:1:
256,192,22568,1,0,0:0:0:1:
182,192,22636,1,0,0:0:0:1:
329,192,22636,1,0,0:0:0:1:
109,192,22704,1,0,0:0:0:1:
402,192,22704,1,0,0:0:0:1:
36,192,22772,1,0,0:0:0:1:
475,192,22772,1,0,0:0:0:1:
109,192,22840,1,0,0:0:0:1:
402,192,22840,1,0,0:0:0:1:
256,192,22909,1,0,0:0:0:1:
36,192,22909,1,0,0:0:0:1:
475,192,22909,1,0,0:0:0:1:
109,192,22909,128,0,23045:0:0:0:1:
182,192,22909,128,0,23045:0:0:0:1:
329,192,22909,128,0,23045:0:0:0:1:
402,192,22909,128,0,23045:0:0:0:1:
256,192,23045,1,0,0:0:0:1:
36,192,23045,1,0,0:0:0:1:
475,192,23045,1,0,0:0:0:1:
109,192,23181,1,0,0:0:0:1:
182,192,23181,1,0,0:0:0:1:
329,192,23181,1,0,0:0:0:1:
402,192,23181,1,0,0:0:0:1:
256,192,23181,128,0,23318:0:0:0:1:
36,192,23181,128,0,23318:0:0:0:1:
475,192,23181,128,0,23318:0:0:0:1:
109,192,23318,1,0,0:0:0:1:
182,192,23318,1,0,0:0:0:1:
329,192,23318,1,0,0:0:0:1:
402,192,23318,1,0,0:0:0:1:
109,192,23454,1,0,0:0:0:1:
256,192,23454,1,0,0:0:0:1:
36,192,23454,1,0,0:0:0:1:
109,192,23522,1,0,0:0:0:1:
182,192,23522,1,0,0:0:0:1:
329,192,23522,1,0,0:0:0:1:
182,192,23591,1,0,0:0:0:1:
256,192,23591,1,0,0:0:0:1:
402,192,23591,1,0,0:0:0:1:
256,192,23659,1,0,0:0:0:1:
329,192,23659,1,0,0:0:0:1:
475,192,23659,1,0,0:0:0:1:
256,192,23727,1,0,0:0:0:1:
402,192,23727,1,0,0:0:0:1:
475,192,23727,1,0,0:0:0:1:
182,192,23796,1,0,0:0:0:1:
329,192,23796,1,0,0:0:0:1:
402,192,23796,1,0,0:0:0:1:
109,192,23864,1,0,0:0:0:1:
256,192,23864,1,0,0:0:0:1:
329,192,23864,1,0,0:0:0:1:
182,192,23932,1,0,0:0:0:1:
256,192,23932,1,0,0:0:0:1:
36,192,23932,1,0,0:0:0:1:
109,192,24000,1,0,0:0:0:1:
182,192,24000,1,0,0:0:0:1:
256,192,24000,128,0,24069:0:0:0:1:
329,192,24000,128,0,24375:0:0:0:1:
402,192,24000,128,0,24069:0:0:0:1:
475,192,24000,128,0,24375:0:0:0:1:
36,192,24069,1,0,0:0:0:1:
109,192,24137,1,0,0:0:0:1:
182,192,24205,1,0,0:0:0:1:
109,192,24273,1,0,0:0:0:1:
256,192,24273,1,0,0:0:0:1:
402,192,24273,1,0,0:0:0:1:
182,192,24341,1,0,0:0:0:1:
109,192,24410,1,0,0:0:0:1:
256,192,24410,128,0,24785:0:0:0:1:
329,192,24410,128,0,24478:0:0:0:1:
402,192,24410,128,0,24785:0:0:0:1:
475,192,24410,128,0,24478:0:0:0:1:
36,192,24478,1,0,0:0:0:1:
109,192,24546,1,0,0:0:0:1:
182,192,24546,1,0,0:0:0:1:
475,192,24546,1,0,0:0:0:1:
329,192,24614,1,0,0:0:0:1:
475,192,24682,1,0,0:0:0:1:
329,192,24750,1,0,0:0:0:1:
256,192,24819,1,0,0:0:0:1:
329,192,24819,1,0,0:0:0:1:
402,192,24819,1,0,0:0:0:1:
36,192,24887,1,0,0:0:0:1:
475,192,24887,1,0,0:0:0:1:
109,192,24955,1,0,0:0:0:1:
402,192,24955,1,0,0:0:0:1:
182,192,25023,1,0,0:0:0:1:
329,192,25023,1,0,0:0:0:1:
402,192,25091,1,0,0:0:0:1:
475,192,25091,1,0,0:0:0:1:
109,192,25091,128,0,25160:0:0:0:1:
182,192,25091,128,0,25466:0:0:0:1:
256,192,25091,128,0,25160:0:0:0:1:
36,192,25091,128,0,25466:0:0:0:1:
329,192,25160,1,0,0:0:0:1:
402,192,25228,1,0,0:0:0:1:
329,192,25296,1,0,0:0:0:1:
256,192,25364,1,0,0:0:0:1:
329,192,25432,1,0,0:0:0:1:
402,192,25500,1,0,0:0:0:1:
109,192,25500,128,0,25875:0:0:0:1:
182,192,25500,128,0,25569:0:0:0:1:
256,192,25500,128,0,25875:0:0:0:1:
36,192,25500,128,0,25569:0:0:0:1:
475,192,25569,1,0,0:0:0:1:
402,192,25637,1,0,0:0:0:1:
329,192,25705,1,0,0:0:0:1:
182,192,25773,1,0,0:0:0:1:
36,192,25841,1,0,0:0:0:1:
109,192,25910,1,0,0:0:0:1:
182,192,25910,1,0,0:0:0:1:
256,192,25910,1,0,0:0:0:1:
329,192,25978,1,0,0:0:0:1:
36,192,25978,1,0,0:0:0:1:
109,192,26046,1,0,0:0:0:1:
402,192,26046,1,0,0:0:0:1:
182,192,26114,1,0,0:0:0:1:
475,192,26114,1,0,0:0:0:1:
109,192,26182,1,0,0:0:0:1:
402,192,26182,1,0,0:0:0:1:
182,192,26182,128,0,26250:0:0:0:1:
329,192,26182,128,0,26250:0:0:0:1:
36,192,26182,128,0,26319:0:0:0:1:
475,192,26182,128,0,26319:0:0:0:1:
256,192,26250,1,0,0:0:0:1:
109,192,26319,1,0,0:0:0:1:
182,192,26319,128,0,26387:0:0:0:1:
329,192,26319,128,0,26387:0:0:0:1:
36,192,26387,1,0,0:0:0:1:
109,192,26455,1,0,0:0:0:1:
182,192,26455,128,0,26523:0:0:0:1:
329,192,26455,128,0,26523:0:0:0:1:
256,192,26523,1,0,0:0:0:1:
402,192,26591,1,0,0:0:0:1:
182,192,26591,128,0,26660:0:0:0:1:
256,192,26591,128,0,26728:0:0:0:1:
329,192,26591,128,0,26660:0:0:0:1:
36,192,26591,128,0,26728:0:0:0:1:
475,192,26591,128,0,26728:0:0:0:1:
109,192,26660,1,0,0:0:0:1:
182,192,26728,1,0,0:0:0:1:
109,192,26728,128,0,26796:0:0:0:1:
402,192,26728,128,0,26796:0:0:0:1:
329,192,26796,1,0,0:0:0:1:
256,192,26864,1,0,0:0:0:1:
109,192,26864,128,0,26932:0:0:0:1:
402,192,26864,128,0,26932:0:0:0:1:
182,192,26932,1,0,0:0:0:1:
36,192,27000,1,0,0:0:0:1:
475,192,27000,1,0,0:0:0:1:
109,192,27000,128,0,27069:0:0:0:1:
402,192,27000,128,0,27069:0:0:0:1:
329,192,27069,1,0,0:0:0:1:
256,192,27137,1,0,0:0:0:1:
109,192,27137,128,0,27205:0:0:0:1:
402,192,27137,128,0,27205:0:0:0:1:
182,192,27205,1,0,0:0:0:1:
329,192,27205,1,0,0:0:0:1:
256,192,27273,1,0,0:0:0:1:
109,192,27273,128,0,27410:0:0:0:1:
402,192,27273,128,0,27410:0:0:0:1:
36,192,27273,128,0,27341:0:0:0:1:
475,192,27273,128,0,27341:0:0:0:1:
182,192,27341,1,0,0:0:0:1:
256,192,27410,1,0,0:0:0:1:
36,192,27410,128,0,27478:0:0:0:1:
475,192,27410,128,0,27478:0:0:0:1:
329,192,27478,1,0,0:0:0:1:
109,192,27546,1,0,0:0:0:1:
402,192,27546,1,0,0:0:0:1:
36,192,27546,128,0,27614:0:0:0:1:
475,192,27546,128,0,27614:0:0:0:1:
182,192,27614,1,0,0:0:0:1:
256,192,27682,1,0,0:0:0:1:
109,192,27682,128,0,27819:0:0:0:1:
402,192,27682,128,0,27819:0:0:0:1:
36,192,27682,128,0,27750:0:0:0:1:
475,192,27682,128,0,27750:0:0:0:1:
182,192,27750,1,0,0:0:0:1:
329,192,27750,1,0,0:0:0:1:
36,192,27819,1,0,0:0:0:1:
475,192,27819,1,0,0:0:0:1:
256,192,27819,128,0,27887:0:0:0:1:
109,192,27887,1,0,0:0:0:1:
402,192,27887,1,0,0:0:0:1:
182,192,27955,1,0,0:0:0:1:
329,192,27955,1,0,0:0:0:1:
256,192,27955,128,0,28023:0:0:0:1:
109,192,28023,1,0,0:0:0:1:
402,192,28023,1,0,0:0:0:1:
36,192,28091,1,0,0:0:0:1:
475,192,28091,1,0,0:0:0:1:
256,192,28091,128,0,28160:0:0:0:1:
109,192,28160,1,0,0:0:0:1:
402,192,28160,1,0,0:0:0:1:
182,192,28228,1,0,0:0:0:1:
329,192,28228,1,0,0:0:0:1:
256,192,28228,128,0,28296:0:0:0:1:
109,192,28296,1,0,0:0:0:1:
402,192,28296,1,0,0:0:0:1:
109,192,28364,1,0,0:0:0:1:
182,192,28364,1,0,0:0:0:1:
256,192,28364,128,0,28432:0:0:0:1:
329,192,28364,128,0,28739:0:0:0:1:
402,192,28364,128,0,28432:0:0:0:1:
475,192,28364,128,0,28739:0:0:0:1:
36,192,28432,1,0,0:0:0:1:
109,192,28500,1,0,0:0:0:1:
182,192,28569,1,0,0:0:0:1:
109,192,28637,1,0,0:0:0:1:
256,192,28637,1,0,0:0:0:1:
402,192,28637,1,0,0:0:0:1:
182,192,28705,1,0,0:0:0:1:
109,192,28773,1,0,0:0:0:1:
256,192,28773,128,0,29148:0:0:0:1:
329,192,28773,128,0,28841:0:0:0:1:
402,192,28773,128,0,29148:0:0:0:1:
475,192,28773,128,0,28841:0:0:0:1:
36,192,28841,1,0,0:0:0:1:
109,192,28910,1,0,0:0:0:1:
182,192,28910,1,0,0:0:0:1:
475,192,28910,1,0,0:0:0:1:
329,192,28978,1,0,0:0:0:1:
475,192,29046,1,0,0:0:0:1:
329,192,29114,1,0,0:0:0:1:
256,192,29182,1,0,0:0:0:1:
329,192,29182,1,0,0:0:0:1:
402,192,29182,1,0,0:0:0:1:
36,192,29250,1,0,0:0:0:1:
475,192,29250,1,0,0:0:0:1:
109,192,29319,1,0,0:0:0:1:
402,192,29319,1,0,0:0:0:1:
182,192,29387,1,0,0:0:0:1:
329,192,29387,1,0,0:0:0:1:
402,192,29455,1,0,0:0:0:1:
475,192,29455,1,0,0:0:0:1:
109,192,29455,128,0,29523:0:0:0:1:
182,192,29455,128,0,29830:0:0:0:1:
256,192,29455,128,0,29523:0:0:0:1:
36,192,29455,128,0,29830:0:0:0:1:
329,192,29523,1,0,0:0:0:1:
402,192,29591,1,0,0:0:0:1:
329,192,29660,1,0,0:0:0:1:
256,192,29728,1,0,0:0:0:1:
329,192,29796,1,0,0:0:0:1:
402,192,29864,1,0,0:0:0:1:
109,192,29864,128,0,30239:0:0:0:1:
182,192,29864,128,0,29932:0:0:0:1:
256,192,29864,128,0,30239:0:0:0:1:
36,192,29864,128,0,29932:0:0:0:1:
475,192,29932,1,0,0:0:0:1:
402,192,30000,1,0,0:0:0:1:
329,192,30069,1,0,0:0:0:1:
182,192,30137,1,0,0:0:0:1:
36,192,30205,1,0,0:0:0:1:
109,192,30273,1,0,0:0:0:1:
182,192,30273,1,0,0:0:0:1:
256,192,30273,1,0,0:0:0:1:
329,192,30341,1,0,0:0:0:1:
36,192,30341,1,0,0:0:0:1:
109,192,30410,1,0,0:0:0:1:
402,192,30410,1,0,0:0:0:1:
182,192,30478,1,0,0:0:0:1:
475,192,30478,1,0,0:0:0:1:
109,192,30546,1,0,0:0:0:1:
402,192,30546,1,0,0:0:0:1:
182,192,30546,128,0,30614:0:0:0:1:
329,192,30546,128,0,30614:0:0:0:1:
36,192,30546,128,0,30682:0:0:0:1:
475,192,30546,128,0,30682:0:0:0:1:
256,192,30614,1,0,0:0:0:1:
109,192,30682,1,0,0:0:0:1:
182,192,30682,128,0,30750:0:0:0:1:
329,192,30682,128,0,30750:0:0:0:1:
36,192,30750,1,0,0:0:0:1:
109,192,30819,1,0,0:0:0:1:
182,192,30819,128,0,30887:0:0:0:1:
329,192,30819,128,0,30887:0:0:0:1:
256,192,30887,1,0,0:0:0:1:
402,192,30955,1,0,0:0:0:1:
182,192,30955,128,0,31023:0:0:0:1:
256,192,30955,128,0,31091:0:0:0:1:
329,192,30955,128,0,31023:0:0:0:1:
36,192,30955,128,0,31091:0:0:0:1:
475,192,30955,128,0,31091:0:0:0:1:
109,192,31023,1,0,0:0:0:1:
182,192,31091,1,0,0:0:0:1:
109,192,31091,128,0,31160:0:0:0:1:
402,192,31091,128,0,31160:0:0:0:1:
329,192,31160,1,0,0:0:0:1:
256,192,31228,1,0,0:0:0:1:
109,192,31228,128,0,31296:0:0:0:1:
402,192,31228,128,0,31296:0:0:0:1:
182,192,31296,1,0,0:0:0:1:
36,192,31364,1,0,0:0:0:1:
475,192,31364,1,0,0:0:0:1:
109,192,31364,128,0,31432:0:0:0:1:
402,192,31364,128,0,31432:0:0:0:1:
329,192,31432,1,0,0:0:0:1:
256,192,31500,1,0,0:0:0:1:
109,192,31500,128,0,31569:0:0:0:1:
402,192,31500,128,0,31569:0:0:0:1:
182,192,31569,1,0,0:0:0:1:
329,192,31569,1,0,0:0:0:1:
256,192,31637,1,0,0:0:0:1:
109,192,31637,128,0,31773:0:0:0:1:
402,192,31637,128,0,31773:0:0:0:1:
36,192,31637,128,0,31705:0:0:0:1:
475,192,31637,128,0,31705:0:0:0:1:
182,192,31705,1,0,0:0:0:1:
256,192,31773,1,0,0:0:0:1:
36,192,31773,128,0,31841:0:0:0:1:
475,192,31773,128,0,31841:0:0:0:1:
329,192,31841,1,0,0:0:0:1:
109,192,31910,1,0,0:0:0:1:
402,192,31910,1,0,0:0:0:1:
36,192,31910,128,0,31978:0:0:0:1:
475,192,31910,128,0,31978:0:0:0:1:
182,192,31978,1,0,0:0:0:1:
256,192,32046,1,0,0:0:0:1:
109,192,32046,128,0,32182:0:0:0:1:
402,192,32046,128,0,32182:0:0:0:1:
36,192,32046,128,0,32114:0:0:0:1:
475,192,32046,128,0,32114:0:0:0:1:
182,192,32114,1,0,0:0:0:1:
329,192,32114,1,0,0:0:0:1:
36,192,32182,1,0,0:0:0:1:
475,192,32182,1,0,0:0:0:1:
256,192,32182,128,0,32250:0:0:0:1:
109,192,32250,1,0,0:0:0:1:
402,192,32250,1,0,0:0:0:1:
182,192,32319,1,0,0:0:0:1:
329,192,32319,1,0,0:0:0:1:
256,192,32319,128,0,32387:0:0:0:1:
109,192,32387,1,0,0:0:0:1:
402,192,32387,1,0,0:0:0:1:
36,192,32455,1,0,0:0:0:1:
475,192,32455,1,0,0:0:0:1:
256,192,32455,128,0,32523:0:0:0:1:
109,192,32523,1,0,0:0:0:1:
402,192,32523,1,0,0:0:0:1:
182,192,32591,1,0,0:0:0:1:
329,192,32591,1,0,0:0:0:1:
256,192,32591,128,0,32660:0:0:0:1:
109,192,32660,1,0,0:0:0:1:
402,192,32660,1,0,0:0:0:1:
109,192,32728,1,0,0:0:0:1:
182,192,32728,1,0,0:0:0:1:
256,192,32728,128,0,32796:0:0:0:1:
329,192,32728,128,0,33103:0:0:0:1:
402,192,32728,128,0,32796:0:0:0:1:
475,192,32728,128,0,33103:0:0:0:1:
36,192,32796,1,0,0:0:0:1:
109,192,32864,1,0,0:0:0:1:
182,192,32932,1,0,0:0:0:1:
109,192,33000,1,0,0:0:0:1:
256,192,33000,1,0,0:0:0:1:
402,192,33000,1,0,0:0:0:1:
182,192,33069,1,0,0:0:0:1:
109,192,33137,1,0,0:0:0:1:
256,192,33137,128,0,33512:0:0:0:1:
329,192,33137,128,0,33205:0:0:0:1:
402,192,33137,128,0,33512:0:0:0:1:
475,192,33137,128,0,33205:0:0:0:1:
36,192,33205,1,0,0:0:0:1:
109,192,33273,1,0,0:0:0:1:
182,192,33273,1,0,0:0:0:1:
475,192,33273,1,0,0:0:0:1:
329,192,33341,1,0,0:0:0:1:
475,192,33410,1,0,0:0:0:1:
329,192,33478,1,0,0:0:0:1:
256,192,33546,1,0,0:0:0:1:
329,192,33546,1,0,0:0:0:1:
402,192,33546,1,0,0:0:0:1:
36,192,33614,1,0,0:0:0:1:
475,192,33614,1,0,0:0:0:1:
109,192,33682,1,0,0:0:0:1:
402,192,33682,1,0,0:0:0:1:
182,192,33750,1,0,0:0:0:1:
329,192,33750,1,0,0:0:0:1:
402,192,33819,1,0,0:0:0:1:
475,192,33819,1,0,0:0:0:1:
109,192,33819,128,0,33887:0:0:0:1:
182,192,33819,128,0,34194:0:0:0:1:
256,192,33819,128,0,33887:0:0:0:1:
36,192,33819,128,0,34194:0:0:0:1:
329,192,33887,1,0,0:0:0:1:
402,192,33955,1,0,0:0:0:1:
329,192,34023,1,0,0:0:0:1:
256,192,34091,1,0,0:0:0:1:
329,192,34160,1,0,0:0:0:1:
402,192,34228,1,0,0:0:0:1:
109,192,34228,128,0,34603:0:0:0:1:
182,192,34228,128,0,34296:0:0:0:1:
256,192,34228,128,0,34603:0:0:0:1:
36,192,34228,128,0,34296:0:0:0:1:
475,192,34296,1,0,0:0:0:1:
402,192,34364,1,0,0:0:0:1:
329,192,34432,1,0,0:0:0:1:
182,192,34500,1,0,0:0:0:1:
36,192,34569,1,0,0:0:0:1:
109,192,34637,1,0,0:0:0:1:
182,192,34637,1,0,0:0:0:1:
256,192,34637,1,0,0:0:0:1:
329,192,34705,1,0,0:0:0:1:
36,192,34705,1,0,0:0:0:1:
109,192,34773,1,0,0:0:0:1:
402,192,34773,1,0,0:0:0:1:
182,192,34841,1,0,0:0:0:1:
475,192,34841,1,0,0:0:0:1:
109,192,34910,1,0,0:0:0:1:
402,192,34910,1,0,0:0:0:1:
182,192,34910,128,0,34978:0:0:0:1:
329,192,34910,128,0,34978:0:0:0:1:
36,192,34910,128,0,35046:0:0:0:1:
475,192,34910,128,0,35046:0:0:0:1:
256,192,34978,1,0,0:0:0:1:
109,192,35046,1,0,0:0:0:1:
182,192,35046,128,0,35114:0:0:0:1:
329,192,35046,128,0,35114:0:0:0:1:
36,192,35114,1,0,0:0:0:1:
109,192,35182,1,0,0:0:0:1:
182,192,35182,128,0,35250:0:0:0:1:
329,192,35182,128,0,35250:0:0:0:1:
256,192,35250,1,0,0:0:0:1:
402,192,35319,1,0,0:0:0:1:
182,192,35319,128,0,35387:0:0:0:1:
256,192,35319,128,0,35455:0:0:0:1:
329,192,35319,128,0,35387:0:0:0:1:
36,192,35319,128,0,35455:0:0:0:1:
475,192,35319,128,0,35455:0:0:0:1:
109,192,35387,1,0,0:0:0:1:
182,192,35455,1,0,0:0:0:1:
109,192,35455,128,0,35523:0:0:0:1:
402,192,35455,128,0,35523:0:0:0:1:
329,192,35523,1,0,0:0:0:1:
256,192,35591,1,0,0:0:0:1:
109,192,35591,128,0,35660:0:0:0:1:
402,192,35591,128,0,35660:0:0:0:1:
182,192,35660,1,0,0:0:0:1:
36,192,35728,1,0,0:0:0:1:
475,192,35728,1,0,0:0:0:1:
109,192,35728,128,0,35796:0:0:0:1:
402,192,35728,128,0,35796:0:0:0:1:
329,192,35796,1,0,0:0:0:1:
256,192,35864,1,0,0:0:0:1:
109,192,35864,128,0,35932:0:0:0:1:
402,192,35864,128,0,35932:0:0:0:1:
182,192,35932,1,0,0:0:0:1:
329,192,35932,1,0,0:0:0:1:
256,192,36000,1,0,0:0:0:1:
109,192,36000,128,0,36137:0:0:0:1:
402,192,36000,128,0,36137:0:0:0:1:
36,192,36000,128,0,36069:0:0:0:1:
475,192,36000,128,0,36069:0:0:0:1:
182,192,36069,1,0,0:0:0:1:
256,192,36137,1,0,0:0:0:1:
36,192,36137,128,0,36205:0:0:0:1:
475,192,36137,128,0,36205:0:0:0:1:
329,192,36205,1,0,0:0:0:1:
109,192,36273,1,0,0:0:0:1:
402,192,36273,1,0,0:0:0:1:
36,192,36273,128,0,36341:0:0:0:1:
475,192,36273,128,0,36341:0:0:0:1:
182,192,36341,1,0,0:0:0:1:
256,192,36410,1,0,0:0:0:1:
109,192,36410,128,0,36546:0:0:0:1:
402,192,36410,128,0,36546:0:0:0:1:
36,192,36410,128,0,36478:0:0:0:1:
475,192,36410,128,0,36478:0:0:0:1:
182,192,36478,1,0,0:0:0:1:
329,192,36478,1,0,0:0:0:1:
36,192,36546,1,0,0:0:0:1:
475,192,36546,1,0,0:0:0:1:
256,192,36546,128,0,36614:0:0:0:1:
109,192,36614,1,0,0:0:0:1:
402,192,36614,1,0,0:0:0:1:
182,192,36682,1,0,0:0:0:1:
329,192,36682,1,0,0:0:0:1:
256,192,36682,128,0,36750:0:0:0:1:
109,192,36750,1,0,0:0:0:1:
402,192,36750,1,0,0:0:0:1:
36,192,36819,1,0,0:0:0:1:
475,192,36819,1,0,0:0:0:1:
256,192,36819,128,0,36887:0:0:0:1:
109,192,36887,1,0,0:0:0:1:
402,192,36887,1,0,0:0:0:1:
182,192,36955,1,0,0:0:0:1:
329,192,36955,1,0,0:0:0:1:
256,192,36955,128,0,37023:0:0:0:1:
109,192,37023,1,0,0:0:0:1:
402,192,37023,1,0,0:0:0:1:
109,192,37091,1,0,0:0:0:1:
182,192,37091,1,0,0:0:0:1:
256,192,37091,128,0,37160:0:0:0:1:
329,192,37091,128,0,37466:0:0:0:1:
402,192,37091,128,0,37160:0:0:0:1:
475,192,37091,128,0,37466:0:0:0:1:
36,192,37160,1,0,0:0:0:1:
109,192,37228,1,0,0:0:0:1:
182,192,37296,1,0,0:0:0:1:
109,192,37364,1,0,0:0:0:1:
256,192,37364,1,0,0:0:0:1:
402,192,37364,1,0,0:0:0:1:
182,192,37432,1,0,0:0:0:1:
109,192,37500,1,0,0:0:0:1:
256,192,37500,128,0,37875:0:0:0:1:
329,192,37500,128,0,37569:0:0:0:1:
402,192,37500,128,0,37875:0:0:0:1:
475,192,37500,128,0,37569:0:0:0:1:
36,192,37569,1,0,0:0:0:1:
109,192,37637,1,0,0:0:0:1:
182,192,37637,1,0,0:0:0:1:
475,192,37637,1,0,0:0:0:1:
329,192,37705,1,0,0:0:0:1:
475,192,37773,1,0,0:0:0:1:
329,192,37841,1,0,0:0:0:1:
256,192,37910,1,0,0:0:0:1:
329,192,37910,1,0,0:0:0:1:
402,192,37910,1,0,0:0:0:1:
36,192,37978,1,0,0:0:0:1:
475,192,37978,1,0,0:0:0:1:
109,192,38046,1,0,0:0:0:1:
402,192,38046,1,0,0:0:0:1:
182,192,38114,1,0,0:0:0:1:
329,192,38114,1,0,0:0:0:1:
402,192,38182,1,0,0:0:0:1:
475,192,38182,1,0,0:0:0:1:
109,192,38182,128,0,38250:0:0:0:1:
182,192,38182,128,0,38557:0:0:0:1:
256,192,38182,128,0,38250:0:0:0:1:
36,192,38182,128,0,38557:0:0:0:1:
329,192,38250,1,0,0:0:0:1:
402,192,38319,1,0,0:0:0:1:
329,192,38387,1,0,0:0:0:1:
256,192,38455,1,0,0:0:0:1:
329,192,38523,1,0,0:0:0:1:
402,192,38591,1,0,0:0:0:1:
109,192,38591,128,0,38966:0:0:0:1:
182,192,38591,128,0,38660:0:0:0:1:
256,192,38591,128,0,38966:0:0:0:1:
36,192,38591,128,0,38660:0:0:0:1:
475,192,38660,1,0,0:0:0:1:
402,192,38728,1,0,0:0:0:1:
329,192,38796,1,0,0:0:0:1:
182,192,38864,1,0,0:0:0:1:
36,192,38932,1,0,0:0:0:1:
109,192,39000,1,0,0:0:0:1:
182,192,39000,1,0,0:0:0:1:
256,192,39000,1,0,0:0:0:1:
329,192,39069,1,0,0:0:0:1:
36,192,39069,1,0,0:0:0:1:
109,192,39137,1,0,0:0:0:1:
402,192,39137,1,0,0:0:0:1:
182,192,39205,1,0,0:0:0:1:
475,192,39205,1,0,0:0:0:1:
109,192,39273,1,0,0:0:0:1:
402,192,39273,1,0,0:0:0:1:
182,192,39273,128,0,39341:0:0:0:1:
329,192,39273,128,0,39341:0:0:0:1:
36,192,39273,128,0,39410:0:0:0:1:
475,192,39273,128,0,39410:0:0:0:1:
256,192,39341,1,0,0:0:0:1:
109,192,39410,1,0,0:0:0:1:
182,192,39410,128,0,39478:0:0:0:1:
329,192,39410,128,0,39478:0:0:0:1:
36,192,39478,1,0,0:0:0:1:
109,192,39546,1,0,0:0:0:1:
182,192,39546,128,0,39614:0:0:0:1:
329,192,39546,128,0,39614:0:0:0:1:
256,192,39614,1,0,0:0:0:1:
402,192,39682,1,0,0:0:0:1:
182,192,39682,128,0,39750:0:0:0:1:
256,192,39682,128,0,39819:0:0:0:1:
329,192,39682,128,0,39750:0:0:0:1:
36,192,39682,128,0,39819:0:0:0:1:
475,192,39682,128,0,39819:0:0:0:1:
109,192,39750,1,0,0:0:0:1:
182,192,39819,1,0,0:0:0:1:
109,192,39819,128,0,39887:0:0:0:1:
402,192,39819,128,0,39887:0:0:0:1:
329,192,39887,1,0,0:0:0:1:
256,192,39955,1,0,0:0:0:1:
109,192,39955,128,0,40023:0:0:0:1:
402,192,39955,128,0,40023:0:0:0:1:
182,192,40023,1,0,0:0:0:1:
36,192,40091,1,0,0:0:0:1:
475,192,40091,1,0,0:0:0:1:
109,192,40091,128,0,40160:0:0:0:1:
402,192,40091,128,0,40160:0:0:0:1:
329,192,40160,1,0,0:0:0:1:
256,192,40228,1,0,0:0:0:1:
109,192,40228,128,0,40296:0:0:0:1:
402,192,40228,128,0,40296:0:0:0:1:
182,192,40296,1,0,0:0:0:1:
329,192,40296,1,0,0:0:0:1:
256,192,40364,1,0,0:0:0:1:
109,192,40364,128,0,40398:0:0:0:1:
402,192,40364,128,0,40398:0:0:0:1:
36,192,40364,128,0,40466:0:0:0:1:
475,192,40364,128,0,40500:0:0:0:1:
256,192,40500,1,0,0:0:0:1:
109,192,40500,128,0,40535:0:0:0:1:
182,192,40500,128,0,40637:0:0:0:1:
329,192,40500,128,0,40637:0:0:0:1:
402,192,40500,128,0,40535:0:0:0:1:
109,192,40637,1,0,0:0:0:1:
402,192,40637,1,0,0:0:0:1:
256,192,40637,128,0,40773:0:0:0:1:
36,192,40637,128,0,40671:0:0:0:1:
475,192,40637,128,0,40671:0:0:0:1:
109,192,40773,128,0,40841:0:0:0:1:
182,192,40773,128,0,40875:0:0:0:1:
329,192,40773,128,0,40875:0:0:0:1:
402,192,40773,128,0,40841:0:0:0:1:
36,192,40773,128,0,40807:0:0:0:1:
475,192,40773,128,0,40807:0:0:0:1:
36,192,40910,1,0,0:0:0:1:
475,192,40910,1,0,0:0:0:1:
109,192,40955,1,0,0:0:0:1:
402,192,40955,1,0,0:0:0:1:
182,192,41000,1,0,0:0:0:1:
329,192,41000,1,0,0:0:0:1:
256,192,41046,1,0,0:0:0:1:
36,192,41046,1,0,0:0:0:1:
475,192,41046,1,0,0:0:0:1:
109,192,41080,1,0,0:0:0:1:
402,192,41080,1,0,0:0:0:1:
182,192,41114,1,0,0:0:0:1:
329,192,41114,1,0,0:0:0:1:
256,192,41148,1,0,0:0:0:1:
36,192,41182,1,0,0:0:0:1:
475,192,41182,1,0,0:0:0:1:
109,192,41199,1,0,0:0:0:1:
402,192,41199,1,0,0:0:0:1:
182,192,41216,1,0,0:0:0:1:
329,192,41216,1,0,0:0:0:1:
256,192,41233,1,0,0:0:0:1:
182,192,41250,1,0,0:0:0:1:
329,192,41250,1,0,0:0:0:1:
109,192,41267,1,0,0:0:0:1:
402,192,41267,1,0,0:0:0:1:
182,192,41285,1,0,0:0:0:1:
329,192,41285,1,0,0:0:0:1:
36,192,41285,1,0,0:0:0:1:
475,192,41285,1,0,0:0:0:1:
109,192,41302,1,0,0:0:0:1:
256,192,41302,1,0,0:0:0:1:
402,192,41302,1,0,0:0:0:1:
182,192,41319,1,0,0:0:0:1:
329,192,41319,1,0,0:0:0:1:
36,192,41319,1,0,0:0:0:1:
475,192,41319,1,0,0:0:0:1:
109,192,41336,1,0,0:0:0:1:
402,192,41336,1,0,0:0:0:1:
182,192,41353,1,0,0:0:0:1:
329,192,41353,1,0,0:0:0:1:
256,192,41370,1,0,0:0:0:1:
182,192,41387,1,0,0:0:0:1:
329,192,41387,1,0,0:0:0:1:
109,192,41404,1,0,0:0:0:1:
256,192,41404,1,0,0:0:0:1:
402,192,41404,1,0,0:0:0:1:
182,192,41421,1,0,0:0:0:1:
329,192,41421,1,0,0:0:0:1:
36,192,41421,1,0,0:0:0:1:
475,192,41421,1,0,0:0:0:1:
109,192,41438,1,0,0:0:0:1:
402,192,41438,1,0,0:0:0:1:
182,192,41455,1,0,0:0:0:1:
256,192,41455,1,0,0:0:0:1:
329,192,41455,1,0,0:0:0:1:
256,192,58910,5,0,0:0:0:1:
182,192,59182,1,0,0:0:0:1:
329,192,59319,1,0,0:0:0:1:
109,192,59455,1,0,0:0:0:1:
256,192,59455,1,0,0:0:0:1:
182,192,59728,1,0,0:0:0:1:
402,192,59728,1,0,0:0:0:1:
329,192,59864,1,0,0:0:0:1:
256,192,60000,1,0,0:0:0:1:
402,192,60000,1,0,0:0:0:1:
475,192,60137,1,0,0:0:0:1:
402,192,60273,1,0,0:0:0:1:
36,192,60273,1,0,0:0:0:1:
109,192,60546,1,0,0:0:0:1:
402,192,60546,1,0,0:0:0:1:
256,192,60682,1,0,0:0:0:1:
182,192,60819,1,0,0:0:0:1:
329,192,60819,1,0,0:0:0:1:
475,192,60955,1,0,0:0:0:1:
256,192,61091,1,0,0:0:0:1:
402,192,61091,1,0,0:0:0:1:
329,192,61364,1,0,0:0:0:1:
182,192,61500,1,0,0:0:0:1:
109,192,61637,1,0,0:0:0:1:
256,192,61637,1,0,0:0:0:1:
109,192,61910,1,0,0:0:0:1:
329,192,61910,1,0,0:0:0:1:
182,192,62046,1,0,0:0:0:1:
109,192,62182,1,0,0:0:0:1:
402,192,62182,1,0,0:0:0:1:
36,192,62319,1,0,0:0:0:1:
109,192,62455,1,0,0:0:0:1:
475,192,62455,1,0,0:0:0:1:
109,192,62728,1,0,0:0:0:1:
256,192,62728,1,0,0:0:0:1:
402,192,62728,1,0,0:0:0:1:
182,192,62864,1,0,0:0:0:1:
329,192,63000,1,0,0:0:0:1:
256,192,63137,1,0,0:0:0:1:
402,192,63273,1,0,0:0:0:1:
329,192,63546,1,0,0:0:0:1:
402,192,63682,1,0,0:0:0:1:
109,192,63819,1,0,0:0:0:1:
256,192,63819,1,0,0:0:0:1:
182,192,64091,1,0,0:0:0:1:
475,192,64091,1,0,0:0:0:1:
402,192,64228,1,0,0:0:0:1:
256,192,64364,1,0,0:0:0:1:
475,192,64364,1,0,0:0:0:1:
402,192,64500,1,0,0:0:0:1:
109,192,64637,1,0,0:0:0:1:
329,192,64637,1,0,0:0:0:1:
256,192,64910,1,0,0:0:0:1:
36,192,64910,1,0,0:0:0:1:
182,192,65046,1,0,0:0:0:1:
109,192,65182,1,0,0:0:0:1:
475,192,65182,1,0,0:0:0:1:
256,192,65319,1,0,0:0:0:1:
402,192,65455,1,0,0:0:0:1:
182,192,65728,1,0,0:0:0:1:
256,192,66000,1,0,0:0:0:1:
36,192,66000,1,0,0:0:0:1:
475,192,66000,1,0,0:0:0:1:
109,192,66273,1,0,0:0:0:1:
256,192,66273,1,0,0:0:0:1:
182,192,66410,1,0,0:0:0:1:
256,192,66546,1,0,0:0:0:1:
402,192,66546,1,0,0:0:0:1:
182,192,66682,1,0,0:0:0:1:
109,192,66819,1,0,0:0:0:1:
256,192,66819,1,0,0:0:0:1:
109,192,67091,1,0,0:0:0:1:
256,192,67091,1,0,0:0:0:1:
256,192,67364,1,0,0:0:0:1:
256,192,67500,1,0,0:0:0:1:
182,192,67637,1,0,0:0:0:1:
329,192,67637,1,0,0:0:0:1:
182,192,68728,128,0,69819:0:0:0:1:
329,192,68728,128,0,69819:0:0:0:1:
256,192,69819,128,0,70910:0:0:0:1:
36,192,70910,128,0,70978:0:0:0:1:
109,192,70978,128,0,71046:0:0:0:1:
182,192,71046,128,0,71114:0:0:0:1:
256,192,71114,128,0,71182:0:0:0:1:
329,192,71182,128,0,71250:0:0:0:1:
402,192,71250,128,0,71319:0:0:0:1:
475,192,71319,128,0,71387:0:0:0:1:
109,192,71455,1,0,0:0:0:1:
182,192,71455,1,0,0:0:0:1:
329,192,71487,1,0,0:0:0:1:
402,192,71487,1,0,0:0:0:1:
109,192,71523,1,0,0:0:0:1:
182,192,71523,1,0,0:0:0:1:
329,192,71559,1,0,0:0:0:1:
402,192,71559,1,0,0:0:0:1:
109,192,71591,1,0,0:0:0:1:
182,192,71591,1,0,0:0:0:1:
329,192,71623,1,0,0:0:0:1:
402,192,71623,1,0,0:0:0:1:
109,192,71660,1,0,0:0:0:1:
182,192,71660,1,0,0:0:0:1:
329,192,71696,1,0,0:0:0:1:
402,192,71696,1,0,0:0:0:1:
109,192,71728,1,0,0:0:0:1:
182,192,71728,1,0,0:0:0:1:
329,192,71760,1,0,0:0:0:1:
402,192,71760,1,0,0:0:0:1:
109,192,71796,1,0,0:0:0:1:
182,192,71796,1,0,0:0:0:1:
329,192,71832,1,0,0:0:0:1:
402,192,71832,1,0,0:0:0:1:
109,192,71864,1,0,0:0:0:1:
182,192,71864,1,0,0:0:0:1:
329,192,71896,1,0,0:0:0:1:
402,192,71896,1,0,0:0:0:1:
109,192,71932,1,0,0:0:0:1:
182,192,71932,1,0,0:0:0:1:
329,192,71968,1,0,0:0:0:1:
402,192,71968,1,0,0:0:0:1:
109,192,72000,1,0,0:0:0:1:
256,192,72000,1,0,0:0:0:1:
402,192,72000,1,0,0:0:0:1:
36,192,72000,1,0,0:0:0:1:
475,192,72000,1,0,0:0:0:1:
36,192,72273,128,0,72410:0:0:0:1:
182,192,72410,128,0,72546:0:0:0:1:
329,192,72546,128,0,72750:0:0:0:1:
475,192,72750,128,0,73091:0:0:0:1:
109,192,73091,1,0,0:0:0:1:
182,192,73091,1,0,0:0:0:1:
256,192,73091,1,0,0:0:0:1:
329,192,73091,1,0,0:0:0:1:
402,192,73091,1,0,0:0:0:1:
475,192,73227,128,0,73364:0:0:0:1:
256,192,73364,128,0,73500:0:0:0:1:
36,192,73500,128,0,74197:0:0:0:1:
182,192,73909,1,0,0:0:0:1:
329,192,73909,1,0,0:0:0:1:
475,192,73909,128,0,74197:0:0:0:1:
109,192,73981,1,0,0:0:0:1:
402,192,73981,1,0,0:0:0:1:
182,192,74053,1,0,0:0:0:1:
329,192,74053,1,0,0:0:0:1:
256,192,74125,1,0,0:0:0:1:
109,192,74197,1,0,0:0:0:1:
182,192,74197,1,0,0:0:0:1:
329,192,74197,1,0,0:0:0:1:
402,192,74197,1,0,0:0:0:1:
256,192,74333,1,0,0:0:0:1:
36,192,74333,1,0,0:0:0:1:
182,192,74470,1,0,0:0:0:1:
402,192,74470,1,0,0:0:0:1:
109,192,74606,1,0,0:0:0:1:
329,192,74606,1,0,0:0:0:1:
256,192,74742,1,0,0:0:0:1:
475,192,74742,1,0,0:0:0:1:
329,192,74879,1,0,0:0:0:1:
36,192,74879,1,0,0:0:0:1:
182,192,75015,1,0,0:0:0:1:
402,192,75015,1,0,0:0:0:1:
109,192,75151,1,0,0:0:0:1:
256,192,75151,1,0,0:0:0:1:
182,192,75288,1,0,0:0:0:1:
475,192,75288,1,0,0:0:0:1:
256,192,75424,1,0,0:0:0:1:
402,192,75424,1,0,0:0:0:1:
109,192,75561,1,0,0:0:0:1:
329,192,75561,1,0,0:0:0:1:
256,192,75697,1,0,0:0:0:1:
36,192,75697,1,0,0:0:0:1:
475,192,75731,1,0,0:0:0:1:
256,192,75765,1,0,0:0:0:1:
475,192,75799,1,0,0:0:0:1:
256,192,75833,1,0,0:0:0:1:
475,192,75867,1,0,0:0:0:1:
256,192,75901,1,0,0:0:0:1:
475,192,75936,1,0,0:0:0:1:
256,192,75970,1,0,0:0:0:1:
475,192,76004,1,0,0:0:0:1:
256,192,76038,1,0,0:0:0:1:
475,192,76072,1,0,0:0:0:1:
109,192,76106,1,0,0:0:0:1:
182,192,76106,1,0,0:0:0:1:
329,192,76106,1,0,0:0:0:1:
402,192,76106,1,0,0:0:0:1:
109,192,76379,1,0,0:0:0:1:
256,192,76379,1,0,0:0:0:1:
402,192,76379,1,0,0:0:0:1:
36,192,76379,1,0,0:0:0:1:
475,192,76379,1,0,0:0:0:1:
36,192,77197,1,0,0:0:0:1:
109,192,77213,1,0,0:0:0:1:
402,192,77229,1,0,0:0:0:1:
475,192,77248,1,0,0:0:0:1:
109,192,77265,1,0,0:0:0:1:
182,192,77275,1,0,0:0:0:1:
329,192,77296,1,0,0:0:0:1:
402,192,77314,1,0,0:0:0:1:
36,192,77336,1,0,0:0:0:1:
109,192,77341,1,0,0:0:0:1:
402,192,77365,1,0,0:0:0:1:
475,192,77379,1,0,0:0:0:1:
109,192,77393,1,0,0:0:0:1:
182,192,77421,1,0,0:0:0:1:
329,192,77435,1,0,0:0:0:1:
402,192,77450,1,0,0:0:0:1:
182,192,77469,1,0,0:0:0:1:
256,192,77469,1,0,0:0:0:1:
329,192,77469,1,0,0:0:0:1:
36,192,77469,1,0,0:0:0:1:
475,192,77469,1,0,0:0:0:1:
256,192,78287,128,0,78571:0:0:0:1:
109,192,78571,1,0,0:0:0:1:
182,192,78571,1,0,0:0:0:1:
329,192,78571,1,0,0:0:0:1:
402,192,78571,1,0,0:0:0:1:
36,192,78571,1,0,0:0:0:1:
475,192,78571,1,0,0:0:0:1:
182,192,78659,1,0,0:0:0:1:
36,192,78665,1,0,0:0:0:1:
109,192,78753,1,0,0:0:0:1:
256,192,78753,1,0,0:0:0:1:
182,192,78842,1,0,0:0:0:1:
329,192,78847,1,0,0:0:0:1:
256,192,78935,1,0,0:0:0:1:
402,192,78935,1,0,0:0:0:1:
329,192,79029,1,0,0:0:0:1:
475,192,79029,1,0,0:0:0:1:
109,192,79112,1,0,0:0:0:1:
256,192,79112,1,0,0:0:0:1:
329,192,79112,1,0,0:0:0:1:
402,192,79112,1,0,0:0:0:1:
36,192,79112,1,0,0:0:0:1:
475,192,79112,1,0,0:0:0:1:
182,192,79116,1,0,0:0:0:1:
329,192,79206,1,0,0:0:0:1:
475,192,79206,1,0,0:0:0:1:
256,192,79294,1,0,0:0:0:1:
402,192,79294,1,0,0:0:0:1:
182,192,79387,1,0,0:0:0:1:
329,192,79388,1,0,0:0:0:1:
109,192,79476,1,0,0:0:0:1:
256,192,79476,1,0,0:0:0:1:
36,192,79565,1,0,0:0:0:1:
182,192,79570,1,0,0:0:0:1:
109,192,79657,1,0,0:0:0:1:
182,192,79657,1,0,0:0:0:1:
256,192,79657,1,0,0:0:0:1:
329,192,79657,1,0,0:0:0:1:
402,192,79657,1,0,0:0:0:1:
36,192,79657,1,0,0:0:0:1:
475,192,79657,1,0,0:0:0:1:
109,192,79793,1,0,0:0:0:1:
256,192,79793,1,0,0:0:0:1:
182,192,79908,1,0,0:0:0:1:
402,192,79908,1,0,0:0:0:1:
36,192,79922,1,0,0:0:0:1:
109,192,79930,1,0,0:0:0:1:
256,192,79930,1,0,0:0:0:1:
329,192,79930,1,0,0:0:0:1:
475,192,79930,1,0,0:0:0:1:
402,192,80050,1,0,0:0:0:1:
256,192,80066,1,0,0:0:0:1:
182,192,80159,1,0,0:0:0:1:
402,192,80159,1,0,0:0:0:1:
36,192,80186,1,0,0:0:0:1:
109,192,80203,1,0,0:0:0:1:
256,192,80203,1,0,0:0:0:1:
329,192,80203,1,0,0:0:0:1:
475,192,80203,1,0,0:0:0:1:
329,192,80339,1,0,0:0:0:1:
182,192,80356,1,0,0:0:0:1:
256,192,80459,1,0,0:0:0:1:
475,192,80459,1,0,0:0:0:1:
182,192,80495,1,0,0:0:0:1:
402,192,80495,1,0,0:0:0:1:
329,192,80506,1,0,0:0:0:1:
109,192,80510,1,0,0:0:0:1:
256,192,80527,1,0,0:0:0:1:
36,192,80527,1,0,0:0:0:1:
475,192,80527,1,0,0:0:0:1:
182,192,80543,1,0,0:0:0:1:
402,192,80544,1,0,0:0:0:1:
109,192,80561,1,0,0:0:0:1:
329,192,80561,1,0,0:0:0:1:
256,192,80577,1,0,0:0:0:1:
36,192,80577,1,0,0:0:0:1:
182,192,80595,1,0,0:0:0:1:
109,192,80613,1,0,0:0:0:1:
36,192,80629,1,0,0:0:0:1:
475,192,80719,128,0,80749:0:0:0:1:
329,192,80871,128,0,80901:0:0:0:1:
402,192,81000,128,0,81031:0:0:0:1:
256,192,81127,128,0,81163:0:0:0:1:
329,192,81265,128,0,81295:0:0:0:1:
182,192,81401,128,0,81435:0:0:0:1:
256,192,81535,128,0,81571:0:0:0:1:
109,192,81674,128,0,81708:0:0:0:1:
182,192,81810,128,0,81844:0:0:0:1:
36,192,81947,128,0,81981:0:0:0:1:
36,192,82083,128,0,82117:0:0:0:1:
109,192,82219,128,0,82253:0:0:0:1:
182,192,82356,128,0,82390:0:0:0:1:
109,192,82492,128,0,82526:0:0:0:1:
256,192,82628,128,0,82663:0:0:0:1:
182,192,82765,128,0,82799:0:0:0:1:
182,192,82901,128,0,82935:0:0:0:1:
182,192,83038,128,0,83072:0:0:0:1:
182,192,83174,128,0,83208:0:0:0:1:
256,192,83310,128,0,83344:0:0:0:1:
256,192,83447,128,0,83481:0:0:0:1:
256,192,83583,128,0,83617:0:0:0:1:
329,192,83719,128,0,83753:0:0:0:1:
329,192,83856,128,0,83890:0:0:0:1:
475,192,83992,128,0,84026:0:0:0:1:
402,192,84128,128,0,84163:0:0:0:1:
329,192,84265,128,0,84299:0:0:0:1:
402,192,84401,128,0,84435:0:0:0:1:
329,192,84538,128,0,84572:0:0:0:1:
256,192,84674,128,0,84708:0:0:0:1:
329,192,84810,128,0,84844:0:0:0:1:
256,192,84947,128,0,84981:0:0:0:1:
182,192,85083,128,0,85117:0:0:0:1:
36,192,85219,128,0,85253:0:0:0:1:
36,192,85356,128,0,85390:0:0:0:1:
36,192,85492,128,0,85526:0:0:0:1:
109,192,85628,128,0,85663:0:0:0:1:
109,192,85765,128,0,85799:0:0:0:1:
109,192,85901,128,0,85935:0:0:0:1:
475,192,86038,128,0,86072:0:0:0:1:
475,192,86174,128,0,86208:0:0:0:1:
475,192,86310,128,0,86344:0:0:0:1:
402,192,86447,128,0,86481:0:0:0:1:
402,192,86583,128,0,86617:0:0:0:1:
402,192,86719,128,0,86753:0:0:0:1:
329,192,86856,128,0,86890:0:0:0:1:
329,192,86992,128,0,87026:0:0:0:1:
256,192,87128,128,0,87163:0:0:0:1:
256,192,87265,128,0,87299:0:0:0:1:
36,192,87401,128,0,87435:0:0:0:1:
36,192,87538,128,0,87572:0:0:0:1:
36,192,87674,128,0,87708:0:0:0:1:
182,192,87810,128,0,87844:0:0:0:1:
182,192,87947,128,0,87981:0:0:0:1:
182,192,88083,128,0,88117:0:0:0:1:
329,192,88219,128,0,88253:0:0:0:1:
329,192,88356,128,0,88390:0:0:0:1:
329,192,88492,128,0,88526:0:0:0:1:
475,192,88628,128,0,88663:0:0:0:1:
475,192,88765,128,0,88799:0:0:0:1:
475,192,88901,128,0,89003:0:0:0:1:
475,192,89038,128,0,89140:0:0:0:1:
475,192,89174,128,0,89378:0:0:0:1:
109,192,89447,128,0,89583:0:0:0:1:
182,192,89447,128,0,89583:0:0:0:1:
36,192,89447,128,0,89583:0:0:0:1:
475,192,89447,128,0,89476:0:0:0:1:
329,192,89598,128,0,89628:0:0:0:1:
402,192,89727,128,0,89758:0:0:0:1:
256,192,89855,128,0,89890:0:0:0:1:
109,192,89856,128,0,89992:0:0:0:1:
182,192,89856,128,0,89992:0:0:0:1:
36,192,89856,128,0,89992:0:0:0:1:
329,192,89992,128,0,90022:0:0:0:1:
182,192,90128,128,0,90163:0:0:0:1:
256,192,90263,128,0,90298:0:0:0:1:
109,192,90401,128,0,90435:0:0:0:1:
182,192,90538,128,0,90572:0:0:0:1:
329,192,90538,128,0,90674:0:0:0:1:
402,192,90538,128,0,90674:0:0:0:1:
475,192,90538,128,0,90674:0:0:0:1:
36,192,90674,128,0,90708:0:0:0:1:
36,192,90810,128,0,90844:0:0:0:1:
109,192,90947,128,0,90981:0:0:0:1:
329,192,90947,128,0,91083:0:0:0:1:
402,192,90947,128,0,91083:0:0:0:1:
475,192,90947,128,0,91083:0:0:0:1:
182,192,91083,128,0,91117:0:0:0:1:
109,192,91219,128,0,91253:0:0:0:1:
256,192,91356,128,0,91390:0:0:0:1:
182,192,91492,128,0,91526:0:0:0:1:
182,192,91628,128,0,91663:0:0:0:1:
256,192,91628,128,0,91765:0:0:0:1:
329,192,91628,128,0,91765:0:0:0:1:
402,192,91628,128,0,91765:0:0:0:1:
182,192,91765,128,0,91799:0:0:0:1:
182,192,91901,128,0,91935:0:0:0:1:
256,192,92038,128,0,92072:0:0:0:1:
329,192,92038,128,0,92174:0:0:0:1:
402,192,92038,128,0,92174:0:0:0:1:
475,192,92038,128,0,92174:0:0:0:1:
256,192,92174,128,0,92208:0:0:0:1:
256,192,92310,128,0,92344:0:0:0:1:
329,192,92447,128,0,92481:0:0:0:1:
329,192,92583,128,0,92617:0:0:0:1:
109,192,92719,128,0,92856:0:0:0:1:
182,192,92719,128,0,92856:0:0:0:1:
256,192,92719,128,0,92856:0:0:0:1:
475,192,92719,128,0,92753:0:0:0:1:
402,192,92856,128,0,92890:0:0:0:1:
329,192,92992,128,0,93026:0:0:0:1:
109,192,93128,128,0,93265:0:0:0:1:
182,192,93128,128,0,93265:0:0:0:1:
402,192,93128,128,0,93163:0:0:0:1:
36,192,93128,128,0,93265:0:0:0:1:
329,192,93265,128,0,93299:0:0:0:1:
256,192,93401,128,0,93435:0:0:0:1:
329,192,93538,128,0,93572:0:0:0:1:
256,192,93674,128,0,93708:0:0:0:1:
182,192,93810,128,0,93844:0:0:0:1:
256,192,93810,128,0,93947:0:0:0:1:
329,192,93810,128,0,93947:0:0:0:1:
402,192,93810,128,0,93947:0:0:0:1:
36,192,93947,128,0,93981:0:0:0:1:
36,192,94083,128,0,94117:0:0:0:1:
182,192,94219,128,0,94356:0:0:0:1:
256,192,94219,128,0,94356:0:0:0:1:
329,192,94219,128,0,94356:0:0:0:1:
36,192,94219,128,0,94253:0:0:0:1:
109,192,94356,128,0,94390:0:0:0:1:
109,192,94492,128,0,94526:0:0:0:1:
109,192,94628,128,0,94663:0:0:0:1:
475,192,94765,128,0,94799:0:0:0:1:
182,192,94901,128,0,95038:0:0:0:1:
256,192,94901,128,0,95038:0:0:0:1:
329,192,94901,128,0,95038:0:0:0:1:
475,192,94901,128,0,94935:0:0:0:1:
475,192,95038,128,0,95072:0:0:0:1:
402,192,95174,128,0,95208:0:0:0:1:
109,192,95310,128,0,95447:0:0:0:1:
182,192,95310,128,0,95447:0:0:0:1:
256,192,95310,128,0,95447:0:0:0:1:
402,192,95310,128,0,95344:0:0:0:1:
402,192,95447,128,0,95481:0:0:0:1:
329,192,95583,128,0,95617:0:0:0:1:
182,192,95719,128,0,95753:0:0:0:1:
256,192,95856,128,0,95890:0:0:0:1:
109,192,95992,128,0,96026:0:0:0:1:
256,192,95992,128,0,96128:0:0:0:1:
329,192,95992,128,0,96128:0:0:0:1:
402,192,95992,128,0,96128:0:0:0:1:
36,192,96128,128,0,96163:0:0:0:1:
36,192,96265,128,0,96299:0:0:0:1:
256,192,96401,128,0,96435:0:0:0:1:
329,192,96401,128,0,96538:0:0:0:1:
402,192,96401,128,0,96538:0:0:0:1:
475,192,96401,128,0,96538:0:0:0:1:
182,192,96538,128,0,96572:0:0:0:1:
182,192,96674,128,0,96708:0:0:0:1:
402,192,96810,128,0,96844:0:0:0:1:
329,192,96947,128,0,96981:0:0:0:1:
109,192,97083,128,0,97219:0:0:0:1:
182,192,97083,128,0,97219:0:0:0:1:
329,192,97083,128,0,97117:0:0:0:1:
36,192,97083,128,0,97219:0:0:0:1:
329,192,97219,128,0,97253:0:0:0:1:
256,192,97356,128,0,97390:0:0:0:1:
109,192,97492,128,0,97628:0:0:0:1:
182,192,97492,128,0,97628:0:0:0:1:
256,192,97492,128,0,97628:0:0:0:1:
475,192,97492,128,0,97526:0:0:0:1:
36,192,97628,128,0,97663:0:0:0:1:
182,192,97765,128,0,97799:0:0:0:1:
109,192,97901,128,0,97935:0:0:0:1:
256,192,98038,128,0,98072:0:0:0:1:
109,192,98174,1,0,0:0:0:1:
182,192,98174,1,0,0:0:0:1:
256,192,98174,1,0,0:0:0:1:
329,192,98174,1,0,0:0:0:1:
402,192,98174,1,0,0:0:0:1:
36,192,98174,1,0,0:0:0:1:
475,192,98174,128,0,98203:0:0:0:1:
329,192,98325,128,0,98356:0:0:0:1:
109,192,98447,1,0,0:0:0:1:
182,192,98447,1,0,0:0:0:1:
256,192,98447,1,0,0:0:0:1:
329,192,98447,1,0,0:0:0:1:
36,192,98447,1,0,0:0:0:1:
475,192,98447,1,0,0:0:0:1:
402,192,98447,128,0,98478:0:0:0:1:
256,192,98582,128,0,98617:0:0:0:1:
109,192,98719,1,0,0:0:0:1:
182,192,98719,1,0,0:0:0:1:
256,192,98719,1,0,0:0:0:1:
402,192,98719,1,0,0:0:0:1:
36,192,98719,1,0,0:0:0:1:
475,192,98719,1,0,0:0:0:1:
329,192,98719,128,0,98750:0:0:0:1:
182,192,98856,128,0,98890:0:0:0:1:
256,192,98990,128,0,99025:0:0:0:1:
109,192,98992,1,0,0:0:0:1:
182,192,98992,1,0,0:0:0:1:
329,192,98992,1,0,0:0:0:1:
402,192,98992,1,0,0:0:0:1:
36,192,98992,1,0,0:0:0:1:
475,192,98992,1,0,0:0:0:1:
109,192,99128,128,0,99163:0:0:0:1:
109,192,99265,1,0,0:0:0:1:
256,192,99265,1,0,0:0:0:1:
329,192,99265,1,0,0:0:0:1:
402,192,99265,1,0,0:0:0:1:
36,192,99265,1,0,0:0:0:1:
475,192,99265,1,0,0:0:0:1:
182,192,99265,128,0,99299:0:0:0:1:
36,192,99401,128,0,99435:0:0:0:1:
109,192,99538,1,0,0:0:0:1:
182,192,99538,1,0,0:0:0:1:
256,192,99538,1,0,0:0:0:1:
329,192,99538,1,0,0:0:0:1:
402,192,99538,1,0,0:0:0:1:
475,192,99538,1,0,0:0:0:1:
36,192,99538,128,0,99572:0:0:0:1:
109,192,99674,128,0,99708:0:0:0:1:
109,192,99810,1,0,0:0:0:1:
256,192,99810,1,0,0:0:0:1:
329,192,99810,1,0,0:0:0:1:
402,192,99810,1,0,0:0:0:1:
36,192,99810,1,0,0:0:0:1:
475,192,99810,1,0,0:0:0:1:
182,192,99810,128,0,99844:0:0:0:1:
109,192,99947,128,0,99981:0:0:0:1:
109,192,100083,1,0,0:0:0:1:
182,192,100083,1,0,0:0:0:1:
329,192,100083,1,0,0:0:0:1:
402,192,100083,1,0,0:0:0:1:
36,192,100083,1,0,0:0:0:1:
475,192,100083,1,0,0:0:0:1:
256,192,100083,128,0,100117:0:0:0:1:
182,192,100219,128,0,100253:0:0:0:1:
109,192,100356,1,0,0:0:0:1:
256,192,100356,1,0,0:0:0:1:
329,192,100356,1,0,0:0:0:1:
402,192,100356,1,0,0:0:0:1:
36,192,100356,1,0,0:0:0:1:
475,192,100356,1,0,0:0:0:1:
182,192,100356,128,0,100390:0:0:0:1:
182,192,100492,128,0,100526:0:0:0:1:
109,192,100628,1,0,0:0:0:1:
256,192,100628,1,0,0:0:0:1:
329,192,100628,1,0,0:0:0:1:
402,192,100628,1,0,0:0:0:1:
36,192,100628,1,0,0:0:0:1:
475,192,100628,1,0,0:0:0:1:
182,192,100628,128,0,100663:0:0:0:1:
256,192,100765,128,0,100799:0:0:0:1:
109,192,100901,1,0,0:0:0:1:
182,192,100901,1,0,0:0:0:1:
329,192,100901,1,0,0:0:0:1:
402,192,100901,1,0,0:0:0:1:
36,192,100901,1,0,0:0:0:1:
475,192,100901,1,0,0:0:0:1:
256,192,100901,128,0,100935:0:0:0:1:
256,192,101038,128,0,101072:0:0:0:1:
109,192,101174,1,0,0:0:0:1:
182,192,101174,1,0,0:0:0:1:
256,192,101174,1,0,0:0:0:1:
402,192,101174,1,0,0:0:0:1:
36,192,101174,1,0,0:0:0:1:
475,192,101174,1,0,0:0:0:1:
329,192,101174,128,0,101208:0:0:0:1:
329,192,101310,128,0,101344:0:0:0:1:
109,192,101447,1,0,0:0:0:1:
182,192,101447,1,0,0:0:0:1:
256,192,101447,1,0,0:0:0:1:
329,192,101447,1,0,0:0:0:1:
402,192,101447,1,0,0:0:0:1:
36,192,101447,1,0,0:0:0:1:
475,192,101447,128,0,101481:0:0:0:1:
402,192,101583,128,0,101617:0:0:0:1:
109,192,101719,1,0,0:0:0:1:
182,192,101719,1,0,0:0:0:1:
256,192,101719,1,0,0:0:0:1:
402,192,101719,1,0,0:0:0:1:
36,192,101719,1,0,0:0:0:1:
475,192,101719,1,0,0:0:0:1:
329,192,101719,128,0,101753:0:0:0:1:
402,192,101856,128,0,101890:0:0:0:1:
109,192,101992,1,0,0:0:0:1:
182,192,101992,1,0,0:0:0:1:
256,192,101992,1,0,0:0:0:1:
402,192,101992,1,0,0:0:0:1:
36,192,101992,1,0,0:0:0:1:
475,192,101992,1,0,0:0:0:1:
329,192,101992,128,0,102026:0:0:0:1:
256,192,102128,128,0,102163:0:0:0:1:
109,192,102265,1,0,0:0:0:1:
182,192,102265,1,0,0:0:0:1:
256,192,102265,1,0,0:0:0:1:
402,192,102265,1,0,0:0:0:1:
36,192,102265,1,0,0:0:0:1:
475,192,102265,1,0,0:0:0:1:
329,192,102265,128,0,102299:0:0:0:1:
256,192,102401,128,0,102435:0:0:0:1:
109,192,102538,1,0,0:0:0:1:
256,192,102538,1,0,0:0:0:1:
329,192,102538,1,0,0:0:0:1:
402,192,102538,1,0,0:0:0:1:
36,192,102538,1,0,0:0:0:1:
475,192,102538,1,0,0:0:0:1:
182,192,102538,128,0,102572:0:0:0:1:
36,192,102674,128,0,102708:0:0:0:1:
109,192,102810,1,0,0:0:0:1:
182,192,102810,1,0,0:0:0:1:
256,192,102810,1,0,0:0:0:1:
329,192,102810,1,0,0:0:0:1:
402,192,102810,1,0,0:0:0:1:
475,192,102810,1,0,0:0:0:1:
36,192,102810,128,0,102844:0:0:0:1:
36,192,102947,128,0,102981:0:0:0:1:
182,192,103083,1,0,0:0:0:1:
256,192,103083,1,0,0:0:0:1:
329,192,103083,1,0,0:0:0:1:
402,192,103083,1,0,0:0:0:1:
36,192,103083,1,0,0:0:0:1:
475,192,103083,1,0,0:0:0:1:
109,192,103083,128,0,103117:0:0:0:1:
109,192,103219,128,0,103253:0:0:0:1:
182,192,103356,1,0,0:0:0:1:
256,192,103356,1,0,0:0:0:1:
329,192,103356,1,0,0:0:0:1:
402,192,103356,1,0,0:0:0:1:
36,192,103356,1,0,0:0:0:1:
475,192,103356,1,0,0:0:0:1:
109,192,103356,128,0,103390:0:0:0:1:
475,192,103492,128,0,103526:0:0:0:1:
109,192,103628,1,0,0:0:0:1:
182,192,103628,1,0,0:0:0:1:
256,192,103628,1,0,0:0:0:1:
329,192,103628,1,0,0:0:0:1:
402,192,103628,1,0,0:0:0:1:
36,192,103628,1,0,0:0:0:1:
475,192,103628,128,0,103663:0:0:0:1:
475,192,103765,128,0,103799:0:0:0:1:
109,192,103901,1,0,0:0:0:1:
182,192,103901,1,0,0:0:0:1:
256,192,103901,1,0,0:0:0:1:
329,192,103901,1,0,0:0:0:1:
36,192,103901,1,0,0:0:0:1:
475,192,103901,1,0,0:0:0:1:
402,192,103901,128,0,103935:0:0:0:1:
402,192,104038,128,0,104072:0:0:0:1:
109,192,104174,1,0,0:0:0:1:
182,192,104174,1,0,0:0:0:1:
256,192,104174,1,0,0:0:0:1:
329,192,104174,1,0,0:0:0:1:
36,192,104174,1,0,0:0:0:1:
475,192,104174,1,0,0:0:0:1:
402,192,104174,128,0,104208:0:0:0:1:
329,192,104310,128,0,104344:0:0:0:1:
109,192,104447,1,0,0:0:0:1:
256,192,104447,1,0,0:0:0:1:
329,192,104447,1,0,0:0:0:1:
402,192,104447,1,0,0:0:0:1:
36,192,104447,1,0,0:0:0:1:
475,192,104447,1,0,0:0:0:1:
182,192,104447,128,0,104481:0:0:0:1:
256,192,104583,128,0,104617:0:0:0:1:
182,192,104719,1,0,0:0:0:1:
256,192,104719,1,0,0:0:0:1:
329,192,104719,1,0,0:0:0:1:
402,192,104719,1,0,0:0:0:1:
36,192,104719,1,0,0:0:0:1:
475,192,104719,1,0,0:0:0:1:
109,192,104719,128,0,104753:0:0:0:1:
36,192,104856,128,0,104890:0:0:0:1:
109,192,104992,1,0,0:0:0:1:
182,192,104992,1,0,0:0:0:1:
256,192,104992,1,0,0:0:0:1:
329,192,104992,1,0,0:0:0:1:
402,192,104992,1,0,0:0:0:1:
475,192,104992,1,0,0:0:0:1:
36,192,104992,128,0,105026:0:0:0:1:
256,192,105128,128,0,105163:0:0:0:1:
109,192,105265,1,0,0:0:0:1:
256,192,105265,1,0,0:0:0:1:
329,192,105265,1,0,0:0:0:1:
402,192,105265,1,0,0:0:0:1:
36,192,105265,1,0,0:0:0:1:
475,192,105265,1,0,0:0:0:1:
182,192,105265,128,0,105299:0:0:0:1:
182,192,105401,128,0,105435:0:0:0:1:
109,192,105538,1,0,0:0:0:1:
182,192,105538,1,0,0:0:0:1:
256,192,105538,1,0,0:0:0:1:
329,192,105538,1,0,0:0:0:1:
36,192,105538,1,0,0:0:0:1:
475,192,105538,1,0,0:0:0:1:
402,192,105538,128,0,105572:0:0:0:1:
329,192,105674,128,0,105708:0:0:0:1:
109,192,105810,1,0,0:0:0:1:
182,192,105810,1,0,0:0:0:1:
256,192,105810,1,0,0:0:0:1:
402,192,105810,1,0,0:0:0:1:
36,192,105810,1,0,0:0:0:1:
475,192,105810,1,0,0:0:0:1:
329,192,105810,128,0,105844:0:0:0:1:
329,192,105947,128,0,105981:0:0:0:1:
109,192,106083,1,0,0:0:0:1:
182,192,106083,1,0,0:0:0:1:
329,192,106083,1,0,0:0:0:1:
402,192,106083,1,0,0:0:0:1:
36,192,106083,1,0,0:0:0:1:
475,192,106083,1,0,0:0:0:1:
256,192,106083,128,0,106117:0:0:0:1:
475,192,106219,128,0,106253:0:0:0:1:
109,192,106356,1,0,0:0:0:1:
182,192,106356,1,0,0:0:0:1:
256,192,106356,1,0,0:0:0:1:
329,192,106356,1,0,0:0:0:1:
402,192,106356,1,0,0:0:0:1:
475,192,106356,1,0,0:0:0:1:
36,192,106356,128,0,106390:0:0:0:1:
256,192,106492,1,0,0:0:0:1:
402,192,106492,1,0,0:0:0:1:
182,192,106492,128,0,106526:0:0:0:1:
182,192,106628,1,0,0:0:0:1:
256,192,106628,1,0,0:0:0:1:
329,192,106628,1,0,0:0:0:1:
402,192,106628,1,0,0:0:0:1:
36,192,106628,1,0,0:0:0:1:
475,192,106628,1,0,0:0:0:1:
109,192,106628,128,0,106663:0:0:0:1:
182,192,106765,1,0,0:0:0:1:
329,192,106765,1,0,0:0:0:1:
256,192,106765,128,0,106799:0:0:0:1:
402,192,106901,1,0,0:0:0:1:
475,192,106901,1,0,0:0:0:1:
109,192,106901,128,0,106947:0:0:0:1:
182,192,106901,128,0,107310:0:0:0:1:
256,192,106901,128,0,106947:0:0:0:1:
329,192,106901,128,0,107447:0:0:0:1:
36,192,106901,128,0,107447:0:0:0:1:
109,192,107174,128,0,107310:0:0:0:1:
256,192,107174,128,0,107310:0:0:0:1:
109,192,107447,128,0,107992:0:0:0:1:
182,192,107447,128,0,107492:0:0:0:1:
256,192,107447,128,0,107856:0:0:0:1:
402,192,107447,128,0,107992:0:0:0:1:
475,192,107447,128,0,107492:0:0:0:1:
182,192,107719,128,0,107856:0:0:0:1:
329,192,107719,128,0,107856:0:0:0:1:
475,192,107719,128,0,107856:0:0:0:1:
182,192,107992,128,0,108538:0:0:0:1:
256,192,107992,128,0,108038:0:0:0:1:
329,192,107992,128,0,108401:0:0:0:1:
36,192,107992,128,0,108038:0:0:0:1:
475,192,107992,128,0,108538:0:0:0:1:
109,192,108265,128,0,108401:0:0:0:1:
256,192,108265,128,0,108401:0:0:0:1:
36,192,108265,128,0,108401:0:0:0:1:
109,192,108538,128,0,109083:0:0:0:1:
256,192,108538,128,0,108947:0:0:0:1:
329,192,108538,128,0,108583:0:0:0:1:
402,192,108538,128,0,109083:0:0:0:1:
36,192,108538,128,0,108583:0:0:0:1:
182,192,108810,128,0,108947:0:0:0:1:
329,192,108810,128,0,108947:0:0:0:1:
36,192,108810,128,0,108947:0:0:0:1:
182,192,109083,128,0,109128:0:0:0:1:
256,192,109083,128,0,109492:0:0:0:1:
329,192,109083,128,0,109628:0:0:0:1:
36,192,109083,128,0,109628:0:0:0:1:
475,192,109083,128,0,109128:0:0:0:1:
182,192,109356,128,0,109492:0:0:0:1:
402,192,109356,128,0,109492:0:0:0:1:
475,192,109356,128,0,109492:0:0:0:1:
109,192,109628,128,0,110174:0:0:0:1:
182,192,109628,128,0,109674:0:0:0:1:
256,192,109628,128,0,110174:0:0:0:1:
402,192,109628,128,0,110038:0:0:0:1:
475,192,109628,128,0,109674:0:0:0:1:
182,192,109901,128,0,110038:0:0:0:1:
329,192,109901,128,0,110038:0:0:0:1:
475,192,109901,128,0,110038:0:0:0:1:
182,192,110174,128,0,110719:0:0:0:1:
329,192,110174,128,0,110719:0:0:0:1:
402,192,110174,128,0,110219:0:0:0:1:
36,192,110174,128,0,110219:0:0:0:1:
475,192,110174,128,0,110583:0:0:0:1:
256,192,110447,128,0,110583:0:0:0:1:
402,192,110447,128,0,110583:0:0:0:1:
36,192,110447,128,0,110583:0:0:0:1:
109,192,110719,128,0,111128:0:0:0:1:
256,192,110719,128,0,111265:0:0:0:1:
402,192,110719,128,0,111265:0:0:0:1:
36,192,110719,128,0,110765:0:0:0:1:
475,192,110719,128,0,110765:0:0:0:1:
182,192,110992,128,0,111128:0:0:0:1:
36,192,110992,128,0,111128:0:0:0:1:
475,192,110992,128,0,111128:0:0:0:1:
109,192,111265,128,0,111674:0:0:0:1:
182,192,111265,128,0,111310:0:0:0:1:
329,192,111265,128,0,111810:0:0:0:1:
36,192,111265,128,0,111310:0:0:0:1:
475,192,111265,128,0,111810:0:0:0:1:
182,192,111538,128,0,111674:0:0:0:1:
402,192,111538,128,0,111674:0:0:0:1:
36,192,111538,128,0,111674:0:0:0:1:
109,192,111810,128,0,111856:0:0:0:1:
182,192,111810,128,0,112219:0:0:0:1:
256,192,111810,128,0,112356:0:0:0:1:
402,192,111810,128,0,111856:0:0:0:1:
36,192,111810,128,0,112356:0:0:0:1:
109,192,112083,128,0,112219:0:0:0:1:
329,192,112083,128,0,112219:0:0:0:1:
402,192,112083,128,0,112219:0:0:0:1:
109,192,112356,128,0,112901:0:0:0:1:
182,192,112356,128,0,112401:0:0:0:1:
329,192,112356,128,0,112901:0:0:0:1:
402,192,112356,128,0,112765:0:0:0:1:
475,192,112356,128,0,112401:0:0:0:1:
182,192,112628,128,0,112765:0:0:0:1:
256,192,112628,128,0,112765:0:0:0:1:
475,192,112628,128,0,112765:0:0:0:1:
182,192,112901,128,0,113447:0:0:0:1:
256,192,112901,128,0,113310:0:0:0:1:
402,192,112901,128,0,113447:0:0:0:1:
36,192,112901,128,0,112947:0:0:0:1:
475,192,112901,128,0,112947:0:0:0:1:
329,192,113174,128,0,113310:0:0:0:1:
36,192,113174,128,0,113310:0:0:0:1:
475,192,113174,128,0,113310:0:0:0:1:
109,192,113447,128,0,113492:0:0:0:1:
256,192,113447,128,0,113992:0:0:0:1:
329,192,113447,128,0,113765:0:0:0:1:
36,192,113447,128,0,113492:0:0:0:1:
475,192,113447,128,0,113992:0:0:0:1:
182,192,113719,1,0,0:0:0:1:
109,192,113719,128,0,113765:0:0:0:1:
402,192,113719,128,0,113765:0:0:0:1:
36,192,113719,128,0,113765:0:0:0:1:
109,192,113992,128,0,114538:0:0:0:1:
182,192,113992,128,0,114038:0:0:0:1:
329,192,113992,128,0,114038:0:0:0:1:
402,192,113992,128,0,114538:0:0:0:1:
36,192,113992,128,0,114310:0:0:0:1:
475,192,114265,1,0,0:0:0:1:
182,192,114265,128,0,114310:0:0:0:1:
256,192,114265,128,0,114310:0:0:0:1:
329,192,114265,128,0,114310:0:0:0:1:
182,192,114538,128,0,114606:0:0:0:1:
256,192,114538,128,0,115628:0:0:0:1:
329,192,114538,128,0,114606:0:0:0:1:
36,192,114538,128,0,114606:0:0:0:1:
475,192,114538,128,0,114606:0:0:0:1:
182,192,114674,128,0,114742:0:0:0:1:
329,192,114674,128,0,114742:0:0:0:1:
36,192,114674,128,0,114742:0:0:0:1:
475,192,114674,128,0,114742:0:0:0:1:
182,192,114810,128,0,114878:0:0:0:1:
329,192,114810,128,0,114878:0:0:0:1:
36,192,114810,128,0,114878:0:0:0:1:
475,192,114810,128,0,114878:0:0:0:1:
182,192,114947,128,0,115015:0:0:0:1:
329,192,114947,128,0,115015:0:0:0:1:
36,192,114947,128,0,115015:0:0:0:1:
475,192,114947,128,0,115015:0:0:0:1:
182,192,115083,128,0,115151:0:0:0:1:
329,192,115083,128,0,115151:0:0:0:1:
36,192,115083,128,0,115151:0:0:0:1:
475,192,115083,128,0,115151:0:0:0:1:
182,192,115219,128,0,115288:0:0:0:1:
329,192,115219,128,0,115288:0:0:0:1:
36,192,115219,128,0,115288:0:0:0:1:
475,192,115219,128,0,115288:0:0:0:1:
182,192,115356,128,0,115424:0:0:0:1:
329,192,115356,128,0,115424:0:0:0:1:
36,192,115356,128,0,115424:0:0:0:1:
475,192,115356,128,0,115424:0:0:0:1:
182,192,115492,128,0,115560:0:0:0:1:
329,192,115492,128,0,115560:0:0:0:1:
36,192,115492,128,0,115560:0:0:0:1:
475,192,115492,128,0,115560:0:0:0:1:
36,192,115628,128,0,117810:0:0:0:1:
182,192,117810,128,0,119992:0:0:0:1:
329,192,119992,128,0,122174:0:0:0:1:
475,192,122174,128,0,124356:0:0:0:1:
109,192,124356,128,0,126538:0:0:0:1:
402,192,126538,128,0,128719:0:0:0:1:
182,192,128719,128,0,130628:0:0:0:1:
256,192,128719,128,0,130628:0:0:0:1:
329,192,128719,128,0,130628:0:0:0:1:
109,192,130901,128,0,132811:0:0:0:1:
182,192,130901,128,0,132811:0:0:0:1:
256,192,130901,128,0,132811:0:0:0:1:
329,192,130901,128,0,132811:0:0:0:1:
402,192,130901,128,0,132811:0:0:0:1:
36,192,130901,128,0,132811:0:0:0:1:
475,192,130901,128,0,132811:0:0:0:1:
256,192,133083,1,0,0:0:0:1:
182,192,133356,1,0,0:0:0:1:
329,192,133492,1,0,0:0:0:1:
109,192,133629,1,0,0:0:0:1:
256,192,133629,1,0,0:0:0:1:
182,192,133901,1,0,0:0:0:1:
402,192,133901,1,0,0:0:0:1:
329,192,134038,1,0,0:0:0:1:
256,192,134174,1,0,0:0:0:1:
402,192,134174,1,0,0:0:0:1:
475,192,134311,1,0,0:0:0:1:
402,192,134447,1,0,0:0:0:1:
36,192,134447,1,0,0:0:0:1:
109,192,134720,1,0,0:0:0:1:
402,192,134720,1,0,0:0:0:1:
256,192,134856,1,0,0:0:0:1:
182,192,134992,1,0,0:0:0:1:
329,192,134992,1,0,0:0:0:1:
475,192,135129,1,0,0:0:0:1:
256,192,135265,1,0,0:0:0:1:
402,192,135265,1,0,0:0:0:1:
329,192,135538,1,0,0:0:0:1:
182,192,135674,1,0,0:0:0:1:
109,192,135811,1,0,0:0:0:1:
256,192,135811,1,0,0:0:0:1:
109,192,136083,1,0,0:0:0:1:
329,192,136083,1,0,0:0:0:1:
182,192,136220,1,0,0:0:0:1:
109,192,136356,1,0,0:0:0:1:
402,192,136356,1,0,0:0:0:1:
36,192,136492,1,0,0:0:0:1:
109,192,136629,1,0,0:0:0:1:
475,192,136629,1,0,0:0:0:1:
109,192,136901,1,0,0:0:0:1:
256,192,136901,1,0,0:0:0:1:
402,192,136901,1,0,0:0:0:1:
182,192,137038,1,0,0:0:0:1:
329,192,137174,1,0,0:0:0:1:
256,192,137311,1,0,0:0:0:1:
402,192,137447,1,0,0:0:0:1:
329,192,137720,1,0,0:0:0:1:
402,192,137856,1,0,0:0:0:1:
109,192,137992,1,0,0:0:0:1:
256,192,137992,1,0,0:0:0:1:
182,192,138265,1,0,0:0:0:1:
475,192,138265,1,0,0:0:0:1:
402,192,138401,1,0,0:0:0:1:
256,192,138538,1,0,0:0:0:1:
475,192,138538,1,0,0:0:0:1:
402,192,138674,1,0,0:0:0:1:
109,192,138811,1,0,0:0:0:1:
329,192,138811,1,0,0:0:0:1:
256,192,139083,1,0,0:0:0:1:
36,192,139083,1,0,0:0:0:1:
182,192,139220,1,0,0:0:0:1:
109,192,139356,1,0,0:0:0:1:
475,192,139356,1,0,0:0:0:1:
256,192,139492,1,0,0:0:0:1:
402,192,139629,1,0,0:0:0:1:
182,192,139901,1,0,0:0:0:1:
256,192,140174,1,0,0:0:0:1:
36,192,140174,1,0,0:0:0:1:
475,192,140174,1,0,0:0:0:1:
109,192,140447,1,0,0:0:0:1:
256,192,140447,1,0,0:0:0:1:
182,192,140583,1,0,0:0:0:1:
256,192,140720,128,0,141811:0:0:0:1:
475,192,141811,128,0,141846:0:0:0:1:
329,192,142084,128,0,142118:0:0:0:1:
402,192,142357,128,0,142391:0:0:0:1:
256,192,142630,128,0,142664:0:0:0:1:
329,192,142902,128,0,142936:0:0:0:1:
182,192,143175,128,0,143209:0:0:0:1:
256,192,143448,128,0,143482:0:0:0:1:
109,192,143721,128,0,143755:0:0:0:1:
182,192,143993,128,0,144027:0:0:0:1:
36,192,144266,128,0,144300:0:0:0:1:
109,192,144539,128,0,144573:0:0:0:1:
36,192,144811,128,0,144846:0:0:0:1:
182,192,145084,128,0,145118:0:0:0:1:
109,192,145357,128,0,145391:0:0:0:1:
256,192,145630,128,0,145664:0:0:0:1:
182,192,145902,128,0,145936:0:0:0:1:
329,192,146175,128,0,146209:0:0:0:1:
256,192,146448,128,0,146482:0:0:0:1:
402,192,146721,128,0,146755:0:0:0:1:
329,192,146993,128,0,147027:0:0:0:1:
475,192,147266,128,0,147300:0:0:0:1:
402,192,147539,128,0,147573:0:0:0:1:
475,192,147811,128,0,147846:0:0:0:1:
329,192,148084,128,0,148118:0:0:0:1:
402,192,148357,128,0,148391:0:0:0:1:
256,192,148630,128,0,148664:0:0:0:1:
329,192,148902,128,0,148936:0:0:0:1:
182,192,149175,128,0,149209:0:0:0:1:
256,192,149448,128,0,149482:0:0:0:1:
109,192,149721,128,0,149755:0:0:0:1:
182,192,149993,128,0,150027:0:0:0:1:
36,192,150266,128,0,150300:0:0:0:1:
109,192,150539,1,0,0:0:0:1:
182,192,150539,1,0,0:0:0:1:
256,192,150539,128,0,150607:0:0:0:1:
329,192,150539,128,0,150914:0:0:0:1:
402,192,150539,128,0,150607:0:0:0:1:
475,192,150539,128,0,150914:0:0:0:1:
36,192,150607,1,0,0:0:0:1:
109,192,150675,1,0,0:0:0:1:
182,192,150743,1,0,0:0:0:1:
109,192,150811,1,0,0:0:0:1:
256,192,150811,1,0,0:0:0:1:
402,192,150811,1,0,0:0:0:1:
182,192,150880,1,0,0:0:0:1:
109,192,150948,1,0,0:0:0:1:
256,192,150948,128,0,151323:0:0:0:1:
329,192,150948,128,0,151016:0:0:0:1:
402,192,150948,128,0,151323:0:0:0:1:
475,192,150948,128,0,151016:0:0:0:1:
36,192,151016,1,0,0:0:0:1:
109,192,151084,1,0,0:0:0:1:
182,192,151084,1,0,0:0:0:1:
475,192,151084,1,0,0:0:0:1:
329,192,151152,1,0,0:0:0:1:
475,192,151221,1,0,0:0:0:1:
329,192,151289,1,0,0:0:0:1:
256,192,151357,1,0,0:0:0:1:
329,192,151357,1,0,0:0:0:1:
402,192,151357,1,0,0:0:0:1:
36,192,151425,1,0,0:0:0:1:
475,192,151425,1,0,0:0:0:1:
109,192,151493,1,0,0:0:0:1:
402,192,151493,1,0,0:0:0:1:
182,192,151561,1,0,0:0:0:1:
329,192,151561,1,0,0:0:0:1:
402,192,151630,1,0,0:0:0:1:
475,192,151630,1,0,0:0:0:1:
109,192,151630,128,0,151698:0:0:0:1:
182,192,151630,128,0,152005:0:0:0:1:
256,192,151630,128,0,151698:0:0:0:1:
36,192,151630,128,0,152005:0:0:0:1:
329,192,151698,1,0,0:0:0:1:
402,192,151766,1,0,0:0:0:1:
329,192,151834,1,0,0:0:0:1:
256,192,151902,1,0,0:0:0:1:
329,192,151971,1,0,0:0:0:1:
402,192,152039,1,0,0:0:0:1:
109,192,152039,128,0,152414:0:0:0:1:
182,192,152039,128,0,152107:0:0:0:1:
256,192,152039,128,0,152414:0:0:0:1:
36,192,152039,128,0,152107:0:0:0:1:
475,192,152107,1,0,0:0:0:1:
402,192,152175,1,0,0:0:0:1:
329,192,152243,1,0,0:0:0:1:
182,192,152311,1,0,0:0:0:1:
36,192,152380,1,0,0:0:0:1:
109,192,152448,1,0,0:0:0:1:
182,192,152448,1,0,0:0:0:1:
256,192,152448,1,0,0:0:0:1:
329,192,152516,1,0,0:0:0:1:
36,192,152516,1,0,0:0:0:1:
109,192,152584,1,0,0:0:0:1:
402,192,152584,1,0,0:0:0:1:
182,192,152652,1,0,0:0:0:1:
475,192,152652,1,0,0:0:0:1:
109,192,152721,1,0,0:0:0:1:
402,192,152721,1,0,0:0:0:1:
182,192,152721,128,0,152789:0:0:0:1:
329,192,152721,128,0,152789:0:0:0:1:
36,192,152721,128,0,152857:0:0:0:1:
475,192,152721,128,0,152857:0:0:0:1:
256,192,152789,1,0,0:0:0:1:
109,192,152857,1,0,0:0:0:1:
182,192,152857,128,0,152925:0:0:0:1:
329,192,152857,128,0,152925:0:0:0:1:
36,192,152925,1,0,0:0:0:1:
109,192,152993,1,0,0:0:0:1:
182,192,152993,128,0,153061:0:0:0:1:
329,192,152993,128,0,153061:0:0:0:1:
256,192,153061,1,0,0:0:0:1:
402,192,153130,1,0,0:0:0:1:
182,192,153130,128,0,153198:0:0:0:1:
256,192,153130,128,0,153266:0:0:0:1:
329,192,153130,128,0,153198:0:0:0:1:
36,192,153130,128,0,153266:0:0:0:1:
475,192,153130,128,0,153266:0:0:0:1:
109,192,153198,1,0,0:0:0:1:
182,192,153266,1,0,0:0:0:1:
109,192,153266,128,0,153334:0:0:0:1:
402,192,153266,128,0,153334:0:0:0:1:
329,192,153334,1,0,0:0:0:1:
256,192,153402,1,0,0:0:0:1:
109,192,153402,128,0,153471:0:0:0:1:
402,192,153402,128,0,153471:0:0:0:1:
182,192,153471,1,0,0:0:0:1:
36,192,153539,1,0,0:0:0:1:
475,192,153539,1,0,0:0:0:1:
109,192,153539,128,0,153607:0:0:0:1:
402,192,153539,128,0,153607:0:0:0:1:
329,192,153607,1,0,0:0:0:1:
256,192,153675,1,0,0:0:0:1:
109,192,153675,128,0,153743:0:0:0:1:
402,192,153675,128,0,153743:0:0:0:1:
182,192,153743,1,0,0:0:0:1:
329,192,153743,1,0,0:0:0:1:
256,192,153811,1,0,0:0:0:1:
109,192,153811,128,0,153948:0:0:0:1:
402,192,153811,128,0,153948:0:0:0:1:
36,192,153811,128,0,153880:0:0:0:1:
475,192,153811,128,0,153880:0:0:0:1:
182,192,153880,1,0,0:0:0:1:
256,192,153948,1,0,0:0:0:1:
36,192,153948,128,0,154016:0:0:0:1:
475,192,153948,128,0,154016:0:0:0:1:
329,192,154016,1,0,0:0:0:1:
109,192,154084,1,0,0:0:0:1:
402,192,154084,1,0,0:0:0:1:
36,192,154084,128,0,154152:0:0:0:1:
475,192,154084,128,0,154152:0:0:0:1:
182,192,154152,1,0,0:0:0:1:
256,192,154221,1,0,0:0:0:1:
109,192,154221,128,0,154357:0:0:0:1:
402,192,154221,128,0,154357:0:0:0:1:
36,192,154221,128,0,154289:0:0:0:1:
475,192,154221,128,0,154289:0:0:0:1:
182,192,154289,1,0,0:0:0:1:
329,192,154289,1,0,0:0:0:1:
36,192,154357,1,0,0:0:0:1:
475,192,154357,1,0,0:0:0:1:
256,192,154357,128,0,154425:0:0:0:1:
109,192,154425,1,0,0:0:0:1:
402,192,154425,1,0,0:0:0:1:
182,192,154493,1,0,0:0:0:1:
329,192,154493,1,0,0:0:0:1:
256,192,154493,128,0,154561:0:0:0:1:
109,192,154561,1,0,0:0:0:1:
402,192,154561,1,0,0:0:0:1:
36,192,154630,1,0,0:0:0:1:
475,192,154630,1,0,0:0:0:1:
256,192,154630,128,0,154698:0:0:0:1:
109,192,154698,1,0,0:0:0:1:
402,192,154698,1,0,0:0:0:1:
182,192,154766,1,0,0:0:0:1:
329,192,154766,1,0,0:0:0:1:
256,192,154766,128,0,154834:0:0:0:1:
109,192,154834,1,0,0:0:0:1:
402,192,154834,1,0,0:0:0:1:
109,192,154902,1,0,0:0:0:1:
182,192,154902,1,0,0:0:0:1:
256,192,154902,128,0,154971:0:0:0:1:
329,192,154902,128,0,155277:0:0:0:1:
402,192,154902,128,0,154971:0:0:0:1:
475,192,154902,128,0,155277:0:0:0:1:
36,192,154971,1,0,0:0:0:1:
109,192,155039,1,0,0:0:0:1:
182,192,155107,1,0,0:0:0:1:
109,192,155175,1,0,0:0:0:1:
256,192,155175,1,0,0:0:0:1:
402,192,155175,1,0,0:0:0:1:
182,192,155243,1,0,0:0:0:1:
109,192,155311,1,0,0:0:0:1:
256,192,155311,128,0,155686:0:0:0:1:
329,192,155311,128,0,155380:0:0:0:1:
402,192,155311,128,0,155686:0:0:0:1:
475,192,155311,128,0,155380:0:0:0:1:
36,192,155380,1,0,0:0:0:1:
109,192,155448,1,0,0:0:0:1:
182,192,155448,1,0,0:0:0:1:
475,192,155448,1,0,0:0:0:1:
329,192,155516,1,0,0:0:0:1:
475,192,155584,1,0,0:0:0:1:
329,192,155652,1,0,0:0:0:1:
256,192,155721,1,0,0:0:0:1:
329,192,155721,1,0,0:0:0:1:
402,192,155721,1,0,0:0:0:1:
36,192,155789,1,0,0:0:0:1:
475,192,155789,1,0,0:0:0:1:
109,192,155857,1,0,0:0:0:1:
402,192,155857,1,0,0:0:0:1:
182,192,155925,1,0,0:0:0:1:
329,192,155925,1,0,0:0:0:1:
402,192,155993,1,0,0:0:0:1:
475,192,155993,1,0,0:0:0:1:
109,192,155993,128,0,156061:0:0:0:1:
182,192,155993,128,0,156368:0:0:0:1:
256,192,155993,128,0,156061:0:0:0:1:
36,192,155993,128,0,156368:0:0:0:1:
329,192,156061,1,0,0:0:0:1:
402,192,156130,1,0,0:0:0:1:
329,192,156198,1,0,0:0:0:1:
256,192,156266,1,0,0:0:0:1:
329,192,156334,1,0,0:0:0:1:
402,192,156402,1,0,0:0:0:1:
109,192,156402,128,0,156777:0:0:0:1:
182,192,156402,128,0,156471:0:0:0:1:
256,192,156402,128,0,156777:0:0:0:1:
36,192,156402,128,0,156471:0:0:0:1:
475,192,156471,1,0,0:0:0:1:
402,192,156539,1,0,0:0:0:1:
329,192,156607,1,0,0:0:0:1:
182,192,156675,1,0,0:0:0:1:
36,192,156743,1,0,0:0:0:1:
109,192,156811,1,0,0:0:0:1:
182,192,156811,1,0,0:0:0:1:
256,192,156811,1,0,0:0:0:1:
329,192,156880,1,0,0:0:0:1:
36,192,156880,1,0,0:0:0:1:
109,192,156948,1,0,0:0:0:1:
402,192,156948,1,0,0:0:0:1:
182,192,157016,1,0,0:0:0:1:
475,192,157016,1,0,0:0:0:1:
109,192,157084,1,0,0:0:0:1:
402,192,157084,1,0,0:0:0:1:
182,192,157084,128,0,157152:0:0:0:1:
329,192,157084,128,0,157152:0:0:0:1:
36,192,157084,128,0,157221:0:0:0:1:
475,192,157084,128,0,157221:0:0:0:1:
256,192,157152,1,0,0:0:0:1:
109,192,157221,1,0,0:0:0:1:
182,192,157221,128,0,157289:0:0:0:1:
329,192,157221,128,0,157289:0:0:0:1:
36,192,157289,1,0,0:0:0:1:
109,192,157357,1,0,0:0:0:1:
182,192,157357,128,0,157425:0:0:0:1:
329,192,157357,128,0,157425:0:0:0:1:
256,192,157425,1,0,0:0:0:1:
402,192,157493,1,0,0:0:0:1:
182,192,157493,128,0,157561:0:0:0:1:
256,192,157493,128,0,157630:0:0:0:1:
329,192,157493,128,0,157561:0:0:0:1:
36,192,157493,128,0,157630:0:0:0:1:
475,192,157493,128,0,157630:0:0:0:1:
109,192,157561,1,0,0:0:0:1:
182,192,157630,1,0,0:0:0:1:
109,192,157630,128,0,157698:0:0:0:1:
402,192,157630,128,0,157698:0:0:0:1:
329,192,157698,1,0,0:0:0:1:
256,192,157766,1,0,0:0:0:1:
109,192,157766,128,0,157834:0:0:0:1:
402,192,157766,128,0,157834:0:0:0:1:
182,192,157834,1,0,0:0:0:1:
36,192,157902,1,0,0:0:0:1:
475,192,157902,1,0,0:0:0:1:
109,192,157902,128,0,157971:0:0:0:1:
402,192,157902,128,0,157971:0:0:0:1:
329,192,157971,1,0,0:0:0:1:
256,192,158039,1,0,0:0:0:1:
109,192,158039,128,0,158107:0:0:0:1:
402,192,158039,128,0,158107:0:0:0:1:
182,192,158107,1,0,0:0:0:1:
329,192,158107,1,0,0:0:0:1:
256,192,158175,1,0,0:0:0:1:
109,192,158175,128,0,158311:0:0:0:1:
402,192,158175,128,0,158311:0:0:0:1:
36,192,158175,128,0,158243:0:0:0:1:
475,192,158175,128,0,158243:0:0:0:1:
182,192,158243,1,0,0:0:0:1:
256,192,158311,1,0,0:0:0:1:
36,192,158311,128,0,158380:0:0:0:1:
475,192,158311,128,0,158380:0:0:0:1:
329,192,158380,1,0,0:0:0:1:
109,192,158448,1,0,0:0:0:1:
402,192,158448,1,0,0:0:0:1:
36,192,158448,128,0,158516:0:0:0:1:
475,192,158448,128,0,158516:0:0:0:1:
182,192,158516,1,0,0:0:0:1:
256,192,158584,1,0,0:0:0:1:
109,192,158584,128,0,158721:0:0:0:1:
402,192,158584,128,0,158721:0:0:0:1:
36,192,158584,128,0,158652:0:0:0:1:
475,192,158584,128,0,158652:0:0:0:1:
182,192,158652,1,0,0:0:0:1:
329,192,158652,1,0,0:0:0:1:
36,192,158721,1,0,0:0:0:1:
475,192,158721,1,0,0:0:0:1:
256,192,158721,128,0,158789:0:0:0:1:
109,192,158789,1,0,0:0:0:1:
402,192,158789,1,0,0:0:0:1:
182,192,158857,1,0,0:0:0:1:
329,192,158857,1,0,0:0:0:1:
256,192,158857,128,0,158925:0:0:0:1:
109,192,158925,1,0,0:0:0:1:
402,192,158925,1,0,0:0:0:1:
36,192,158993,1,0,0:0:0:1:
475,192,158993,1,0,0:0:0:1:
256,192,158993,128,0,159061:0:0:0:1:
109,192,159039,1,0,0:0:0:1:
402,192,159039,1,0,0:0:0:1:
182,192,159084,1,0,0:0:0:1:
329,192,159084,1,0,0:0:0:1:
109,192,159130,1,0,0:0:0:1:
402,192,159130,1,0,0:0:0:1:
256,192,159130,128,0,159198:0:0:0:1:
36,192,159175,1,0,0:0:0:1:
475,192,159175,1,0,0:0:0:1:
109,192,159221,1,0,0:0:0:1:
402,192,159221,1,0,0:0:0:1:
329,192,159266,1,0,0:0:0:1:
475,192,159266,1,0,0:0:0:1:
109,192,159266,128,0,159334:0:0:0:1:
182,192,159266,128,0,159641:0:0:0:1:
256,192,159266,128,0,159334:0:0:0:1:
36,192,159266,128,0,159641:0:0:0:1:
402,192,159334,1,0,0:0:0:1:
475,192,159402,1,0,0:0:0:1:
329,192,159402,128,0,159471:0:0:0:1:
109,192,159471,1,0,0:0:0:1:
256,192,159539,1,0,0:0:0:1:
329,192,159539,1,0,0:0:0:1:
475,192,159539,1,0,0:0:0:1:
402,192,159539,128,0,159607:0:0:0:1:
109,192,159607,1,0,0:0:0:1:
329,192,159675,1,0,0:0:0:1:
109,192,159675,128,0,160050:0:0:0:1:
182,192,159675,128,0,159743:0:0:0:1:
256,192,159675,128,0,160050:0:0:0:1:
36,192,159675,128,0,159743:0:0:0:1:
475,192,159675,128,0,159743:0:0:0:1:
402,192,159743,1,0,0:0:0:1:
329,192,159811,1,0,0:0:0:1:
36,192,159811,1,0,0:0:0:1:
475,192,159811,1,0,0:0:0:1:
402,192,159811,128,0,159880:0:0:0:1:
182,192,159880,1,0,0:0:0:1:
36,192,159948,1,0,0:0:0:1:
329,192,159948,128,0,160016:0:0:0:1:
182,192,160016,1,0,0:0:0:1:
109,192,160084,1,0,0:0:0:1:
182,192,160084,1,0,0:0:0:1:
256,192,160084,1,0,0:0:0:1:
329,192,160084,1,0,0:0:0:1:
402,192,160084,128,0,160152:0:0:0:1:
36,192,160152,1,0,0:0:0:1:
475,192,160152,1,0,0:0:0:1:
109,192,160221,1,0,0:0:0:1:
402,192,160221,1,0,0:0:0:1:
329,192,160221,128,0,160289:0:0:0:1:
182,192,160289,1,0,0:0:0:1:
182,192,160357,1,0,0:0:0:1:
36,192,160357,1,0,0:0:0:1:
256,192,160357,128,0,160425:0:0:0:1:
329,192,160357,128,0,160732:0:0:0:1:
402,192,160357,128,0,160425:0:0:0:1:
475,192,160357,128,0,160732:0:0:0:1:
109,192,160425,1,0,0:0:0:1:
36,192,160493,1,0,0:0:0:1:
182,192,160493,128,0,160561:0:0:0:1:
402,192,160561,1,0,0:0:0:1:
182,192,160630,1,0,0:0:0:1:
256,192,160630,1,0,0:0:0:1:
36,192,160630,1,0,0:0:0:1:
109,192,160630,128,0,160698:0:0:0:1:
402,192,160698,1,0,0:0:0:1:
182,192,160766,1,0,0:0:0:1:
256,192,160766,128,0,161141:0:0:0:1:
329,192,160766,128,0,160834:0:0:0:1:
402,192,160766,128,0,161141:0:0:0:1:
36,192,160766,128,0,160834:0:0:0:1:
475,192,160766,128,0,160834:0:0:0:1:
109,192,160834,1,0,0:0:0:1:
182,192,160902,1,0,0:0:0:1:
36,192,160902,1,0,0:0:0:1:
475,192,160902,1,0,0:0:0:1:
109,192,160902,128,0,160971:0:0:0:1:
329,192,160971,1,0,0:0:0:1:
475,192,161039,1,0,0:0:0:1:
182,192,161039,128,0,161107:0:0:0:1:
329,192,161107,1,0,0:0:0:1:
182,192,161175,1,0,0:0:0:1:
256,192,161175,1,0,0:0:0:1:
329,192,161175,1,0,0:0:0:1:
402,192,161175,1,0,0:0:0:1:
109,192,161175,128,0,161243:0:0:0:1:
36,192,161243,1,0,0:0:0:1:
475,192,161243,1,0,0:0:0:1:
109,192,161311,1,0,0:0:0:1:
402,192,161311,1,0,0:0:0:1:
182,192,161311,128,0,161380:0:0:0:1:
329,192,161380,1,0,0:0:0:1:
109,192,161448,1,0,0:0:0:1:
402,192,161448,1,0,0:0:0:1:
182,192,161448,128,0,161550:0:0:0:1:
329,192,161448,128,0,161550:0:0:0:1:
36,192,161448,128,0,161584:0:0:0:1:
475,192,161448,128,0,161584:0:0:0:1:
256,192,161516,1,0,0:0:0:1:
109,192,161584,1,0,0:0:0:1:
182,192,161584,128,0,161686:0:0:0:1:
329,192,161584,128,0,161686:0:0:0:1:
36,192,161652,1,0,0:0:0:1:
109,192,161721,1,0,0:0:0:1:
182,192,161721,128,0,161823:0:0:0:1:
329,192,161721,128,0,161823:0:0:0:1:
256,192,161789,1,0,0:0:0:1:
402,192,161857,1,0,0:0:0:1:
182,192,161857,128,0,161959:0:0:0:1:
256,192,161857,128,0,161993:0:0:0:1:
329,192,161857,128,0,161959:0:0:0:1:
36,192,161857,128,0,161993:0:0:0:1:
475,192,161857,128,0,161993:0:0:0:1:
109,192,161925,1,0,0:0:0:1:
182,192,161993,1,0,0:0:0:1:
109,192,161993,128,0,162096:0:0:0:1:
402,192,161993,128,0,162096:0:0:0:1:
329,192,162061,1,0,0:0:0:1:
256,192,162130,1,0,0:0:0:1:
109,192,162130,128,0,162232:0:0:0:1:
402,192,162130,128,0,162232:0:0:0:1:
182,192,162198,1,0,0:0:0:1:
36,192,162266,1,0,0:0:0:1:
475,192,162266,1,0,0:0:0:1:
109,192,162266,128,0,162368:0:0:0:1:
402,192,162266,128,0,162368:0:0:0:1:
329,192,162334,1,0,0:0:0:1:
256,192,162402,1,0,0:0:0:1:
109,192,162402,128,0,162505:0:0:0:1:
402,192,162402,128,0,162505:0:0:0:1:
182,192,162471,1,0,0:0:0:1:
329,192,162471,1,0,0:0:0:1:
256,192,162539,1,0,0:0:0:1:
109,192,162539,128,0,162675:0:0:0:1:
402,192,162539,128,0,162675:0:0:0:1:
36,192,162539,128,0,162641:0:0:0:1:
475,192,162539,128,0,162641:0:0:0:1:
182,192,162607,1,0,0:0:0:1:
256,192,162675,1,0,0:0:0:1:
36,192,162675,128,0,162777:0:0:0:1:
475,192,162675,128,0,162777:0:0:0:1:
329,192,162743,1,0,0:0:0:1:
109,192,162811,1,0,0:0:0:1:
402,192,162811,1,0,0:0:0:1:
36,192,162811,128,0,162914:0:0:0:1:
475,192,162811,128,0,162914:0:0:0:1:
182,192,162880,1,0,0:0:0:1:
256,192,162948,1,0,0:0:0:1:
109,192,162948,128,0,163084:0:0:0:1:
402,192,162948,128,0,163084:0:0:0:1:
36,192,162948,128,0,163050:0:0:0:1:
475,192,162948,128,0,163050:0:0:0:1:
182,192,163016,1,0,0:0:0:1:
329,192,163016,1,0,0:0:0:1:
36,192,163084,1,0,0:0:0:1:
475,192,163084,1,0,0:0:0:1:
256,192,163084,128,0,163186:0:0:0:1:
109,192,163152,1,0,0:0:0:1:
402,192,163152,1,0,0:0:0:1:
182,192,163221,1,0,0:0:0:1:
329,192,163221,1,0,0:0:0:1:
256,192,163221,128,0,163323:0:0:0:1:
109,192,163289,1,0,0:0:0:1:
402,192,163289,1,0,0:0:0:1:
36,192,163357,1,0,0:0:0:1:
475,192,163357,1,0,0:0:0:1:
256,192,163357,128,0,163459:0:0:0:1:
109,192,163425,1,0,0:0:0:1:
402,192,163425,1,0,0:0:0:1:
182,192,163493,1,0,0:0:0:1:
329,192,163493,1,0,0:0:0:1:
256,192,163493,128,0,163596:0:0:0:1:
109,192,163561,1,0,0:0:0:1:
402,192,163561,1,0,0:0:0:1:
329,192,163630,1,0,0:0:0:1:
475,192,163630,1,0,0:0:0:1:
109,192,163630,128,0,163698:0:0:0:1:
182,192,163630,128,0,164005:0:0:0:1:
256,192,163630,128,0,163698:0:0:0:1:
36,192,163630,128,0,164005:0:0:0:1:
402,192,163698,1,0,0:0:0:1:
475,192,163766,1,0,0:0:0:1:
329,192,163766,128,0,163834:0:0:0:1:
109,192,163834,1,0,0:0:0:1:
256,192,163902,1,0,0:0:0:1:
329,192,163902,1,0,0:0:0:1:
475,192,163902,1,0,0:0:0:1:
402,192,163902,128,0,163971:0:0:0:1:
109,192,163971,1,0,0:0:0:1:
329,192,164039,1,0,0:0:0:1:
109,192,164039,128,0,164414:0:0:0:1:
182,192,164039,128,0,164107:0:0:0:1:
256,192,164039,128,0,164414:0:0:0:1:
36,192,164039,128,0,164107:0:0:0:1:
475,192,164039,128,0,164107:0:0:0:1:
402,192,164107,1,0,0:0:0:1:
329,192,164175,1,0,0:0:0:1:
36,192,164175,1,0,0:0:0:1:
475,192,164175,1,0,0:0:0:1:
402,192,164175,128,0,164243:0:0:0:1:
182,192,164243,1,0,0:0:0:1:
36,192,164311,1,0,0:0:0:1:
329,192,164311,128,0,164380:0:0:0:1:
182,192,164380,1,0,0:0:0:1:
109,192,164448,1,0,0:0:0:1:
182,192,164448,1,0,0:0:0:1:
256,192,164448,1,0,0:0:0:1:
329,192,164448,1,0,0:0:0:1:
402,192,164448,128,0,164516:0:0:0:1:
36,192,164516,1,0,0:0:0:1:
475,192,164516,1,0,0:0:0:1:
109,192,164584,1,0,0:0:0:1:
402,192,164584,1,0,0:0:0:1:
329,192,164584,128,0,164652:0:0:0:1:
182,192,164652,1,0,0:0:0:1:
182,192,164721,1,0,0:0:0:1:
36,192,164721,1,0,0:0:0:1:
256,192,164721,128,0,164789:0:0:0:1:
329,192,164721,128,0,165096:0:0:0:1:
402,192,164721,128,0,164789:0:0:0:1:
475,192,164721,128,0,165096:0:0:0:1:
109,192,164789,1,0,0:0:0:1:
36,192,164857,1,0,0:0:0:1:
182,192,164857,128,0,164925:0:0:0:1:
402,192,164925,1,0,0:0:0:1:
182,192,164993,1,0,0:0:0:1:
256,192,164993,1,0,0:0:0:1:
36,192,164993,1,0,0:0:0:1:
109,192,164993,128,0,165061:0:0:0:1:
402,192,165061,1,0,0:0:0:1:
182,192,165130,1,0,0:0:0:1:
256,192,165130,128,0,165505:0:0:0:1:
329,192,165130,128,0,165198:0:0:0:1:
402,192,165130,128,0,165505:0:0:0:1:
36,192,165130,128,0,165198:0:0:0:1:
475,192,165130,128,0,165198:0:0:0:1:
109,192,165198,1,0,0:0:0:1:
182,192,165266,1,0,0:0:0:1:
36,192,165266,1,0,0:0:0:1:
475,192,165266,1,0,0:0:0:1:
109,192,165266,128,0,165334:0:0:0:1:
329,192,165334,1,0,0:0:0:1:
475,192,165402,1,0,0:0:0:1:
182,192,165402,128,0,165471:0:0:0:1:
329,192,165471,1,0,0:0:0:1:
182,192,165539,1,0,0:0:0:1:
256,192,165539,1,0,0:0:0:1:
329,192,165539,1,0,0:0:0:1:
402,192,165539,1,0,0:0:0:1:
109,192,165539,128,0,165607:0:0:0:1:
36,192,165607,1,0,0:0:0:1:
475,192,165607,1,0,0:0:0:1:
109,192,165675,1,0,0:0:0:1:
402,192,165675,1,0,0:0:0:1:
182,192,165675,128,0,165743:0:0:0:1:
329,192,165743,1,0,0:0:0:1:
109,192,165811,1,0,0:0:0:1:
402,192,165811,1,0,0:0:0:1:
182,192,165811,128,0,165914:0:0:0:1:
329,192,165811,128,0,165914:0:0:0:1:
36,192,165811,128,0,165948:0:0:0:1:
475,192,165811,128,0,165948:0:0:0:1:
256,192,165880,1,0,0:0:0:1:
109,192,165948,1,0,0:0:0:1:
182,192,165948,128,0,166050:0:0:0:1:
329,192,165948,128,0,166050:0:0:0:1:
36,192,166016,1,0,0:0:0:1:
109,192,166084,1,0,0:0:0:1:
182,192,166084,128,0,166186:0:0:0:1:
329,192,166084,128,0,166186:0:0:0:1:
256,192,166152,1,0,0:0:0:1:
402,192,166221,1,0,0:0:0:1:
182,192,166221,128,0,166323:0:0:0:1:
256,192,166221,128,0,166357:0:0:0:1:
329,192,166221,128,0,166323:0:0:0:1:
36,192,166221,128,0,166357:0:0:0:1:
475,192,166221,128,0,166357:0:0:0:1:
109,192,166289,1,0,0:0:0:1:
182,192,166357,1,0,0:0:0:1:
109,192,166357,128,0,166459:0:0:0:1:
402,192,166357,128,0,166459:0:0:0:1:
329,192,166425,1,0,0:0:0:1:
256,192,166493,1,0,0:0:0:1:
109,192,166493,128,0,166596:0:0:0:1:
402,192,166493,128,0,166596:0:0:0:1:
182,192,166561,1,0,0:0:0:1:
36,192,166630,1,0,0:0:0:1:
475,192,166630,1,0,0:0:0:1:
109,192,166630,128,0,166732:0:0:0:1:
402,192,166630,128,0,166732:0:0:0:1:
329,192,166698,1,0,0:0:0:1:
256,192,166766,1,0,0:0:0:1:
109,192,166766,128,0,166868:0:0:0:1:
402,192,166766,128,0,166868:0:0:0:1:
182,192,166834,1,0,0:0:0:1:
329,192,166834,1,0,0:0:0:1:
109,192,166902,1,0,0:0:0:1:
182,192,166902,1,0,0:0:0:1:
256,192,166902,128,0,167039:0:0:0:1:
36,192,166902,128,0,167039:0:0:0:1:
182,192,167039,1,0,0:0:0:1:
109,192,167039,128,0,167175:0:0:0:1:
329,192,167039,128,0,167175:0:0:0:1:
256,192,167175,1,0,0:0:0:1:
182,192,167175,128,0,167311:0:0:0:1:
402,192,167175,128,0,167311:0:0:0:1:
329,192,167311,1,0,0:0:0:1:
256,192,167311,128,0,167448:0:0:0:1:
475,192,167311,128,0,167448:0:0:0:1:
329,192,167448,1,0,0:0:0:1:
402,192,167448,1,0,0:0:0:1:
36,192,167448,1,0,0:0:0:1:
109,192,167539,1,0,0:0:0:1:
182,192,167630,1,0,0:0:0:1:
256,192,167721,1,0,0:0:0:1:
329,192,167811,1,0,0:0:0:1:
402,192,167902,1,0,0:0:0:1:
475,192,167993,1,0,0:0:0:1:
109,192,167993,128,0,168061:0:0:0:1:
182,192,167993,128,0,168368:0:0:0:1:
256,192,167993,128,0,168061:0:0:0:1:
329,192,167993,128,0,168027:0:0:0:1:
36,192,167993,128,0,168368:0:0:0:1:
402,192,168061,1,0,0:0:0:1:
256,192,168130,1,0,0:0:0:1:
329,192,168130,128,0,168198:0:0:0:1:
109,192,168198,1,0,0:0:0:1:
329,192,168266,1,0,0:0:0:1:
256,192,168266,128,0,168300:0:0:0:1:
402,192,168266,128,0,168334:0:0:0:1:
475,192,168266,128,0,168300:0:0:0:1:
109,192,168334,1,0,0:0:0:1:
329,192,168402,1,0,0:0:0:1:
109,192,168402,128,0,168777:0:0:0:1:
182,192,168402,128,0,168471:0:0:0:1:
256,192,168402,128,0,168777:0:0:0:1:
36,192,168402,128,0,168471:0:0:0:1:
475,192,168402,128,0,168471:0:0:0:1:
402,192,168471,1,0,0:0:0:1:
475,192,168539,1,0,0:0:0:1:
329,192,168539,128,0,168607:0:0:0:1:
402,192,168539,128,0,168607:0:0:0:1:
36,192,168539,128,0,168607:0:0:0:1:
182,192,168607,1,0,0:0:0:1:
36,192,168675,1,0,0:0:0:1:
329,192,168675,128,0,168743:0:0:0:1:
182,192,168743,1,0,0:0:0:1:
182,192,168811,1,0,0:0:0:1:
329,192,168811,1,0,0:0:0:1:
109,192,168811,128,0,168846:0:0:0:1:
256,192,168811,128,0,168846:0:0:0:1:
402,192,168811,128,0,168880:0:0:0:1:
36,192,168880,1,0,0:0:0:1:
475,192,168880,1,0,0:0:0:1:
109,192,168948,1,0,0:0:0:1:
402,192,168948,1,0,0:0:0:1:
329,192,168948,128,0,169016:0:0:0:1:
182,192,169016,1,0,0:0:0:1:
182,192,169084,128,0,169118:0:0:0:1:
256,192,169084,128,0,169152:0:0:0:1:
329,192,169084,128,0,169459:0:0:0:1:
402,192,169084,128,0,169152:0:0:0:1:
36,192,169084,128,0,169118:0:0:0:1:
475,192,169084,128,0,169459:0:0:0:1:
109,192,169152,1,0,0:0:0:1:
36,192,169221,1,0,0:0:0:1:
182,192,169221,128,0,169289:0:0:0:1:
402,192,169289,1,0,0:0:0:1:
36,192,169357,1,0,0:0:0:1:
109,192,169357,128,0,169425:0:0:0:1:
182,192,169357,128,0,169391:0:0:0:1:
256,192,169357,128,0,169425:0:0:0:1:
402,192,169425,1,0,0:0:0:1:
182,192,169493,1,0,0:0:0:1:
256,192,169493,128,0,169868:0:0:0:1:
329,192,169493,128,0,169561:0:0:0:1:
402,192,169493,128,0,169868:0:0:0:1:
36,192,169493,128,0,169561:0:0:0:1:
475,192,169493,128,0,169561:0:0:0:1:
109,192,169561,1,0,0:0:0:1:
36,192,169630,1,0,0:0:0:1:
109,192,169630,128,0,169698:0:0:0:1:
182,192,169630,128,0,169664:0:0:0:1:
475,192,169630,128,0,169664:0:0:0:1:
329,192,169698,1,0,0:0:0:1:
475,192,169766,1,0,0:0:0:1:
182,192,169766,128,0,169834:0:0:0:1:
329,192,169834,1,0,0:0:0:1:
182,192,169902,1,0,0:0:0:1:
329,192,169902,1,0,0:0:0:1:
109,192,169902,128,0,169971:0:0:0:1:
256,192,169902,128,0,169936:0:0:0:1:
402,192,169902,128,0,169936:0:0:0:1:
36,192,169971,1,0,0:0:0:1:
475,192,169971,1,0,0:0:0:1:
109,192,170039,1,0,0:0:0:1:
402,192,170039,1,0,0:0:0:1:
182,192,170039,128,0,170107:0:0:0:1:
329,192,170107,1,0,0:0:0:1:
256,192,170175,1,0,0:0:0:1:
109,192,170175,128,0,170243:0:0:0:1:
182,192,170175,128,0,170277:0:0:0:1:
329,192,170175,128,0,170277:0:0:0:1:
402,192,170175,128,0,170243:0:0:0:1:
36,192,170175,128,0,170311:0:0:0:1:
475,192,170175,128,0,170311:0:0:0:1:
256,192,170243,128,0,170311:0:0:0:1:
109,192,170311,128,0,170380:0:0:0:1:
182,192,170311,128,0,170414:0:0:0:1:
329,192,170311,128,0,170414:0:0:0:1:
402,192,170311,128,0,170380:0:0:0:1:
256,192,170380,1,0,0:0:0:1:
36,192,170380,128,0,170448:0:0:0:1:
475,192,170380,128,0,170448:0:0:0:1:
109,192,170448,128,0,170516:0:0:0:1:
182,192,170448,128,0,170550:0:0:0:1:
329,192,170448,128,0,170550:0:0:0:1:
402,192,170448,128,0,170516:0:0:0:1:
256,192,170516,1,0,0:0:0:1:
36,192,170516,1,0,0:0:0:1:
182,192,170584,128,0,170686:0:0:0:1:
256,192,170584,128,0,170721:0:0:0:1:
329,192,170584,128,0,170686:0:0:0:1:
402,192,170584,128,0,170652:0:0:0:1:
36,192,170584,128,0,170721:0:0:0:1:
475,192,170584,128,0,170721:0:0:0:1:
109,192,170652,1,0,0:0:0:1:
182,192,170721,1,0,0:0:0:1:
109,192,170721,128,0,170823:0:0:0:1:
402,192,170721,128,0,170823:0:0:0:1:
256,192,170789,1,0,0:0:0:1:
329,192,170789,128,0,170857:0:0:0:1:
109,192,170857,128,0,170959:0:0:0:1:
256,192,170857,128,0,170925:0:0:0:1:
402,192,170857,128,0,170959:0:0:0:1:
36,192,170925,1,0,0:0:0:1:
182,192,170925,128,0,170993:0:0:0:1:
329,192,170993,1,0,0:0:0:1:
109,192,170993,128,0,171096:0:0:0:1:
402,192,170993,128,0,171096:0:0:0:1:
36,192,170993,128,0,171061:0:0:0:1:
475,192,170993,128,0,171061:0:0:0:1:
329,192,171061,128,0,171130:0:0:0:1:
109,192,171130,128,0,171232:0:0:0:1:
256,192,171130,128,0,171198:0:0:0:1:
402,192,171130,128,0,171232:0:0:0:1:
36,192,171198,1,0,0:0:0:1:
182,192,171198,128,0,171266:0:0:0:1:
329,192,171198,128,0,171266:0:0:0:1:
109,192,171266,128,0,171402:0:0:0:1:
256,192,171266,128,0,171334:0:0:0:1:
402,192,171266,128,0,171402:0:0:0:1:
36,192,171266,128,0,171368:0:0:0:1:
475,192,171266,128,0,171368:0:0:0:1:
182,192,171334,128,0,171402:0:0:0:1:
329,192,171402,1,0,0:0:0:1:
256,192,171402,128,0,171471:0:0:0:1:
36,192,171402,128,0,171505:0:0:0:1:
475,192,171402,128,0,171505:0:0:0:1:
329,192,171471,128,0,171539:0:0:0:1:
109,192,171539,128,0,171607:0:0:0:1:
402,192,171539,128,0,171607:0:0:0:1:
36,192,171539,128,0,171641:0:0:0:1:
475,192,171539,128,0,171641:0:0:0:1:
256,192,171607,1,0,0:0:0:1:
182,192,171607,128,0,171675:0:0:0:1:
109,192,171675,128,0,171811:0:0:0:1:
256,192,171675,128,0,171743:0:0:0:1:
402,192,171675,128,0,171811:0:0:0:1:
36,192,171675,128,0,171777:0:0:0:1:
475,192,171675,128,0,171777:0:0:0:1:
182,192,171743,128,0,171811:0:0:0:1:
329,192,171743,128,0,171811:0:0:0:1:
256,192,171811,128,0,171914:0:0:0:1:
36,192,171811,128,0,171880:0:0:0:1:
475,192,171811,128,0,171880:0:0:0:1:
182,192,171880,1,0,0:0:0:1:
109,192,171880,128,0,171948:0:0:0:1:
402,192,171880,128,0,171948:0:0:0:1:
182,192,171948,128,0,172016:0:0:0:1:
256,192,171948,128,0,172050:0:0:0:1:
329,192,171948,128,0,172016:0:0:0:1:
475,192,172016,1,0,0:0:0:1:
109,192,172016,128,0,172084:0:0:0:1:
402,192,172016,128,0,172084:0:0:0:1:
256,192,172084,128,0,172186:0:0:0:1:
36,192,172084,128,0,172152:0:0:0:1:
475,192,172084,128,0,172152:0:0:0:1:
329,192,172152,1,0,0:0:0:1:
109,192,172152,128,0,172221:0:0:0:1:
402,192,172152,128,0,172221:0:0:0:1:
182,192,172221,128,0,172289:0:0:0:1:
256,192,172221,128,0,172323:0:0:0:1:
329,192,172221,128,0,172289:0:0:0:1:
109,192,172289,1,0,0:0:0:1:
402,192,172289,1,0,0:0:0:1:
475,192,172357,1,0,0:0:0:1:
109,192,172357,128,0,172425:0:0:0:1:
182,192,172357,128,0,172732:0:0:0:1:
256,192,172357,128,0,172425:0:0:0:1:
329,192,172357,128,0,172391:0:0:0:1:
36,192,172357,128,0,172732:0:0:0:1:
402,192,172425,1,0,0:0:0:1:
256,192,172493,1,0,0:0:0:1:
329,192,172493,128,0,172561:0:0:0:1:
109,192,172561,1,0,0:0:0:1:
329,192,172630,1,0,0:0:0:1:
256,192,172630,128,0,172664:0:0:0:1:
402,192,172630,128,0,172698:0:0:0:1:
475,192,172630,128,0,172664:0:0:0:1:
109,192,172698,1,0,0:0:0:1:
329,192,172766,1,0,0:0:0:1:
109,192,172766,128,0,173141:0:0:0:1:
182,192,172766,128,0,172834:0:0:0:1:
256,192,172766,128,0,173141:0:0:0:1:
36,192,172766,128,0,172834:0:0:0:1:
475,192,172766,128,0,172834:0:0:0:1:
402,192,172834,1,0,0:0:0:1:
475,192,172902,1,0,0:0:0:1:
329,192,172902,128,0,172971:0:0:0:1:
402,192,172902,128,0,172971:0:0:0:1:
36,192,172902,128,0,172971:0:0:0:1:
182,192,172971,1,0,0:0:0:1:
36,192,173039,1,0,0:0:0:1:
329,192,173039,128,0,173107:0:0:0:1:
182,192,173107,1,0,0:0:0:1:
182,192,173175,1,0,0:0:0:1:
329,192,173175,1,0,0:0:0:1:
109,192,173175,128,0,173209:0:0:0:1:
256,192,173175,128,0,173209:0:0:0:1:
402,192,173175,128,0,173243:0:0:0:1:
36,192,173243,1,0,0:0:0:1:
475,192,173243,1,0,0:0:0:1:
109,192,173311,1,0,0:0:0:1:
402,192,173311,1,0,0:0:0:1:
329,192,173311,128,0,173380:0:0:0:1:
182,192,173380,1,0,0:0:0:1:
182,192,173448,128,0,173482:0:0:0:1:
256,192,173448,128,0,173516:0:0:0:1:
329,192,173448,128,0,173823:0:0:0:1:
402,192,173448,128,0,173516:0:0:0:1:
36,192,173448,128,0,173482:0:0:0:1:
475,192,173448,128,0,173823:0:0:0:1:
109,192,173516,1,0,0:0:0:1:
36,192,173584,1,0,0:0:0:1:
182,192,173584,128,0,173652:0:0:0:1:
402,192,173652,1,0,0:0:0:1:
36,192,173721,1,0,0:0:0:1:
109,192,173721,128,0,173789:0:0:0:1:
182,192,173721,128,0,173755:0:0:0:1:
256,192,173721,128,0,173789:0:0:0:1:
402,192,173789,1,0,0:0:0:1:
182,192,173857,1,0,0:0:0:1:
256,192,173857,128,0,174232:0:0:0:1:
329,192,173857,128,0,173925:0:0:0:1:
402,192,173857,128,0,174232:0:0:0:1:
36,192,173857,128,0,173925:0:0:0:1:
475,192,173857,128,0,173925:0:0:0:1:
109,192,173925,1,0,0:0:0:1:
36,192,173993,1,0,0:0:0:1:
109,192,173993,128,0,174061:0:0:0:1:
182,192,173993,128,0,174027:0:0:0:1:
475,192,173993,128,0,174027:0:0:0:1:
329,192,174061,1,0,0:0:0:1:
475,192,174130,1,0,0:0:0:1:
182,192,174130,128,0,174198:0:0:0:1:
329,192,174198,1,0,0:0:0:1:
182,192,174266,1,0,0:0:0:1:
329,192,174266,1,0,0:0:0:1:
109,192,174266,128,0,174334:0:0:0:1:
256,192,174266,128,0,174300:0:0:0:1:
402,192,174266,128,0,174300:0:0:0:1:
36,192,174334,1,0,0:0:0:1:
475,192,174334,1,0,0:0:0:1:
109,192,174402,1,0,0:0:0:1:
402,192,174402,1,0,0:0:0:1:
182,192,174402,128,0,174471:0:0:0:1:
329,192,174471,1,0,0:0:0:1:
256,192,174539,1,0,0:0:0:1:
109,192,174539,128,0,174607:0:0:0:1:
182,192,174539,128,0,174641:0:0:0:1:
329,192,174539,128,0,174641:0:0:0:1:
402,192,174539,128,0,174607:0:0:0:1:
36,192,174539,128,0,174675:0:0:0:1:
475,192,174539,128,0,174675:0:0:0:1:
256,192,174607,128,0,174675:0:0:0:1:
109,192,174675,128,0,174743:0:0:0:1:
182,192,174675,128,0,174777:0:0:0:1:
329,192,174675,128,0,174777:0:0:0:1:
402,192,174675,128,0,174743:0:0:0:1:
256,192,174743,1,0,0:0:0:1:
36,192,174743,128,0,174811:0:0:0:1:
475,192,174743,128,0,174811:0:0:0:1:
109,192,174811,128,0,174880:0:0:0:1:
182,192,174811,128,0,174914:0:0:0:1:
329,192,174811,128,0,174914:0:0:0:1:
402,192,174811,128,0,174880:0:0:0:1:
256,192,174880,1,0,0:0:0:1:
36,192,174880,1,0,0:0:0:1:
182,192,174948,128,0,175050:0:0:0:1:
256,192,174948,128,0,175084:0:0:0:1:
329,192,174948,128,0,175050:0:0:0:1:
402,192,174948,128,0,175016:0:0:0:1:
36,192,174948,128,0,175084:0:0:0:1:
475,192,174948,128,0,175084:0:0:0:1:
109,192,175016,1,0,0:0:0:1:
182,192,175084,1,0,0:0:0:1:
109,192,175084,128,0,175186:0:0:0:1:
402,192,175084,128,0,175186:0:0:0:1:
256,192,175152,1,0,0:0:0:1:
329,192,175152,128,0,175221:0:0:0:1:
109,192,175221,128,0,175323:0:0:0:1:
256,192,175221,128,0,175289:0:0:0:1:
402,192,175221,128,0,175323:0:0:0:1:
36,192,175289,1,0,0:0:0:1:
182,192,175289,128,0,175357:0:0:0:1:
329,192,175357,1,0,0:0:0:1:
109,192,175357,128,0,175459:0:0:0:1:
402,192,175357,128,0,175459:0:0:0:1:
36,192,175357,128,0,175425:0:0:0:1:
475,192,175357,128,0,175425:0:0:0:1:
329,192,175425,128,0,175493:0:0:0:1:
109,192,175493,128,0,175596:0:0:0:1:
256,192,175493,128,0,175561:0:0:0:1:
402,192,175493,128,0,175596:0:0:0:1:
36,192,175561,1,0,0:0:0:1:
182,192,175561,128,0,175630:0:0:0:1:
329,192,175561,128,0,175630:0:0:0:1:
109,192,175630,128,0,175766:0:0:0:1:
256,192,175630,128,0,175698:0:0:0:1:
402,192,175630,128,0,175766:0:0:0:1:
36,192,175630,128,0,175732:0:0:0:1:
475,192,175630,128,0,175732:0:0:0:1:
182,192,175698,128,0,175766:0:0:0:1:
329,192,175766,1,0,0:0:0:1:
256,192,175766,128,0,175834:0:0:0:1:
36,192,175766,128,0,175868:0:0:0:1:
475,192,175766,128,0,175868:0:0:0:1:
329,192,175834,128,0,175902:0:0:0:1:
109,192,175902,128,0,175971:0:0:0:1:
402,192,175902,128,0,175971:0:0:0:1:
36,192,175902,128,0,176005:0:0:0:1:
475,192,175902,128,0,176005:0:0:0:1:
256,192,175971,1,0,0:0:0:1:
182,192,175971,128,0,176039:0:0:0:1:
109,192,176039,128,0,176175:0:0:0:1:
256,192,176039,128,0,176107:0:0:0:1:
402,192,176039,128,0,176175:0:0:0:1:
36,192,176039,128,0,176141:0:0:0:1:
475,192,176039,128,0,176141:0:0:0:1:
182,192,176107,128,0,176175:0:0:0:1:
329,192,176107,128,0,176175:0:0:0:1:
256,192,176175,128,0,176277:0:0:0:1:
36,192,176175,128,0,176243:0:0:0:1:
475,192,176175,128,0,176243:0:0:0:1:
182,192,176243,1,0,0:0:0:1:
109,192,176243,128,0,176311:0:0:0:1:
402,192,176243,128,0,176311:0:0:0:1:
182,192,176311,128,0,176380:0:0:0:1:
256,192,176311,128,0,176414:0:0:0:1:
329,192,176311,128,0,176380:0:0:0:1:
475,192,176380,1,0,0:0:0:1:
109,192,176380,128,0,176448:0:0:0:1:
402,192,176380,128,0,176448:0:0:0:1:
36,192,176448,1,0,0:0:0:1:
475,192,176448,1,0,0:0:0:1:
256,192,176448,128,0,176550:0:0:0:1:
109,192,176493,1,0,0:0:0:1:
402,192,176493,1,0,0:0:0:1:
182,192,176539,1,0,0:0:0:1:
329,192,176539,1,0,0:0:0:1:
109,192,176584,1,0,0:0:0:1:
402,192,176584,1,0,0:0:0:1:
256,192,176584,128,0,176686:0:0:0:1:
36,192,176630,1,0,0:0:0:1:
475,192,176630,1,0,0:0:0:1:
109,192,176675,1,0,0:0:0:1:
402,192,176675,1,0,0:0:0:1:
109,192,176721,128,0,176789:0:0:0:1:
182,192,176721,128,0,177096:0:0:0:1:
256,192,176721,128,0,176789:0:0:0:1:
329,192,176721,128,0,176755:0:0:0:1:
36,192,176721,128,0,177096:0:0:0:1:
475,192,176721,128,0,176755:0:0:0:1:
402,192,176789,128,0,176823:0:0:0:1:
256,192,176857,128,0,176891:0:0:0:1:
329,192,176857,128,0,176925:0:0:0:1:
109,192,176925,128,0,176959:0:0:0:1:
256,192,176993,128,0,177027:0:0:0:1:
329,192,176993,128,0,177027:0:0:0:1:
402,192,176993,128,0,177061:0:0:0:1:
475,192,176993,128,0,177027:0:0:0:1:
109,192,177061,128,0,177096:0:0:0:1:
109,192,177130,128,0,177505:0:0:0:1:
182,192,177130,128,0,177198:0:0:0:1:
256,192,177130,128,0,177505:0:0:0:1:
329,192,177130,128,0,177164:0:0:0:1:
36,192,177130,128,0,177198:0:0:0:1:
475,192,177130,128,0,177198:0:0:0:1:
402,192,177198,128,0,177232:0:0:0:1:
329,192,177266,128,0,177334:0:0:0:1:
402,192,177266,128,0,177334:0:0:0:1:
36,192,177266,128,0,177334:0:0:0:1:
475,192,177266,128,0,177300:0:0:0:1:
182,192,177334,128,0,177368:0:0:0:1:
329,192,177402,128,0,177471:0:0:0:1:
36,192,177402,128,0,177436:0:0:0:1:
182,192,177471,128,0,177505:0:0:0:1:
109,192,177539,128,0,177573:0:0:0:1:
182,192,177539,128,0,177573:0:0:0:1:
256,192,177539,128,0,177573:0:0:0:1:
329,192,177539,128,0,177573:0:0:0:1:
402,192,177539,128,0,177607:0:0:0:1:
36,192,177607,128,0,177641:0:0:0:1:
475,192,177607,128,0,177641:0:0:0:1:
109,192,177675,128,0,177709:0:0:0:1:
329,192,177675,128,0,177743:0:0:0:1:
402,192,177675,128,0,177709:0:0:0:1:
182,192,177743,128,0,177777:0:0:0:1:
182,192,177811,128,0,177846:0:0:0:1:
256,192,177811,128,0,177880:0:0:0:1:
329,192,177811,128,0,178186:0:0:0:1:
402,192,177811,128,0,177880:0:0:0:1:
36,192,177811,128,0,177846:0:0:0:1:
475,192,177811,128,0,178186:0:0:0:1:
109,192,177880,128,0,177914:0:0:0:1:
182,192,177948,128,0,178016:0:0:0:1:
36,192,177948,128,0,177982:0:0:0:1:
402,192,178016,128,0,178050:0:0:0:1:
109,192,178084,128,0,178152:0:0:0:1:
182,192,178084,128,0,178118:0:0:0:1:
256,192,178084,128,0,178152:0:0:0:1:
36,192,178084,128,0,178118:0:0:0:1:
402,192,178152,128,0,178186:0:0:0:1:
182,192,178221,128,0,178255:0:0:0:1:
256,192,178221,128,0,178596:0:0:0:1:
329,192,178221,128,0,178289:0:0:0:1:
402,192,178221,128,0,178596:0:0:0:1:
36,192,178221,128,0,178289:0:0:0:1:
475,192,178221,128,0,178289:0:0:0:1:
109,192,178289,128,0,178323:0:0:0:1:
109,192,178357,128,0,178425:0:0:0:1:
182,192,178357,128,0,178391:0:0:0:1:
36,192,178357,128,0,178391:0:0:0:1:
475,192,178357,128,0,178391:0:0:0:1:
329,192,178425,128,0,178459:0:0:0:1:
182,192,178493,128,0,178561:0:0:0:1:
475,192,178493,128,0,178527:0:0:0:1:
329,192,178561,128,0,178596:0:0:0:1:
109,192,178630,128,0,178698:0:0:0:1:
182,192,178630,128,0,178664:0:0:0:1:
256,192,178630,128,0,178664:0:0:0:1:
329,192,178630,128,0,178664:0:0:0:1:
402,192,178630,128,0,178664:0:0:0:1:
36,192,178698,128,0,178732:0:0:0:1:
475,192,178698,128,0,178732:0:0:0:1:
109,192,178766,128,0,178800:0:0:0:1:
182,192,178766,128,0,178834:0:0:0:1:
402,192,178766,128,0,178800:0:0:0:1:
329,192,178834,128,0,178868:0:0:0:1:
109,192,178902,128,0,178971:0:0:0:1:
182,192,178902,128,0,179005:0:0:0:1:
256,192,178902,128,0,178936:0:0:0:1:
329,192,178902,128,0,179005:0:0:0:1:
402,192,178902,128,0,178971:0:0:0:1:
36,192,178902,128,0,179039:0:0:0:1:
475,192,178902,128,0,179039:0:0:0:1:
256,192,178971,128,0,179039:0:0:0:1:
109,192,179039,128,0,179107:0:0:0:1:
182,192,179039,128,0,179141:0:0:0:1:
329,192,179039,128,0,179141:0:0:0:1:
402,192,179039,128,0,179107:0:0:0:1:
256,192,179107,128,0,179141:0:0:0:1:
36,192,179107,128,0,179175:0:0:0:1:
475,192,179107,128,0,179175:0:0:0:1:
109,192,179175,128,0,179243:0:0:0:1:
182,192,179175,128,0,179277:0:0:0:1:
329,192,179175,128,0,179277:0:0:0:1:
402,192,179175,128,0,179243:0:0:0:1:
256,192,179243,128,0,179277:0:0:0:1:
36,192,179243,128,0,179277:0:0:0:1:
182,192,179311,128,0,179414:0:0:0:1:
256,192,179311,128,0,179448:0:0:0:1:
329,192,179311,128,0,179414:0:0:0:1:
402,192,179311,128,0,179380:0:0:0:1:
36,192,179311,128,0,179448:0:0:0:1:
475,192,179311,128,0,179448:0:0:0:1:
109,192,179380,128,0,179414:0:0:0:1:
109,192,179448,128,0,179550:0:0:0:1:
182,192,179448,128,0,179482:0:0:0:1:
402,192,179448,128,0,179550:0:0:0:1:
256,192,179516,128,0,179550:0:0:0:1:
329,192,179516,128,0,179584:0:0:0:1:
109,192,179584,128,0,179686:0:0:0:1:
256,192,179584,128,0,179652:0:0:0:1:
402,192,179584,128,0,179686:0:0:0:1:
182,192,179652,128,0,179721:0:0:0:1:
36,192,179652,128,0,179686:0:0:0:1:
109,192,179721,128,0,179823:0:0:0:1:
329,192,179721,128,0,179755:0:0:0:1:
402,192,179721,128,0,179823:0:0:0:1:
36,192,179721,128,0,179789:0:0:0:1:
475,192,179721,128,0,179789:0:0:0:1:
329,192,179789,128,0,179857:0:0:0:1:
109,192,179857,128,0,179959:0:0:0:1:
256,192,179857,128,0,179925:0:0:0:1:
402,192,179857,128,0,179959:0:0:0:1:
182,192,179925,128,0,179993:0:0:0:1:
329,192,179925,128,0,179993:0:0:0:1:
36,192,179925,128,0,179959:0:0:0:1:
109,192,179993,128,0,180130:0:0:0:1:
256,192,179993,128,0,180061:0:0:0:1:
402,192,179993,128,0,180130:0:0:0:1:
36,192,179993,128,0,180096:0:0:0:1:
475,192,179993,128,0,180096:0:0:0:1:
182,192,180061,128,0,180130:0:0:0:1:
256,192,180130,128,0,180198:0:0:0:1:
329,192,180130,128,0,180164:0:0:0:1:
36,192,180130,128,0,180232:0:0:0:1:
475,192,180130,128,0,180232:0:0:0:1:
329,192,180198,128,0,180266:0:0:0:1:
109,192,180266,128,0,180334:0:0:0:1:
402,192,180266,128,0,180334:0:0:0:1:
36,192,180266,128,0,180368:0:0:0:1:
475,192,180266,128,0,180368:0:0:0:1:
182,192,180334,128,0,180402:0:0:0:1:
256,192,180334,128,0,180368:0:0:0:1:
109,192,180402,128,0,180539:0:0:0:1:
256,192,180402,128,0,180471:0:0:0:1:
402,192,180402,128,0,180539:0:0:0:1:
36,192,180402,128,0,180505:0:0:0:1:
475,192,180402,128,0,180505:0:0:0:1:
182,192,180471,128,0,180539:0:0:0:1:
329,192,180471,128,0,180539:0:0:0:1:
256,192,180539,128,0,180641:0:0:0:1:
36,192,180539,128,0,180607:0:0:0:1:
475,192,180539,128,0,180607:0:0:0:1:
109,192,180607,128,0,180675:0:0:0:1:
182,192,180607,128,0,180641:0:0:0:1:
402,192,180607,128,0,180675:0:0:0:1:
182,192,180675,128,0,180743:0:0:0:1:
256,192,180675,128,0,180777:0:0:0:1:
329,192,180675,128,0,180743:0:0:0:1:
109,192,180743,128,0,180811:0:0:0:1:
402,192,180743,128,0,180811:0:0:0:1:
475,192,180743,128,0,180777:0:0:0:1:
256,192,180811,128,0,180914:0:0:0:1:
36,192,180811,128,0,180880:0:0:0:1:
475,192,180811,128,0,180880:0:0:0:1:
109,192,180880,128,0,180948:0:0:0:1:
329,192,180880,128,0,180914:0:0:0:1:
402,192,180880,128,0,180948:0:0:0:1:
182,192,180948,128,0,181016:0:0:0:1:
256,192,180948,128,0,181050:0:0:0:1:
329,192,180948,128,0,181016:0:0:0:1:
109,192,181016,128,0,181050:0:0:0:1:
402,192,181016,128,0,181050:0:0:0:1:
109,192,181084,128,0,181152:0:0:0:1:
182,192,181084,128,0,181459:0:0:0:1:
256,192,181084,128,0,181152:0:0:0:1:
329,192,181084,128,0,181118:0:0:0:1:
36,192,181084,128,0,181459:0:0:0:1:
475,192,181084,128,0,181118:0:0:0:1:
402,192,181152,128,0,181186:0:0:0:1:
256,192,181221,128,0,181255:0:0:0:1:
329,192,181221,128,0,181289:0:0:0:1:
109,192,181289,128,0,181323:0:0:0:1:
256,192,181357,128,0,181391:0:0:0:1:
329,192,181357,128,0,181391:0:0:0:1:
402,192,181357,128,0,181425:0:0:0:1:
475,192,181357,128,0,181391:0:0:0:1:
109,192,181425,128,0,181459:0:0:0:1:
109,192,181493,128,0,181868:0:0:0:1:
182,192,181493,128,0,181561:0:0:0:1:
256,192,181493,128,0,181868:0:0:0:1:
329,192,181493,128,0,181527:0:0:0:1:
36,192,181493,128,0,181561:0:0:0:1:
475,192,181493,128,0,181561:0:0:0:1:
402,192,181561,128,0,181596:0:0:0:1:
329,192,181630,128,0,181698:0:0:0:1:
402,192,181630,128,0,181698:0:0:0:1:
36,192,181630,128,0,181698:0:0:0:1:
475,192,181630,128,0,181664:0:0:0:1:
182,192,181698,128,0,181732:0:0:0:1:
329,192,181766,128,0,181834:0:0:0:1:
36,192,181766,128,0,181800:0:0:0:1:
182,192,181834,128,0,181868:0:0:0:1:
109,192,181902,128,0,181936:0:0:0:1:
182,192,181902,128,0,181936:0:0:0:1:
256,192,181902,128,0,181936:0:0:0:1:
329,192,181902,128,0,181936:0:0:0:1:
402,192,181902,128,0,181971:0:0:0:1:
36,192,181971,128,0,182005:0:0:0:1:
475,192,181971,128,0,182005:0:0:0:1:
109,192,182039,128,0,182073:0:0:0:1:
329,192,182039,128,0,182107:0:0:0:1:
402,192,182039,128,0,182073:0:0:0:1:
182,192,182107,128,0,182141:0:0:0:1:
182,192,182175,128,0,182209:0:0:0:1:
256,192,182175,128,0,182243:0:0:0:1:
329,192,182175,128,0,182550:0:0:0:1:
402,192,182175,128,0,182243:0:0:0:1:
36,192,182175,128,0,182209:0:0:0:1:
475,192,182175,128,0,182550:0:0:0:1:
109,192,182243,128,0,182277:0:0:0:1:
182,192,182311,128,0,182380:0:0:0:1:
36,192,182311,128,0,182346:0:0:0:1:
402,192,182380,128,0,182414:0:0:0:1:
109,192,182448,128,0,182516:0:0:0:1:
182,192,182448,128,0,182482:0:0:0:1:
256,192,182448,128,0,182516:0:0:0:1:
36,192,182448,128,0,182482:0:0:0:1:
402,192,182516,128,0,182550:0:0:0:1:
182,192,182584,128,0,182618:0:0:0:1:
256,192,182584,128,0,182959:0:0:0:1:
329,192,182584,128,0,182652:0:0:0:1:
402,192,182584,128,0,182959:0:0:0:1:
36,192,182584,128,0,182652:0:0:0:1:
475,192,182584,128,0,182652:0:0:0:1:
109,192,182652,128,0,182686:0:0:0:1:
109,192,182721,128,0,182789:0:0:0:1:
182,192,182721,128,0,182755:0:0:0:1:
36,192,182721,128,0,182755:0:0:0:1:
475,192,182721,128,0,182755:0:0:0:1:
329,192,182789,128,0,182823:0:0:0:1:
182,192,182857,128,0,182925:0:0:0:1:
475,192,182857,128,0,182891:0:0:0:1:
329,192,182925,128,0,182959:0:0:0:1:
109,192,182993,128,0,183061:0:0:0:1:
182,192,182993,128,0,183027:0:0:0:1:
256,192,182993,128,0,183027:0:0:0:1:
329,192,182993,128,0,183027:0:0:0:1:
402,192,182993,128,0,183027:0:0:0:1:
36,192,183061,128,0,183096:0:0:0:1:
475,192,183061,128,0,183096:0:0:0:1:
109,192,183130,128,0,183164:0:0:0:1:
182,192,183130,128,0,183198:0:0:0:1:
402,192,183130,128,0,183164:0:0:0:1:
329,192,183198,128,0,183232:0:0:0:1:
109,192,183266,128,0,183539:0:0:0:1:
256,192,183266,128,0,183539:0:0:0:1:
402,192,183266,128,0,183539:0:0:0:1:
36,192,183266,128,0,183539:0:0:0:1:
475,192,183266,128,0,183539:0:0:0:1:
109,192,184358,128,0,184631:0:0:0:1:
182,192,184358,128,0,184631:0:0:0:1:
256,192,184358,128,0,184631:0:0:0:1:
329,192,184358,128,0,184631:0:0:0:1:
402,192,184358,128,0,184631:0:0:0:1:
36,192,184358,128,0,184631:0:0:0:1:
475,192,184358,128,0,184631:0:0:0:1:
256,192,185449,1,0,0:0:0:1:
402,192,185449,1,0,0:0:0:1:
475,192,185449,1,0,0:0:0:1:
109,192,185449,128,0,185517:0:0:0:1:
182,192,185449,128,0,185790:0:0:0:1:
36,192,185449,128,0,185790:0:0:0:1:
329,192,185517,1,0,0:0:0:1:
402,192,185586,1,0,0:0:0:1:
475,192,185654,1,0,0:0:0:1:
109,192,185722,1,0,0:0:0:1:
256,192,185722,1,0,0:0:0:1:
402,192,185722,1,0,0:0:0:1:
329,192,185790,1,0,0:0:0:1:
402,192,185858,1,0,0:0:0:1:
109,192,185858,128,0,186267:0:0:0:1:
182,192,185858,128,0,185926:0:0:0:1:
256,192,185858,128,0,186267:0:0:0:1:
475,192,185926,1,0,0:0:0:1:
182,192,185995,1,0,0:0:0:1:
402,192,185995,1,0,0:0:0:1:
36,192,185995,1,0,0:0:0:1:
329,192,186063,1,0,0:0:0:1:
402,192,186131,1,0,0:0:0:1:
475,192,186199,1,0,0:0:0:1:
182,192,186267,1,0,0:0:0:1:
329,192,186267,1,0,0:0:0:1:
36,192,186267,1,0,0:0:0:1:
256,192,186336,1,0,0:0:0:1:
182,192,186404,1,0,0:0:0:1:
329,192,186404,1,0,0:0:0:1:
109,192,186472,1,0,0:0:0:1:
402,192,186472,1,0,0:0:0:1:
109,192,186540,1,0,0:0:0:1:
256,192,186540,1,0,0:0:0:1:
36,192,186540,1,0,0:0:0:1:
329,192,186540,128,0,186881:0:0:0:1:
402,192,186540,128,0,186608:0:0:0:1:
475,192,186540,128,0,186881:0:0:0:1:
182,192,186608,1,0,0:0:0:1:
109,192,186676,1,0,0:0:0:1:
36,192,186745,1,0,0:0:0:1:
109,192,186813,1,0,0:0:0:1:
256,192,186813,1,0,0:0:0:1:
402,192,186813,1,0,0:0:0:1:
182,192,186881,1,0,0:0:0:1:
109,192,186949,1,0,0:0:0:1:
256,192,186949,128,0,187358:0:0:0:1:
329,192,186949,128,0,187017:0:0:0:1:
402,192,186949,128,0,187358:0:0:0:1:
36,192,187017,1,0,0:0:0:1:
109,192,187086,1,0,0:0:0:1:
329,192,187086,1,0,0:0:0:1:
475,192,187086,1,0,0:0:0:1:
182,192,187154,1,0,0:0:0:1:
109,192,187222,1,0,0:0:0:1:
36,192,187290,1,0,0:0:0:1:
182,192,187358,1,0,0:0:0:1:
329,192,187358,1,0,0:0:0:1:
475,192,187358,1,0,0:0:0:1:
256,192,187426,1,0,0:0:0:1:
182,192,187495,1,0,0:0:0:1:
329,192,187495,1,0,0:0:0:1:
109,192,187563,1,0,0:0:0:1:
402,192,187563,1,0,0:0:0:1:
256,192,187631,1,0,0:0:0:1:
109,192,187631,128,0,187767:0:0:0:1:
402,192,187631,128,0,187767:0:0:0:1:
36,192,187631,128,0,187767:0:0:0:1:
475,192,187631,128,0,187767:0:0:0:1:
182,192,187699,1,0,0:0:0:1:
329,192,187767,1,0,0:0:0:1:
256,192,187836,1,0,0:0:0:1:
182,192,187904,1,0,0:0:0:1:
329,192,187904,1,0,0:0:0:1:
109,192,187972,1,0,0:0:0:1:
402,192,187972,1,0,0:0:0:1:
36,192,188040,1,0,0:0:0:1:
475,192,188040,1,0,0:0:0:1:
109,192,188040,128,0,188176:0:0:0:1:
182,192,188040,128,0,188176:0:0:0:1:
329,192,188040,128,0,188176:0:0:0:1:
402,192,188040,128,0,188176:0:0:0:1:
256,192,188108,1,0,0:0:0:1:
36,192,188176,1,0,0:0:0:1:
475,192,188176,1,0,0:0:0:1:
109,192,188245,1,0,0:0:0:1:
402,192,188245,1,0,0:0:0:1:
182,192,188313,1,0,0:0:0:1:
329,192,188313,1,0,0:0:0:1:
256,192,188381,1,0,0:0:0:1:
182,192,188449,1,0,0:0:0:1:
329,192,188449,1,0,0:0:0:1:
109,192,188517,1,0,0:0:0:1:
402,192,188517,1,0,0:0:0:1:
36,192,188586,1,0,0:0:0:1:
475,192,188586,1,0,0:0:0:1:
109,192,188654,1,0,0:0:0:1:
402,192,188654,1,0,0:0:0:1:
256,192,188722,1,0,0:0:0:1:
109,192,188722,128,0,188858:0:0:0:1:
182,192,188722,128,0,188858:0:0:0:1:
329,192,188722,128,0,188858:0:0:0:1:
402,192,188722,128,0,188858:0:0:0:1:
36,192,188790,1,0,0:0:0:1:
475,192,188790,1,0,0:0:0:1:
256,192,188858,1,0,0:0:0:1:
182,192,188926,1,0,0:0:0:1:
329,192,188926,1,0,0:0:0:1:
109,192,188995,1,0,0:0:0:1:
402,192,188995,1,0,0:0:0:1:
182,192,189063,1,0,0:0:0:1:
329,192,189063,1,0,0:0:0:1:
256,192,189131,1,0,0:0:0:1:
109,192,189131,128,0,189267:0:0:0:1:
402,192,189131,128,0,189267:0:0:0:1:
36,192,189131,128,0,189267:0:0:0:1:
475,192,189131,128,0,189267:0:0:0:1:
182,192,189199,1,0,0:0:0:1:
329,192,189199,1,0,0:0:0:1:
256,192,189267,1,0,0:0:0:1:
182,192,189336,1,0,0:0:0:1:
329,192,189336,1,0,0:0:0:1:
109,192,189404,1,0,0:0:0:1:
402,192,189404,1,0,0:0:0:1:
36,192,189472,1,0,0:0:0:1:
475,192,189472,1,0,0:0:0:1:
109,192,189540,1,0,0:0:0:1:
402,192,189540,1,0,0:0:0:1:
182,192,189608,1,0,0:0:0:1:
329,192,189608,1,0,0:0:0:1:
109,192,189676,1,0,0:0:0:1:
402,192,189676,1,0,0:0:0:1:
182,192,189745,1,0,0:0:0:1:
329,192,189745,1,0,0:0:0:1:
109,192,189813,128,0,190086:0:0:0:1:
182,192,189813,128,0,190086:0:0:0:1:
36,192,189813,128,0,190086:0:0:0:1:
329,192,190086,128,0,190358:0:0:0:1:
402,192,190086,128,0,190358:0:0:0:1:
475,192,190086,128,0,190358:0:0:0:1:
109,192,190358,128,0,190631:0:0:0:1:
182,192,190358,128,0,190631:0:0:0:1:
256,192,190358,128,0,190631:0:0:0:1:
402,192,190631,128,0,190904:0:0:0:1:
475,192,190631,128,0,190904:0:0:0:1:
182,192,190904,128,0,191176:0:0:0:1:
256,192,190904,128,0,191176:0:0:0:1:
329,192,190904,128,0,191176:0:0:0:1:
475,192,191176,128,0,191449:0:0:0:1:
256,192,191449,128,0,191722:0:0:0:1:
329,192,191449,128,0,191722:0:0:0:1:
402,192,191449,128,0,191722:0:0:0:1:
36,192,191722,128,0,191995:0:0:0:1:
109,192,191995,128,0,206995:0:0:0:1:
256,192,191995,128,0,206995:0:0:0:1:
402,192,191995,128,0,206995:0:0:0:1:
