osu file format v12

[General]
AudioFilename: rd.mp3
AudioLeadIn: 0
PreviewTime: -1
Countdown: 0
SampleSet: Soft
StackLeniency: 0.7
Mode: 3
LetterboxInBreaks: 1

[Editor]
DistanceSpacing: 2
BeatDivisor: 4
GridSize: 8

[Metadata]
Title:Rainbow Dash Likes Girls (Stay Gay Pony Girl)
TitleUnicode:Rainbow Dash Likes Girls (Stay Gay Pony Girl)
Artist:Renard
ArtistUnicode:Renard
Creator:NekomataMaster
Version:Dashy
Source:My Little Pony : Friendship is Magic
Tags:mlp my little pony friendship is magic renard mania
BeatmapID:226453
BeatmapSetID:81521

[Difficulty]
HPDrainRate:3
CircleSize:7
OverallDifficulty:3
ApproachRate:5
SliderMultiplier:1.4
SliderTickRate:1

[Events]
//Background and Video events
Video,611,"Renard - Rainbow Dash Likes Girls (Stay Gay Pony Girl) - YouTube.FLV"
0,0,"young rd.jpg",1,1
//Break Periods
2,41655,57710
2,141997,149324
//Storyboard Layer 0 (Background)
//Storyboard Layer 1 (Fail)
//Storyboard Layer 2 (Pass)
//Storyboard Layer 3 (Foreground)
//Storyboard Sound Samples
Sample,545,0,"pony.wav",70
//Background Colour Transformations
3,100,163,162,255

[TimingPoints]
0,272.727272727273,4,2,0,0,1,0
41454,-400,4,2,0,0,0,0
58910,-200,4,2,0,0,0,0
69819,272.727272727273,4,2,0,0,1,0
70910,272.727272727273,4,2,0,0,1,0
71114,272.727272727273,4,2,0,0,1,0
71250,272.727272727273,4,2,0,0,1,0
71455,272.727272727273,4,2,0,0,1,0
72000,54.5454545454545,4,2,0,0,1,0
72273,545.454545454546,4,2,0,0,1,0
72750,160.239290674073,4,2,0,0,1,0
73091,272.727272727273,4,2,0,0,1,0
74182,272.727272727273,4,2,0,0,1,0
75682,272.727272727273,4,2,0,0,1,0
80188,272.727272727273,4,2,0,0,1,0
80461,54.5454545454545,4,2,0,0,1,0
80625,40,4,2,0,0,1,0
80705,272.727272727273,4,2,0,0,1,0
130886,4363.63636363636,4,2,0,0,1,0
131977,0.915527345146984,4,2,0,0,1,0
131978,2181.81818181818,4,2,0,0,1,0
133069,-25,4,2,0,0,0,0
140705,0.915527345146984,4,2,0,0,1,0
140706,1090.90909090909,4,2,0,0,1,0
141797,218.181818181818,4,2,0,0,1,0
150524,272.727272727273,4,2,0,0,1,0
189796,-66.6666666666667,4,2,0,0,0,0
190071,-200,4,2,0,0,0,0
190344,-66.6666666666667,4,2,0,0,0,0
190616,-200,4,2,0,0,0,0
190889,-66.6666666666667,4,2,0,0,0,0
191162,-200,4,2,0,0,0,0
191434,-66.6666666666667,4,2,0,0,0,0
191707,-200,4,2,0,0,0,0

[HitObjects]
36,192,6545,1,0,0:0:0:1:
109,192,6954,1,0,0:0:0:1:
475,192,7636,1,0,0:0:0:1:
402,192,8045,1,0,0:0:0:1:
109,192,8727,1,0,0:0:0:1:
182,192,9136,1,0,0:0:0:1:
402,192,9818,1,0,0:0:0:1:
329,192,10227,1,0,0:0:0:1:
36,192,10909,1,0,0:0:0:1:
109,192,11318,1,0,0:0:0:1:
475,192,12000,1,0,0:0:0:1:
402,192,12409,1,0,0:0:0:1:
109,192,13090,1,0,0:0:0:1:
182,192,13500,1,0,0:0:0:1:
402,192,14181,1,0,0:0:0:1:
329,192,14590,1,0,0:0:0:1:
256,192,15000,128,0,15272:0:0:0:1:
109,192,15272,1,0,0:0:0:1:
36,192,15272,1,0,0:0:0:1:
109,192,15681,1,0,0:0:0:1:
182,192,15681,1,0,0:0:0:1:
402,192,16363,1,0,0:0:0:1:
475,192,16363,1,0,0:0:0:1:
329,192,16772,1,0,0:0:0:1:
402,192,16772,1,0,0:0:0:1:
109,192,17454,1,0,0:0:0:1:
182,192,17454,1,0,0:0:0:1:
182,192,17863,1,0,0:0:0:1:
256,192,17863,1,0,0:0:0:1:
329,192,18545,1,0,0:0:0:1:
402,192,18545,1,0,0:0:0:1:
256,192,18954,1,0,0:0:0:1:
329,192,18954,1,0,0:0:0:1:
109,192,19636,1,0,0:0:0:1:
182,192,19636,1,0,0:0:0:1:
109,192,20045,1,0,0:0:0:1:
36,192,20045,1,0,0:0:0:1:
329,192,20727,1,0,0:0:0:1:
402,192,20727,1,0,0:0:0:1:
402,192,21136,1,0,0:0:0:1:
475,192,21136,1,0,0:0:0:1:
182,192,21818,1,0,0:0:0:1:
256,192,21818,1,0,0:0:0:1:
109,192,22227,1,0,0:0:0:1:
36,192,22227,1,0,0:0:0:1:
256,192,22909,1,0,0:0:0:1:
256,192,23045,1,0,0:0:0:1:
182,192,23181,1,0,0:0:0:1:
329,192,23181,1,0,0:0:0:1:
182,192,23318,1,0,0:0:0:1:
329,192,23318,1,0,0:0:0:1:
256,192,23454,128,0,24000:0:0:0:1:
109,192,24000,1,0,0:0:0:1:
36,192,24000,1,0,0:0:0:1:
109,192,24410,1,0,0:0:0:1:
182,192,24410,1,0,0:0:0:1:
402,192,25091,1,0,0:0:0:1:
475,192,25091,1,0,0:0:0:1:
329,192,25500,1,0,0:0:0:1:
402,192,25500,1,0,0:0:0:1:
109,192,26182,1,0,0:0:0:1:
182,192,26182,1,0,0:0:0:1:
182,192,26591,1,0,0:0:0:1:
256,192,26591,1,0,0:0:0:1:
329,192,27273,1,0,0:0:0:1:
402,192,27273,1,0,0:0:0:1:
256,192,27682,1,0,0:0:0:1:
329,192,27682,1,0,0:0:0:1:
109,192,28364,1,0,0:0:0:1:
182,192,28364,1,0,0:0:0:1:
109,192,28773,1,0,0:0:0:1:
36,192,28773,1,0,0:0:0:1:
329,192,29455,1,0,0:0:0:1:
402,192,29455,1,0,0:0:0:1:
402,192,29864,1,0,0:0:0:1:
475,192,29864,1,0,0:0:0:1:
182,192,30546,1,0,0:0:0:1:
256,192,30546,1,0,0:0:0:1:
109,192,30955,1,0,0:0:0:1:
36,192,30955,1,0,0:0:0:1:
256,192,31637,1,0,0:0:0:1:
329,192,31637,1,0,0:0:0:1:
402,192,32046,1,0,0:0:0:1:
475,192,32046,1,0,0:0:0:1:
256,192,32455,128,0,32728:0:0:0:1:
36,192,32728,1,0,0:0:0:1:
475,192,32728,1,0,0:0:0:1:
36,192,33137,1,0,0:0:0:1:
475,192,33137,1,0,0:0:0:1:
109,192,33819,1,0,0:0:0:1:
402,192,33819,1,0,0:0:0:1:
109,192,34228,1,0,0:0:0:1:
402,192,34228,1,0,0:0:0:1:
182,192,34910,1,0,0:0:0:1:
329,192,34910,1,0,0:0:0:1:
182,192,35319,1,0,0:0:0:1:
329,192,35319,1,0,0:0:0:1:
256,192,36000,1,0,0:0:0:1:
256,192,36410,1,0,0:0:0:1:
182,192,37091,1,0,0:0:0:1:
329,192,37091,1,0,0:0:0:1:
182,192,37500,1,0,0:0:0:1:
329,192,37500,1,0,0:0:0:1:
109,192,38182,1,0,0:0:0:1:
402,192,38182,1,0,0:0:0:1:
109,192,38591,1,0,0:0:0:1:
402,192,38591,1,0,0:0:0:1:
256,192,39273,1,0,0:0:0:1:
36,192,39273,1,0,0:0:0:1:
475,192,39273,1,0,0:0:0:1:
256,192,39682,1,0,0:0:0:1:
36,192,39682,1,0,0:0:0:1:
475,192,39682,1,0,0:0:0:1:
256,192,40364,1,0,0:0:0:1:
256,192,40500,1,0,0:0:0:1:
182,192,40637,1,0,0:0:0:1:
329,192,40637,1,0,0:0:0:1:
182,192,40773,1,0,0:0:0:1:
329,192,40773,1,0,0:0:0:1:
109,192,40910,1,0,0:0:0:1:
402,192,40910,1,0,0:0:0:1:
109,192,41046,1,0,0:0:0:1:
402,192,41046,1,0,0:0:0:1:
256,192,41182,128,0,41455:0:0:0:1:
36,192,41455,1,0,0:0:0:1:
475,192,41455,1,0,0:0:0:1:
36,192,58910,132,0,60000:0:0:0:1:
109,192,60000,128,0,61091:0:0:0:1:
182,192,61091,128,0,62182:0:0:0:1:
256,192,62182,128,0,63273:0:0:0:1:
329,192,63273,128,0,64364:0:0:0:1:
402,192,64364,128,0,65455:0:0:0:1:
475,192,65455,128,0,66546:0:0:0:1:
256,192,66546,128,0,67637:0:0:0:1:
109,192,67364,1,0,0:0:0:1:
402,192,67364,1,0,0:0:0:1:
109,192,67500,1,0,0:0:0:1:
402,192,67500,1,0,0:0:0:1:
182,192,67637,1,0,0:0:0:1:
329,192,67637,1,0,0:0:0:1:
182,192,68728,128,0,69819:0:0:0:1:
329,192,68728,128,0,69819:0:0:0:1:
256,192,69819,128,0,70910:0:0:0:1:
36,192,70910,128,0,71387:0:0:0:1:
475,192,70910,128,0,71387:0:0:0:1:
109,192,71387,128,0,72000:0:0:0:1:
402,192,71387,128,0,72000:0:0:0:1:
256,192,72000,1,0,0:0:0:1:
36,192,72000,1,0,0:0:0:1:
475,192,72000,1,0,0:0:0:1:
109,192,73091,1,0,0:0:0:1:
256,192,73091,1,0,0:0:0:1:
402,192,73091,1,0,0:0:0:1:
109,192,74182,1,0,0:0:0:1:
182,192,74182,1,0,0:0:0:1:
329,192,74182,1,0,0:0:0:1:
402,192,74182,1,0,0:0:0:1:
256,192,74318,1,0,0:0:0:1:
402,192,74455,1,0,0:0:0:1:
109,192,74591,1,0,0:0:0:1:
475,192,74727,1,0,0:0:0:1:
36,192,74864,1,0,0:0:0:1:
402,192,75000,1,0,0:0:0:1:
109,192,75136,1,0,0:0:0:1:
475,192,75273,1,0,0:0:0:1:
256,192,75409,1,0,0:0:0:1:
402,192,75545,1,0,0:0:0:1:
256,192,75682,128,0,76091:0:0:0:1:
109,192,76091,1,0,0:0:0:1:
402,192,76091,1,0,0:0:0:1:
256,192,76364,1,0,0:0:0:1:
36,192,76364,1,0,0:0:0:1:
475,192,76364,1,0,0:0:0:1:
109,192,77182,128,0,77455:0:0:0:1:
402,192,77182,128,0,77455:0:0:0:1:
182,192,77455,1,0,0:0:0:1:
329,192,77455,1,0,0:0:0:1:
36,192,77455,1,0,0:0:0:1:
475,192,77455,1,0,0:0:0:1:
256,192,78273,128,0,78557:0:0:0:1:
109,192,78557,1,0,0:0:0:1:
402,192,78557,1,0,0:0:0:1:
109,192,79098,1,0,0:0:0:1:
256,192,79098,1,0,0:0:0:1:
402,192,79098,1,0,0:0:0:1:
256,192,79642,1,0,0:0:0:1:
36,192,79642,1,0,0:0:0:1:
475,192,79642,1,0,0:0:0:1:
256,192,79915,1,0,0:0:0:1:
36,192,79915,1,0,0:0:0:1:
475,192,79915,1,0,0:0:0:1:
256,192,80188,1,0,0:0:0:1:
36,192,80188,1,0,0:0:0:1:
475,192,80188,1,0,0:0:0:1:
475,192,80705,1,0,0:0:0:1:
329,192,80841,1,0,0:0:0:1:
402,192,80977,1,0,0:0:0:1:
256,192,81114,1,0,0:0:0:1:
329,192,81250,1,0,0:0:0:1:
182,192,81386,1,0,0:0:0:1:
256,192,81523,1,0,0:0:0:1:
109,192,81659,1,0,0:0:0:1:
182,192,81796,1,0,0:0:0:1:
36,192,81932,1,0,0:0:0:1:
36,192,82068,1,0,0:0:0:1:
109,192,82205,1,0,0:0:0:1:
182,192,82341,1,0,0:0:0:1:
109,192,82477,1,0,0:0:0:1:
256,192,82614,1,0,0:0:0:1:
182,192,82750,1,0,0:0:0:1:
182,192,82886,1,0,0:0:0:1:
182,192,83023,1,0,0:0:0:1:
182,192,83159,1,0,0:0:0:1:
256,192,83296,1,0,0:0:0:1:
256,192,83432,1,0,0:0:0:1:
256,192,83568,1,0,0:0:0:1:
329,192,83705,1,0,0:0:0:1:
329,192,83841,1,0,0:0:0:1:
475,192,83977,1,0,0:0:0:1:
402,192,84114,1,0,0:0:0:1:
329,192,84250,1,0,0:0:0:1:
402,192,84386,1,0,0:0:0:1:
329,192,84523,1,0,0:0:0:1:
256,192,84659,1,0,0:0:0:1:
329,192,84796,1,0,0:0:0:1:
256,192,84932,1,0,0:0:0:1:
182,192,85068,1,0,0:0:0:1:
36,192,85205,1,0,0:0:0:1:
36,192,85341,1,0,0:0:0:1:
36,192,85477,1,0,0:0:0:1:
109,192,85614,1,0,0:0:0:1:
109,192,85750,1,0,0:0:0:1:
109,192,85886,1,0,0:0:0:1:
475,192,86023,1,0,0:0:0:1:
475,192,86159,1,0,0:0:0:1:
475,192,86296,1,0,0:0:0:1:
402,192,86432,1,0,0:0:0:1:
402,192,86568,1,0,0:0:0:1:
402,192,86705,1,0,0:0:0:1:
329,192,86841,1,0,0:0:0:1:
329,192,86977,1,0,0:0:0:1:
256,192,87114,1,0,0:0:0:1:
256,192,87250,1,0,0:0:0:1:
36,192,87386,1,0,0:0:0:1:
36,192,87523,1,0,0:0:0:1:
36,192,87659,1,0,0:0:0:1:
182,192,87796,1,0,0:0:0:1:
182,192,87932,1,0,0:0:0:1:
182,192,88068,1,0,0:0:0:1:
329,192,88205,1,0,0:0:0:1:
329,192,88341,1,0,0:0:0:1:
329,192,88477,1,0,0:0:0:1:
475,192,88614,1,0,0:0:0:1:
475,192,88750,1,0,0:0:0:1:
256,192,88886,1,0,0:0:0:1:
256,192,89023,1,0,0:0:0:1:
256,192,89159,128,0,89432:0:0:0:1:
36,192,89432,1,0,0:0:0:1:
182,192,89568,1,0,0:0:0:1:
109,192,89705,1,0,0:0:0:1:
256,192,89841,1,0,0:0:0:1:
182,192,89977,1,0,0:0:0:1:
329,192,90114,1,0,0:0:0:1:
256,192,90250,1,0,0:0:0:1:
402,192,90386,1,0,0:0:0:1:
329,192,90523,1,0,0:0:0:1:
402,192,90659,1,0,0:0:0:1:
402,192,90796,1,0,0:0:0:1:
329,192,90932,1,0,0:0:0:1:
256,192,91068,1,0,0:0:0:1:
109,192,91205,1,0,0:0:0:1:
182,192,91341,1,0,0:0:0:1:
36,192,91477,1,0,0:0:0:1:
256,192,91614,1,0,0:0:0:1:
256,192,91750,1,0,0:0:0:1:
256,192,91886,1,0,0:0:0:1:
329,192,92023,1,0,0:0:0:1:
329,192,92159,1,0,0:0:0:1:
329,192,92296,1,0,0:0:0:1:
402,192,92432,1,0,0:0:0:1:
402,192,92568,1,0,0:0:0:1:
36,192,92705,1,0,0:0:0:1:
109,192,92841,1,0,0:0:0:1:
182,192,92977,1,0,0:0:0:1:
109,192,93114,1,0,0:0:0:1:
182,192,93250,1,0,0:0:0:1:
256,192,93386,1,0,0:0:0:1:
182,192,93523,1,0,0:0:0:1:
256,192,93659,1,0,0:0:0:1:
329,192,93796,1,0,0:0:0:1:
475,192,93932,1,0,0:0:0:1:
475,192,94068,1,0,0:0:0:1:
475,192,94205,1,0,0:0:0:1:
402,192,94341,1,0,0:0:0:1:
402,192,94477,1,0,0:0:0:1:
402,192,94614,1,0,0:0:0:1:
36,192,94750,1,0,0:0:0:1:
36,192,94886,1,0,0:0:0:1:
36,192,95023,1,0,0:0:0:1:
109,192,95159,1,0,0:0:0:1:
109,192,95296,1,0,0:0:0:1:
109,192,95432,1,0,0:0:0:1:
182,192,95568,1,0,0:0:0:1:
256,192,95705,1,0,0:0:0:1:
329,192,95841,1,0,0:0:0:1:
256,192,95977,1,0,0:0:0:1:
402,192,96114,1,0,0:0:0:1:
402,192,96250,1,0,0:0:0:1:
329,192,96386,1,0,0:0:0:1:
182,192,96523,1,0,0:0:0:1:
182,192,96659,1,0,0:0:0:1:
36,192,96796,1,0,0:0:0:1:
109,192,96932,1,0,0:0:0:1:
109,192,97068,1,0,0:0:0:1:
109,192,97205,1,0,0:0:0:1:
256,192,97341,1,0,0:0:0:1:
402,192,97477,1,0,0:0:0:1:
329,192,97614,1,0,0:0:0:1:
475,192,97750,1,0,0:0:0:1:
402,192,97886,1,0,0:0:0:1:
256,192,98023,1,0,0:0:0:1:
36,192,98159,1,0,0:0:0:1:
475,192,98159,1,0,0:0:0:1:
36,192,98432,1,0,0:0:0:1:
475,192,98432,1,0,0:0:0:1:
36,192,98705,1,0,0:0:0:1:
475,192,98705,1,0,0:0:0:1:
36,192,98977,1,0,0:0:0:1:
475,192,98977,1,0,0:0:0:1:
109,192,99250,1,0,0:0:0:1:
402,192,99250,1,0,0:0:0:1:
109,192,99523,1,0,0:0:0:1:
402,192,99523,1,0,0:0:0:1:
109,192,99796,1,0,0:0:0:1:
402,192,99796,1,0,0:0:0:1:
109,192,100068,1,0,0:0:0:1:
402,192,100068,1,0,0:0:0:1:
182,192,100341,1,0,0:0:0:1:
329,192,100341,1,0,0:0:0:1:
182,192,100614,1,0,0:0:0:1:
329,192,100614,1,0,0:0:0:1:
182,192,100886,1,0,0:0:0:1:
329,192,100886,1,0,0:0:0:1:
182,192,101159,1,0,0:0:0:1:
329,192,101159,1,0,0:0:0:1:
256,192,101432,1,0,0:0:0:1:
402,192,101432,1,0,0:0:0:1:
256,192,101705,1,0,0:0:0:1:
402,192,101705,1,0,0:0:0:1:
256,192,101977,1,0,0:0:0:1:
402,192,101977,1,0,0:0:0:1:
256,192,102250,1,0,0:0:0:1:
402,192,102250,1,0,0:0:0:1:
109,192,102523,1,0,0:0:0:1:
256,192,102523,1,0,0:0:0:1:
109,192,102796,1,0,0:0:0:1:
256,192,102796,1,0,0:0:0:1:
109,192,103068,1,0,0:0:0:1:
256,192,103068,1,0,0:0:0:1:
109,192,103341,1,0,0:0:0:1:
256,192,103341,1,0,0:0:0:1:
109,192,103614,1,0,0:0:0:1:
402,192,103614,1,0,0:0:0:1:
109,192,103886,1,0,0:0:0:1:
402,192,103886,1,0,0:0:0:1:
109,192,104159,1,0,0:0:0:1:
402,192,104159,1,0,0:0:0:1:
109,192,104432,1,0,0:0:0:1:
402,192,104432,1,0,0:0:0:1:
36,192,104705,1,0,0:0:0:1:
475,192,104705,1,0,0:0:0:1:
36,192,104977,1,0,0:0:0:1:
475,192,104977,1,0,0:0:0:1:
36,192,105250,1,0,0:0:0:1:
475,192,105250,1,0,0:0:0:1:
36,192,105523,1,0,0:0:0:1:
475,192,105523,1,0,0:0:0:1:
109,192,105796,1,0,0:0:0:1:
329,192,105796,1,0,0:0:0:1:
109,192,106068,1,0,0:0:0:1:
329,192,106068,1,0,0:0:0:1:
109,192,106341,1,0,0:0:0:1:
329,192,106341,1,0,0:0:0:1:
182,192,106477,1,0,0:0:0:1:
402,192,106477,1,0,0:0:0:1:
109,192,106614,1,0,0:0:0:1:
329,192,106614,1,0,0:0:0:1:
182,192,106750,1,0,0:0:0:1:
402,192,106750,1,0,0:0:0:1:
256,192,106886,1,0,0:0:0:1:
36,192,106886,1,0,0:0:0:1:
256,192,107159,1,0,0:0:0:1:
256,192,107432,1,0,0:0:0:1:
475,192,107432,1,0,0:0:0:1:
256,192,107705,1,0,0:0:0:1:
109,192,107977,1,0,0:0:0:1:
329,192,107977,1,0,0:0:0:1:
329,192,108250,1,0,0:0:0:1:
182,192,108523,1,0,0:0:0:1:
402,192,108523,1,0,0:0:0:1:
182,192,108796,1,0,0:0:0:1:
109,192,109068,1,0,0:0:0:1:
402,192,109068,1,0,0:0:0:1:
109,192,109341,1,0,0:0:0:1:
109,192,109614,1,0,0:0:0:1:
402,192,109614,1,0,0:0:0:1:
402,192,109886,1,0,0:0:0:1:
36,192,110159,1,0,0:0:0:1:
475,192,110159,1,0,0:0:0:1:
36,192,110432,1,0,0:0:0:1:
36,192,110705,1,0,0:0:0:1:
475,192,110705,1,0,0:0:0:1:
475,192,110977,1,0,0:0:0:1:
109,192,111250,1,0,0:0:0:1:
256,192,111250,1,0,0:0:0:1:
329,192,111523,1,0,0:0:0:1:
182,192,111796,1,0,0:0:0:1:
402,192,111796,1,0,0:0:0:1:
256,192,112068,1,0,0:0:0:1:
109,192,112341,1,0,0:0:0:1:
256,192,112341,1,0,0:0:0:1:
402,192,112614,1,0,0:0:0:1:
182,192,112886,1,0,0:0:0:1:
402,192,112886,1,0,0:0:0:1:
36,192,113159,1,0,0:0:0:1:
182,192,113432,1,0,0:0:0:1:
256,192,113432,1,0,0:0:0:1:
329,192,113432,1,0,0:0:0:1:
109,192,113705,1,0,0:0:0:1:
256,192,113705,1,0,0:0:0:1:
402,192,113705,1,0,0:0:0:1:
256,192,113977,1,0,0:0:0:1:
36,192,113977,1,0,0:0:0:1:
475,192,113977,1,0,0:0:0:1:
109,192,114250,1,0,0:0:0:1:
256,192,114250,1,0,0:0:0:1:
402,192,114250,1,0,0:0:0:1:
182,192,114523,1,0,0:0:0:1:
329,192,114523,1,0,0:0:0:1:
182,192,114659,1,0,0:0:0:1:
329,192,114659,1,0,0:0:0:1:
182,192,114796,1,0,0:0:0:1:
329,192,114796,1,0,0:0:0:1:
182,192,114932,1,0,0:0:0:1:
329,192,114932,1,0,0:0:0:1:
182,192,115068,1,0,0:0:0:1:
329,192,115068,1,0,0:0:0:1:
182,192,115205,1,0,0:0:0:1:
329,192,115205,1,0,0:0:0:1:
182,192,115341,1,0,0:0:0:1:
329,192,115341,1,0,0:0:0:1:
182,192,115477,1,0,0:0:0:1:
329,192,115477,1,0,0:0:0:1:
36,192,115614,128,0,117796:0:0:0:1:
182,192,117796,128,0,119977:0:0:0:1:
329,192,119977,128,0,122159:0:0:0:1:
475,192,122159,128,0,124341:0:0:0:1:
109,192,124341,128,0,126523:0:0:0:1:
402,192,126523,128,0,128705:0:0:0:1:
256,192,128705,128,0,130886:0:0:0:1:
109,192,130886,128,0,133069:0:0:0:1:
402,192,130886,128,0,133069:0:0:0:1:
36,192,130886,128,0,133069:0:0:0:1:
475,192,130886,128,0,133069:0:0:0:1:
256,192,133069,1,0,0:0:0:1:
256,192,133614,1,0,0:0:0:1:
256,192,134159,1,0,0:0:0:1:
256,192,134705,1,0,0:0:0:1:
256,192,135250,1,0,0:0:0:1:
256,192,135796,1,0,0:0:0:1:
256,192,136341,1,0,0:0:0:1:
256,192,136887,1,0,0:0:0:1:
256,192,137432,1,0,0:0:0:1:
256,192,137978,1,0,0:0:0:1:
256,192,138523,1,0,0:0:0:1:
256,192,139069,1,0,0:0:0:1:
256,192,139614,1,0,0:0:0:1:
256,192,140159,1,0,0:0:0:1:
256,192,140705,128,0,141797:0:0:0:1:
402,192,150524,5,0,0:0:0:1:
475,192,150524,1,0,0:0:0:1:
329,192,150933,1,0,0:0:0:1:
402,192,150933,1,0,0:0:0:1:
109,192,151615,1,0,0:0:0:1:
36,192,151615,1,0,0:0:0:1:
109,192,152024,1,0,0:0:0:1:
182,192,152024,1,0,0:0:0:1:
329,192,152706,1,0,0:0:0:1:
402,192,152706,1,0,0:0:0:1:
256,192,153115,1,0,0:0:0:1:
329,192,153115,1,0,0:0:0:1:
109,192,153797,1,0,0:0:0:1:
182,192,153797,1,0,0:0:0:1:
182,192,154206,1,0,0:0:0:1:
256,192,154206,1,0,0:0:0:1:
36,192,154888,1,0,0:0:0:1:
475,192,154888,1,0,0:0:0:1:
36,192,155297,1,0,0:0:0:1:
475,192,155297,1,0,0:0:0:1:
109,192,155979,1,0,0:0:0:1:
402,192,155979,1,0,0:0:0:1:
109,192,156388,1,0,0:0:0:1:
402,192,156388,1,0,0:0:0:1:
182,192,157069,1,0,0:0:0:1:
329,192,157069,1,0,0:0:0:1:
182,192,157479,1,0,0:0:0:1:
329,192,157479,1,0,0:0:0:1:
256,192,158160,1,0,0:0:0:1:
256,192,158569,1,0,0:0:0:1:
256,192,158979,128,0,159251:0:0:0:1:
109,192,159251,1,0,0:0:0:1:
36,192,159251,1,0,0:0:0:1:
109,192,159660,1,0,0:0:0:1:
182,192,159660,1,0,0:0:0:1:
402,192,160342,1,0,0:0:0:1:
475,192,160342,1,0,0:0:0:1:
329,192,160751,1,0,0:0:0:1:
402,192,160751,1,0,0:0:0:1:
109,192,161433,1,0,0:0:0:1:
109,192,161569,1,0,0:0:0:1:
109,192,161706,1,0,0:0:0:1:
109,192,161842,1,0,0:0:0:1:
109,192,161979,1,0,0:0:0:1:
109,192,162115,1,0,0:0:0:1:
109,192,162251,1,0,0:0:0:1:
109,192,162388,1,0,0:0:0:1:
402,192,162524,1,0,0:0:0:1:
402,192,162660,1,0,0:0:0:1:
402,192,162797,1,0,0:0:0:1:
402,192,162933,1,0,0:0:0:1:
402,192,163069,1,0,0:0:0:1:
402,192,163206,1,0,0:0:0:1:
402,192,163342,1,0,0:0:0:1:
402,192,163479,1,0,0:0:0:1:
109,192,163615,1,0,0:0:0:1:
36,192,163615,1,0,0:0:0:1:
109,192,164024,1,0,0:0:0:1:
182,192,164024,1,0,0:0:0:1:
402,192,164706,1,0,0:0:0:1:
475,192,164706,1,0,0:0:0:1:
329,192,165115,1,0,0:0:0:1:
402,192,165115,1,0,0:0:0:1:
182,192,165797,1,0,0:0:0:1:
182,192,165933,1,0,0:0:0:1:
182,192,166069,1,0,0:0:0:1:
182,192,166206,1,0,0:0:0:1:
329,192,166342,1,0,0:0:0:1:
329,192,166479,1,0,0:0:0:1:
329,192,166615,1,0,0:0:0:1:
329,192,166751,1,0,0:0:0:1:
256,192,166888,1,0,0:0:0:1:
36,192,166888,1,0,0:0:0:1:
475,192,166888,1,0,0:0:0:1:
256,192,167024,1,0,0:0:0:1:
36,192,167024,1,0,0:0:0:1:
475,192,167024,1,0,0:0:0:1:
109,192,167160,1,0,0:0:0:1:
256,192,167160,1,0,0:0:0:1:
402,192,167160,1,0,0:0:0:1:
109,192,167297,1,0,0:0:0:1:
256,192,167297,1,0,0:0:0:1:
402,192,167297,1,0,0:0:0:1:
182,192,167433,1,0,0:0:0:1:
256,192,167433,1,0,0:0:0:1:
329,192,167433,1,0,0:0:0:1:
36,192,167433,1,0,0:0:0:1:
109,192,167524,1,0,0:0:0:1:
182,192,167615,1,0,0:0:0:1:
256,192,167706,1,0,0:0:0:1:
329,192,167797,1,0,0:0:0:1:
402,192,167888,1,0,0:0:0:1:
36,192,167979,1,0,0:0:0:1:
475,192,167979,1,0,0:0:0:1:
256,192,168115,1,0,0:0:0:1:
36,192,168251,1,0,0:0:0:1:
475,192,168251,1,0,0:0:0:1:
256,192,168388,1,0,0:0:0:1:
36,192,168524,1,0,0:0:0:1:
475,192,168524,1,0,0:0:0:1:
256,192,168660,1,0,0:0:0:1:
36,192,168797,1,0,0:0:0:1:
475,192,168797,1,0,0:0:0:1:
256,192,168933,1,0,0:0:0:1:
109,192,169069,1,0,0:0:0:1:
402,192,169069,1,0,0:0:0:1:
256,192,169206,1,0,0:0:0:1:
109,192,169342,1,0,0:0:0:1:
402,192,169342,1,0,0:0:0:1:
256,192,169479,1,0,0:0:0:1:
109,192,169615,1,0,0:0:0:1:
402,192,169615,1,0,0:0:0:1:
256,192,169751,1,0,0:0:0:1:
109,192,169888,1,0,0:0:0:1:
402,192,169888,1,0,0:0:0:1:
256,192,170024,1,0,0:0:0:1:
182,192,170160,1,0,0:0:0:1:
329,192,170160,1,0,0:0:0:1:
256,192,170297,1,0,0:0:0:1:
182,192,170433,1,0,0:0:0:1:
329,192,170433,1,0,0:0:0:1:
256,192,170569,1,0,0:0:0:1:
182,192,170706,1,0,0:0:0:1:
329,192,170706,1,0,0:0:0:1:
256,192,170842,1,0,0:0:0:1:
182,192,170979,1,0,0:0:0:1:
329,192,170979,1,0,0:0:0:1:
256,192,171115,1,0,0:0:0:1:
109,192,171251,1,0,0:0:0:1:
402,192,171251,1,0,0:0:0:1:
256,192,171388,1,0,0:0:0:1:
109,192,171524,1,0,0:0:0:1:
402,192,171524,1,0,0:0:0:1:
256,192,171660,1,0,0:0:0:1:
109,192,171797,1,0,0:0:0:1:
402,192,171797,1,0,0:0:0:1:
256,192,171933,1,0,0:0:0:1:
109,192,172069,1,0,0:0:0:1:
402,192,172069,1,0,0:0:0:1:
256,192,172206,1,0,0:0:0:1:
36,192,172342,1,0,0:0:0:1:
475,192,172342,1,0,0:0:0:1:
256,192,172479,1,0,0:0:0:1:
36,192,172615,1,0,0:0:0:1:
475,192,172615,1,0,0:0:0:1:
256,192,172751,1,0,0:0:0:1:
36,192,172888,1,0,0:0:0:1:
475,192,172888,1,0,0:0:0:1:
256,192,173024,1,0,0:0:0:1:
36,192,173160,1,0,0:0:0:1:
475,192,173160,1,0,0:0:0:1:
256,192,173297,1,0,0:0:0:1:
109,192,173433,1,0,0:0:0:1:
402,192,173433,1,0,0:0:0:1:
256,192,173569,1,0,0:0:0:1:
109,192,173706,1,0,0:0:0:1:
402,192,173706,1,0,0:0:0:1:
256,192,173842,1,0,0:0:0:1:
109,192,173979,1,0,0:0:0:1:
402,192,173979,1,0,0:0:0:1:
256,192,174115,1,0,0:0:0:1:
109,192,174251,1,0,0:0:0:1:
402,192,174251,1,0,0:0:0:1:
256,192,174388,1,0,0:0:0:1:
182,192,174524,1,0,0:0:0:1:
329,192,174524,1,0,0:0:0:1:
256,192,174660,1,0,0:0:0:1:
182,192,174797,1,0,0:0:0:1:
329,192,174797,1,0,0:0:0:1:
256,192,174933,1,0,0:0:0:1:
182,192,175069,1,0,0:0:0:1:
329,192,175069,1,0,0:0:0:1:
256,192,175206,1,0,0:0:0:1:
182,192,175342,1,0,0:0:0:1:
329,192,175342,1,0,0:0:0:1:
256,192,175479,1,0,0:0:0:1:
109,192,175615,1,0,0:0:0:1:
402,192,175615,1,0,0:0:0:1:
256,192,175751,1,0,0:0:0:1:
109,192,175888,1,0,0:0:0:1:
402,192,175888,1,0,0:0:0:1:
256,192,176024,1,0,0:0:0:1:
109,192,176160,1,0,0:0:0:1:
402,192,176160,1,0,0:0:0:1:
256,192,176297,1,0,0:0:0:1:
36,192,176433,1,0,0:0:0:1:
109,192,176479,1,0,0:0:0:1:
182,192,176524,1,0,0:0:0:1:
256,192,176569,1,0,0:0:0:1:
329,192,176615,1,0,0:0:0:1:
402,192,176660,1,0,0:0:0:1:
109,192,176706,1,0,0:0:0:1:
36,192,176706,1,0,0:0:0:1:
475,192,176706,1,0,0:0:0:1:
256,192,176842,1,0,0:0:0:1:
109,192,176979,1,0,0:0:0:1:
182,192,176979,1,0,0:0:0:1:
329,192,177115,1,0,0:0:0:1:
182,192,177251,1,0,0:0:0:1:
256,192,177251,1,0,0:0:0:1:
402,192,177388,1,0,0:0:0:1:
256,192,177524,1,0,0:0:0:1:
329,192,177524,1,0,0:0:0:1:
475,192,177660,1,0,0:0:0:1:
329,192,177797,1,0,0:0:0:1:
402,192,177797,1,0,0:0:0:1:
256,192,177933,1,0,0:0:0:1:
402,192,178069,1,0,0:0:0:1:
475,192,178069,1,0,0:0:0:1:
182,192,178206,1,0,0:0:0:1:
329,192,178342,1,0,0:0:0:1:
402,192,178342,1,0,0:0:0:1:
109,192,178479,1,0,0:0:0:1:
256,192,178615,1,0,0:0:0:1:
329,192,178615,1,0,0:0:0:1:
36,192,178751,1,0,0:0:0:1:
182,192,178888,1,0,0:0:0:1:
256,192,178888,1,0,0:0:0:1:
329,192,179024,1,0,0:0:0:1:
182,192,179160,1,0,0:0:0:1:
402,192,179160,1,0,0:0:0:1:
256,192,179297,1,0,0:0:0:1:
109,192,179433,1,0,0:0:0:1:
329,192,179433,1,0,0:0:0:1:
182,192,179569,1,0,0:0:0:1:
36,192,179706,1,0,0:0:0:1:
475,192,179706,1,0,0:0:0:1:
329,192,179842,1,0,0:0:0:1:
109,192,179979,1,0,0:0:0:1:
402,192,179979,1,0,0:0:0:1:
256,192,180115,1,0,0:0:0:1:
182,192,180251,1,0,0:0:0:1:
329,192,180251,1,0,0:0:0:1:
402,192,180388,1,0,0:0:0:1:
256,192,180524,1,0,0:0:0:1:
36,192,180524,1,0,0:0:0:1:
475,192,180660,1,0,0:0:0:1:
109,192,180797,1,0,0:0:0:1:
329,192,180797,1,0,0:0:0:1:
256,192,180933,1,0,0:0:0:1:
182,192,181069,1,0,0:0:0:1:
402,192,181069,1,0,0:0:0:1:
109,192,181206,1,0,0:0:0:1:
256,192,181342,1,0,0:0:0:1:
475,192,181342,1,0,0:0:0:1:
329,192,181479,1,0,0:0:0:1:
182,192,181615,1,0,0:0:0:1:
36,192,181615,1,0,0:0:0:1:
402,192,181751,1,0,0:0:0:1:
109,192,181888,1,0,0:0:0:1:
256,192,181888,1,0,0:0:0:1:
36,192,182024,1,0,0:0:0:1:
182,192,182160,1,0,0:0:0:1:
329,192,182160,1,0,0:0:0:1:
475,192,182297,1,0,0:0:0:1:
256,192,182433,1,0,0:0:0:1:
402,192,182433,1,0,0:0:0:1:
182,192,182569,1,0,0:0:0:1:
329,192,182706,1,0,0:0:0:1:
475,192,182706,1,0,0:0:0:1:
256,192,182842,1,0,0:0:0:1:
109,192,182979,1,0,0:0:0:1:
402,192,182979,1,0,0:0:0:1:
182,192,183115,1,0,0:0:0:1:
109,192,183251,128,0,183525:0:0:0:1:
256,192,183251,128,0,183525:0:0:0:1:
402,192,183251,128,0,183525:0:0:0:1:
109,192,184343,128,0,184616:0:0:0:1:
182,192,184343,128,0,184616:0:0:0:1:
256,192,184343,128,0,184616:0:0:0:1:
329,192,184343,128,0,184616:0:0:0:1:
402,192,184343,128,0,184616:0:0:0:1:
36,192,184343,128,0,184616:0:0:0:1:
475,192,184343,128,0,184616:0:0:0:1:
109,192,185434,1,0,0:0:0:1:
182,192,185434,1,0,0:0:0:1:
36,192,185434,1,0,0:0:0:1:
256,192,185843,1,0,0:0:0:0:
109,192,185844,1,0,0:0:0:1:
182,192,185844,1,0,0:0:0:1:
329,192,186525,1,0,0:0:0:1:
402,192,186525,1,0,0:0:0:1:
475,192,186525,1,0,0:0:0:1:
256,192,186934,1,0,0:0:0:1:
329,192,186934,1,0,0:0:0:1:
402,192,186934,1,0,0:0:0:1:
109,192,187616,1,0,0:0:0:1:
182,192,187616,1,0,0:0:0:1:
256,192,187616,1,0,0:0:0:1:
182,192,188025,1,0,0:0:0:1:
256,192,188025,1,0,0:0:0:1:
329,192,188025,1,0,0:0:0:1:
329,192,188707,1,0,0:0:0:1:
402,192,188707,1,0,0:0:0:1:
475,192,188707,1,0,0:0:0:1:
256,192,189116,1,0,0:0:0:1:
329,192,189116,1,0,0:0:0:1:
402,192,189116,1,0,0:0:0:1:
256,192,189798,128,0,190344:0:0:0:1:
182,192,190344,128,0,190889:0:0:0:1:
329,192,190344,128,0,190889:0:0:0:1:
109,192,190889,128,0,191434:0:0:0:1:
402,192,190889,128,0,191434:0:0:0:1:
36,192,191434,128,0,191980:0:0:0:1:
475,192,191434,128,0,191980:0:0:0:1:
109,192,191980,128,0,206980:0:0:0:1:
256,192,191980,128,0,206980:0:0:0:1:
402,192,191980,128,0,206980:0:0:0:1:
