osu file format v9

[General]
AudioFilename: Renard - Rainbow Dash Likes Girls (Stay Gay Pony Girl).mp3
AudioLeadIn: 0
PreviewTime: 80199
Countdown: 1
SampleSet: Normal
StackLeniency: 0.7
Mode: 0
LetterboxInBreaks: 1

[Editor]
Bookmarks: 196927
DistanceSpacing: 0.6
BeatDivisor: 4
GridSize: 8

[Metadata]
Title:Rainbow Dash Likes Girls (Stay Gay Pony Girl)
Artist:Renard
Creator:DoKoLP
Version:ezek
Source:
Tags:

[Difficulty]
HPDrainRate:6
CircleSize:4
OverallDifficulty:7
ApproachRate:7
SliderMultiplier:1.8
SliderTickRate:1

[Events]
//Background and Video events
0,0,"cover.jpg"
//Break Periods
2,41126,57481
//Storyboard Layer 0 (Background)
//Storyboard Layer 1 (Fail)
//Storyboard Layer 2 (Pass)
//Storyboard Layer 3 (Foreground)
//Storyboard Sound Samples
//Background Colour Transformations
3,100,163,162,255

[TimingPoints]
6018,272.727272727273,4,1,0,75,1,0
6025,-100,4,1,0,75,0,1
40927,-100,4,1,0,75,0,0
58381,-200,4,2,0,90,0,0
71472,-200,4,1,0,75,0,0
72563,-100,4,1,0,75,0,0
80336,-100,4,2,0,90,0,0
88927,-100,4,1,0,75,0,0
97654,-100,4,1,0,90,0,0
106927,-100,4,1,0,75,0,0
112927,-100,4,1,0,90,0,0
115108,-200,4,1,0,60,0,0
132563,-200,4,1,0,70,0,0
140199,-133.333333333333,4,1,0,70,0,0
141290,-100,4,2,0,70,0,0
150018,-100,4,1,0,85,0,1
191745,-200,4,1,0,5,0,0

[Colours]
Combo1 : 136,57,103
Combo2 : 139,210,218
Combo3 : 216,216,216

[HitObjects]
40,48,6018,2,2,B|80:72|128:48,1,90
232,48,6427,2,2,B|272:24|320:48,1,90
424,48,6836,1,8
424,152,7108,6,2,B|424:208|480:240,1,90
408,320,7518,1,2
408,320,7654,1,2
304,344,7927,1,8
200,344,8199,2,2,B|112:344,1,90
48,256,8608,1,2
48,256,8745,1,2
152,248,9018,1,8
88,160,9290,5,2
88,160,9427,1,2
192,160,9699,1,2
192,160,9836,1,2
240,256,10108,2,0,B|296:176|248:80,1,180,8|2
250,85,10518,1,2
144,88,10790,1,2
144,88,10927,1,2
250,85,11199,1,8
360,88,11472,6,2,B|440:48,1,90
400,152,11881,2,2,B|312:200,1,90
416,256,12290,1,8
344,336,12563,5,2
288,336,12699,1,2
176,336,12972,1,2
232,336,13108,1,2
256,232,13381,1,8
232,336,13654,5,2
176,336,13790,1,2
64,336,14063,1,2
64,280,14199,1,2
64,168,14472,1,8
144,96,14745,6,2,B|224:48,1,90
320,88,15154,2,2,B|400:40,1,90
424,144,15563,1,8
472,240,15836,5,2
472,240,15972,1,2
432,344,16245,1,2
432,344,16381,1,2
432,344,16518,2,0,B|336:344,1,90,0|8
232,344,16927,5,2
176,344,17063,1,2
232,248,17336,1,2
176,248,17472,1,2
120,248,17608,2,0,B|120:336,1,90,0|8
64,248,18018,5,2
64,248,18154,1,2
64,136,18427,1,2
112,112,18563,1,2
160,88,18699,1,0
208,64,18836,1,8
312,64,19108,5,2
312,64,19245,1,2
424,64,19518,1,2
424,120,19654,1,0
424,176,19790,2,0,B|424:264,1,90,0|8
344,336,20199,6,2,B|256:336,1,90
176,264,20608,2,2,B|264:264,1,90
266,264,20881,1,0
266,264,21018,1,8
192,184,21290,6,2,B|280:184,1,90
200,112,21699,2,2,B|112:112,1,90
32,184,22108,5,8
32,296,22381,5,8
88,296,22518,1,8
144,296,22654,1,8
200,296,22790,1,8
256,296,22927,2,8,B|344:296,4,90
256,184,23745,6,2,B|256:96,1,90,10|0
256,94,24018,2,2,B|336:48,1,90
416,192,24563,6,2,B|472:192|472:248,1,90
416,336,24972,2,2,B|472:336|472:280,1,90
368,264,25381,1,8
296,344,25654,1,2
272,296,25790,1,2
176,344,26063,1,2
152,296,26199,1,2
56,344,26472,1,8
56,232,26745,6,2,B|56:144,1,90
136,216,27154,2,2,B|136:128,1,90
56,56,27563,1,8
168,56,27836,5,0
224,56,27972,1,2
336,56,28245,2,0,B|424:56,1,90,0|2
464,272,28927,6,0,B|480:312|480:312|456:352,1,90,0|2
384,272,29336,2,0,B|368:312|368:312|392:352,1,90,0|2
464,272,29745,1,8
384,200,30018,2,0,B|336:200|336:200|312:240,1,90,0|2
224,296,30427,2,0,B|272:296|272:296|296:336,1,90,0|2
264,224,30836,1,8
160,240,31108,5,0
160,296,31245,1,2
64,344,31518,1,0
64,288,31654,1,2
64,176,31927,6,8,B|32:136,4,45
64,176,32336,2,0,B|152:176,1,90,8|2
154,176,32608,2,0,B|160:88,1,90,0|2
256,40,33018,1,8
256,144,33290,6,0,B|304:144|304:144|328:104,1,90,0|2
408,40,33699,2,0,B|429:76|429:76|477:76,1,90,0|2
400,152,34108,1,8
432,256,34381,6,8,B|352:352|184:352,1,270
32,128,35472,2,8,B|112:32|280:32,1,270
456,232,36563,5,0
432,280,36699,1,2
328,240,36972,1,0
296,288,37108,1,2
400,328,37381,1,8
296,288,37654,6,0,B|296:352|224:352,1,90,8|2
136,344,38063,1,0
136,344,38199,1,2
40,288,38472,1,8
136,240,38745,5,0
480,168,39154,1,0
136,240,39836,1,8
136,184,39972,1,8
136,128,40108,1,8
136,72,40245,2,8,B|48:48,2,90
192,72,40654,2,8,B|200:64|200:64|208:72|208:72|216:64|216:64|224:72|224:72|232:64|232:64|240:72|240:72|248:64|248:64|256:72|256:72|264:64|264:64|272:72|272:72|280:64|280:64|288:72|288:72|296:64|296:64|304:72|304:72|312:64|312:64|320:72|320:72|328:64|328:64|336:72|336:72,1,180,8|0
256,344,58381,5,0
256,192,58654,1,0
256,40,58927,1,0
184,120,59472,6,0,B|184:256,1,135
328,248,60154,2,0,B|328:120,1,112.5
256,40,61108,5,0
200,48,61381,1,0
144,56,61654,1,0
96,64,61927,1,0
40,72,62199,2,0,B|40:160,1,90
40,216,62745,1,4
40,272,63018,2,0,B|40:360,2,90
88,248,63836,1,0
136,272,64108,1,0
144,328,64381,2,0,B|184:352|224:336|240:296|232:272,1,135
344,344,65472,6,0,B|424:344,1,67.5
440,312,65881,1,0
480,256,66222,2,0,B|480:144,1,112.5
168,48,68199,6,0,B|160:48|160:48|160:56|160:56|152:56|152:56|152:64|152:64|144:64|144:64|144:72|144:72|136:72|136:72|136:80|136:80|128:80|128:80|128:88|128:88|120:88|120:88|120:96|120:96|112:96|112:96|112:104|112:104|104:104|104:104|104:112|104:112|96:112|96:112|96:120|96:120|88:120|88:120|88:128|88:128|80:128|80:128|80:136|80:136|72:136|72:136,1,180
40,240,69290,1,0
112,320,69836,1,0
216,344,70381,6,0,B|224:336|224:336|232:344|232:344|240:336|240:336|248:344|248:344|256:336|256:336|264:344|264:344|272:336|272:336|280:344|280:344|288:336|288:336|296:344|296:344|304:336|304:336|312:344|312:344,1,135
311,343,70927,2,0,B|328:344,14,11.25,0|0|0|0|0|0|0|0|0|0|0|0|0|0|4
40,40,72563,5,4
472,40,73654,1,4
56,352,75290,2,0,B|32:352,7,22.5,0|0|0|0|0|0|0|4
216,352,75836,1,4
440,120,76654,2,0,B|496:120,4,45,0|0|0|0|4
120,56,77745,2,0,B|96:56,7,22.5,0|0|0|0|0|0|0|4
40,280,78563,1,0
256,320,79108,1,0
368,320,79381,1,0
456,256,79654,1,0
472,208,79790,1,0
472,152,79927,2,0,B|472:128,7,22.5,0|0|0|0|0|0|0|4
376,56,80472,6,0,B|288:56,1,90
280,56,80745,2,0,B|192:56,1,90
190,56,81018,2,0,B|96:56,1,90
100,56,81290,2,0,B|40:144,1,90
49,130,81563,2,0,B|48:224,1,90
48,272,81836,1,0
88,312,81972,1,0
128,352,82108,1,0
184,352,82245,1,0
240,352,82381,1,0
296,352,82518,5,0
352,352,82654,1,0
408,352,82790,1,0
464,352,82927,2,0,B|480:256,1,90
478,263,83199,2,0,B|480:160,1,90
479,173,83472,2,0,B|480:80,1,90
424,88,83745,1,0
368,88,83881,2,0,B|288:32,4,90
336,128,84563,2,0,B|416:184,4,90
288,104,85245,2,0,B|208:48,4,90
256,144,85927,2,0,B|336:200,4,90
208,176,86608,1,0
152,176,86745,6,0,B|152:88,4,90
96,176,87427,2,0,B|96:264,4,90,0|0|0|0|0
40,176,88108,2,0,B|40:88,4,90
32,288,88927,5,2
120,344,89199,1,0
176,344,89336,2,0,B|256:296|352:344,1,180,2|0
456,344,89881,2,0,B|501:259|453:171,1,180,2|0
416,208,90290,1,0
376,240,90426,2,0,B|291:285|203:237,1,180,2|0
72,144,91108,5,2
128,48,91380,1,0
176,32,91517,2,0,B|256:80|352:32,1,180,2|0
440,168,92199,2,0,B|485:252|440:344,1,180,2|0
384,336,92608,2,0,B|315:264|220:281,1,180,2|0
88,192,93290,6,0,B|168:352,1,180,2|0
224,352,93699,2,0,B|304:192,1,180,2|0
464,192,94381,2,0,B|384:352,1,180,2|0
328,352,94790,2,0,B|248:192,1,180,2|0
88,160,95472,1,2
144,72,95745,1,0
144,72,95881,1,2
216,152,96154,1,0
336,40,96563,5,2
336,152,96836,1,0
336,152,96972,2,0,B|424:152,1,90,2|0
320,344,97654,6,0,B|320:248,1,90
264,256,97927,2,0,B|264:344,1,90
208,344,98199,2,0,B|208:256,1,90
152,256,98472,2,0,B|152:352,1,90
96,344,98745,2,0,B|96:256,1,90
40,256,99017,2,0,B|40:344,2,90
48,144,99563,6,0,B|120:72|240:72,1,180
320,72,100108,2,0,B|424:72|488:144,1,180
480,248,100654,2,0,B|408:320|288:320,1,180
208,320,101199,2,0,B|104:320|40:248,1,180
40,144,101745,6,0,B|40:48,1,90
96,56,102018,2,0,B|96:144,1,90
152,144,102290,2,0,B|152:56,1,90
208,56,102563,2,0,B|208:152,1,90
264,144,102836,2,0,B|264:56,1,90
320,56,103108,2,0,B|320:144,2,90
376,56,103518,5,0
424,72,103654,1,0
464,104,103790,1,0
424,136,103927,2,0,B|448:184|512:192,1,90
496,240,104199,2,0,B|472:288|408:296,1,90
376,288,104472,1,0
320,288,104608,2,0,B|264:296|248:352,7,90
251,340,105699,2,0,B|243:284|187:268,5,90
40,128,106927,5,0
256,88,107472,1,0
472,128,108018,1,0
472,344,108563,1,0
256,304,109108,1,0
40,344,109654,1,0
40,128,110199,5,0
256,88,110745,1,0
472,128,111291,1,0
472,344,111836,1,0
256,304,112381,1,0
40,344,112927,1,0
56,240,113199,5,0
104,144,113472,1,0
184,72,113745,1,0
296,72,114018,2,0,B|384:72,7,90
448,192,115654,5,0
432,248,115927,1,0
416,296,116199,2,0,B|360:344|272:352,1,157.5
48,288,117836,6,0,B|24:248|32:200,1,90
56,152,118381,1,0
80,104,118654,1,0
344,40,120018,6,0,B|392:48|424:88,1,90
448,128,120563,1,0
464,176,120836,1,0
464,232,121108,1,0
456,336,121654,6,0,B|408:336|408:288|408:288|408:240|368:240|368:240|328:240|296:240|296:240|256:240|256:288|256:288|256:336|216:336,1,360
112,336,123290,1,0
40,256,123836,2,0,B|40:72,1,180
144,40,124927,1,0
248,64,125472,1,0
168,136,126018,2,0,B|176:208|256:240|336:256|416:248|488:208|496:136,1,405
416,136,127654,2,0,B|328:192|352:296,1,180
0,40,130381,2,0,B|96:48|160:112|184:192|200:256|200:312,2,360
8,96,132836,5,0
8,96,132972,1,0
8,96,133108,1,0
32,144,133381,1,0
96,232,133927,5,0
96,232,134063,1,0
96,232,134199,1,0
96,232,134404,1,0
168,328,135018,5,0
192,328,135154,1,0
216,328,135290,1,0
272,328,135563,1,0
328,328,135836,1,0
384,328,136108,2,0,B|440:336|464:296,1,90
464,240,136654,1,0
464,184,136927,2,0,B|435:75|319:106|354:238|222:273|185:134,2,360
176,40,140199,2,2,B|32:104|32:256,1,269.999991953373
224,344,141290,5,0
336,344,141563,1,0
280,248,141836,1,0
384,248,142108,1,0
440,344,142381,1,0
488,248,142654,1,0
432,152,142927,1,0
328,152,143199,1,0
328,152,143336,1,0
328,152,143472,1,0
208,48,143881,2,0,B|120:48,1,90
40,248,144563,5,0
136,296,144836,1,0
232,352,145108,1,0
304,152,145654,2,0,B|408:136|480:176,2,180
40,344,147018,5,0
40,240,147290,1,0
144,48,147836,2,0,B|272:16|416:48,1,270
411,47,148381,1,0
424,152,148654,5,0
384,256,148927,1,0
304,328,149199,2,0,B|152:328|152:328|112:328|112:280|112:280|112:144,1,360
176,56,150018,6,0,B|224:40|272:56,1,90,0|2
360,96,150427,2,0,B|408:112|456:96,1,90,0|2
480,312,151108,1,0
320,312,151518,1,0
48,312,152199,5,0
208,312,152608,1,0
48,96,153290,5,0
208,96,153699,1,0
480,96,154381,5,0
424,96,154518,1,2
320,96,154790,1,0
376,96,154927,1,2
256,272,155472,6,0,B|208:336|136:296|128:224|152:176|256:176,1,270
256,272,156563,6,0,B|304:336|376:296|384:224|360:176|256:176,1,270
32,40,157654,5,0
32,200,158063,1,0
176,128,158472,1,0
200,128,158540,1,0
224,128,158608,1,0
248,128,158677,1,0
272,128,158745,1,0
328,128,158881,5,2
328,240,159154,1,0
384,240,159290,1,2
480,48,159836,6,0,B|208:48,1,270
32,248,160927,2,0,B|304:248,1,270
480,48,162018,2,0,B|208:48,1,270
48,264,163108,5,0
88,280,163245,1,2
184,336,163518,2,0,B|232:352|280:336,1,90,0|2
384,336,163927,1,2
440,336,164063,1,2
496,336,164199,6,0,B|496:64,1,270
224,64,165290,2,0,B|224:334,1,270
80,104,166381,5,0
80,160,166518,1,0
80,216,166654,1,0
80,272,166790,1,0
80,328,166927,2,0,B|80:376,8,45
80,216,167745,5,0
128,120,168018,1,0
216,56,168290,1,0
328,56,168563,1,0
416,120,168836,1,0
472,216,169108,1,0
416,312,169381,6,0,B|336:352|304:264|304:200,1,180
256,312,169927,2,0,B|336:352|368:264|368:200,1,180
416,120,170472,2,0,B|336:80|304:168|304:232,1,180
256,120,171018,2,0,B|336:80|368:168|368:232,1,180
416,312,171563,6,0,B|336:352|304:264|304:200,1,180
256,312,172109,2,0,B|336:352|368:264|368:200,1,180
416,120,172654,2,0,B|336:80|304:168|304:232,1,180
256,120,173200,2,0,B|336:80|368:168|368:232,1,180
416,312,173745,6,0,B|336:352|304:264|304:200,1,180
256,312,174291,2,0,B|336:352|368:264|368:200,1,180
416,120,174836,2,0,B|336:80|304:168|304:232,1,180
256,120,175382,2,0,B|336:80|368:168|368:232,1,180
256,216,175927,5,0
168,280,176199,1,0
80,216,176472,1,0
112,112,176745,1,0
224,112,177018,1,0
256,216,177290,5,0
168,280,177562,1,0
80,216,177835,1,0
112,112,178108,1,0
224,112,178381,1,0
256,216,178654,5,0
344,152,178926,1,0
432,216,179199,1,0
400,320,179472,1,0
296,328,179745,1,0
256,216,180018,5,0
344,152,180290,1,0
432,216,180563,1,0
400,320,180836,1,0
288,320,181109,1,0
256,216,181381,5,0
168,280,181653,1,0
80,216,181926,1,0
112,112,182199,1,0
216,104,182472,1,0
312,48,182745,1,4
8,360,183836,1,4
296,40,184927,6,0,B|464:48|456:216,1,270
224,352,186018,2,0,B|56:344|64:176,1,270
296,40,187108,5,0
472,344,187518,1,0
296,40,188199,1,0
136,344,188608,1,0
464,40,189290,5,4
40,40,189836,1,4
40,344,190381,1,4
472,344,190927,1,4
256,192,191745,12,0,196927
